#TITLE:we are the Massive New Krew;
#SUBTITLE:;
#ARTIST:Massive New Krew;
#TITLETRANSLIT:;
#SUBTITLETRANSLIT:;
#ARTISTTRANSLIT:;
#GENRE:;
#CREDIT:PaperBox440;
#BANNER:we are the Massive New Krew.png;
#BACKGROUND:we are the Massive New Krew-bg.png;
#LYRICSPATH:;
#CDTITLE:;
#MUSIC:we are the Massive New Krew.mp3;
#OFFSET:0.000000;
#SAMPLESTART:67.599998;
#SAMPLELENGTH:13.200005;
#SELECTABLE:YES;
#BPMS:0.000000=150.000000
;
#STOPS:
;
#BGCHANGES:;
#KEYSOUNDS:;
#ATTACKS:;

//---------------dance-single - ----------------
#NOTES:
     dance-single:
     :
     Hard:
     10:
     0.487899,0.543048,0.775103,0.110729,0.003460,987.000000,763.000000,224.000000,32.000000,0.000000,0.000000,0.487899,0.543048,0.775103,0.110729,0.003460,987.000000,763.000000,224.000000,32.000000,0.000000,0.000000:
// measure 0
0000
0000
0000
0000
,  // measure 1
0000
0000
0000
0000
,  // measure 2
0000
0000
0000
0000
,  // measure 3
0000
0000
0000
0000
,  // measure 4
0000
0000
0000
0000
,  // measure 5
0000
0000
0000
0000
,  // measure 6
0000
0000
0000
0000
,  // measure 7
0000
0000
0000
0000
,  // measure 8
0000
0000
0001
0011
,  // measure 9
0010
0110
0100
1100
,  // measure 10
1000
1000
1001
0001
,  // measure 11
0011
0010
0100
1000
,  // measure 12
0010
0001
0011
0100
,  // measure 13
1100
1000
1001
0001
,  // measure 14
0010
0010
0100
1100
,  // measure 15
0110
0011
1001
0110
,  // measure 16
0000
0010
0100
0110
,  // measure 17
0110
0000
0010
0000
0100
0010
0100
0001
,  // measure 18
0010
0100
1000
0100
,  // measure 19
0110
0000
0011
0000
1000
0000
0100
0010
,  // measure 20
1000
0001
0010
0000
0100
0000
1100
0000
,  // measure 21
1000
0000
1001
0000
0010
0100
0010
0000
,  // measure 22
1000
0000
0001
0000
0010
0100
1000
0000
,  // measure 23
1000
0000
0000
0000
0110
0000
0000
0000
0011
0000
0100
0000
0100
0010
0001
0000
,  // measure 24
1000
1100
0010
0110
,  // measure 25
1100
0000
1001
0000
0011
0100
0010
0000
,  // measure 26
1000
0100
0000
1010
0001
0010
1000
0000
,  // measure 27
1001
0000
1001
0000
0010
0100
0010
0100
,  // measure 28
0001
0000
0011
1000
0100
0000
0110
0000
,  // measure 29
0011
0000
1001
0000
0100
0010
0100
0010
,  // measure 30
0001
1000
0000
0010
0100
0000
0101
0000
,  // measure 31
0001
0000
1001
0000
1100
0010
0100
0010
,  // measure 32
0200
0300
0001
0000
1001
0000
1000
0000
,  // measure 33
1100
0000
0100
0000
0110
0001
1000
0001
,  // measure 34
1000
0100
0001
0000
0010
0000
0110
0000
,  // measure 35
0100
0000
1100
0000
1000
0001
1000
0001
,  // measure 36
0010
0000
0100
0000
0001
0010
0100
0000
,  // measure 37
1001
0000
1001
0000
0010
0100
0010
0100
,  // measure 38
0001
0010
0000
1000
0100
0000
0110
0000
,  // measure 39
0011
0000
0100
0000
1000
0001
1000
0001
,  // measure 40
1000
0000
0010
0200
0300
0000
0110
0000
,  // measure 41
0000
0010
0100
1001
,  // measure 42
0110
1001
0010
1010
,  // measure 43
1000
0000
1100
0000
0001
0100
0010
0100
,  // measure 44
0010
1000
1100
0100
,  // measure 45
0010
0000
0011
0000
1001
0000
0100
0010
,  // measure 46
0100
0010
1000
0000
0100
0010
0100
0000
,  // measure 47
0010
0000
0011
0000
1000
0001
1000
0001
,  // measure 48
0100
0010
1010
1000
,  // measure 49
0100
0000
0220
0330
2020
3030
2002
3003
,  // measure 50
0000
0000
0010
0010
0110
0000
1001
0000
,  // measure 51
0001
0000
0011
0000
0010
0100
1000
0100
,  // measure 52
1000
0010
1010
1000
,  // measure 53
1001
0000
1001
0000
0010
0100
0010
0100
,  // measure 54
0001
1001
0010
1010
,  // measure 55
1100
0000
0110
0000
0001
1000
0001
0000
,  // measure 56
1000
1100
0100
0110
,  // measure 57
0001
0000
0011
0000
1000
0001
1000
0001
,  // measure 58
1000
0100
0010
0020
0000
0000
0030
0000
,  // measure 59
0000
0000
0000
0000
,  // measure 60
0000
0000
0000
0000
,  // measure 61
0000
0000
0000
0000
,  // measure 62
0000
1001
0000
0000
,  // measure 63
0000
0000
0000
0000
,  // measure 64
0000
1001
1001
0000
,  // measure 65
0000
0000
0000
0000
,  // measure 66
0000
0010
0010
0110
0000
0000
0000
0000
,  // measure 67
0000
0000
0000
0000
,  // measure 68
0000
0000
1001
1000
1001
0000
0000
0000
,  // measure 69
0000
0000
0000
0000
,  // measure 70
0000
0010
0110
0000
0000
0000
0000
0000
,  // measure 71
0000
0000
0000
0000
,  // measure 72
0000
0000
1000
0000
1100
0000
0000
0001
,  // measure 73
0010
0010
1000
0000
1100
0000
0001
0001
,  // measure 74
0001
0010
0100
1000
0000
1000
1000
0010
,  // measure 75
0100
0000
0100
0010
0100
0000
1000
0000
0000
0000
0001
0000
0010
0000
0100
0000
,  // measure 76
0100
0010
0011
0000
1100
0000
1010
0000
,  // measure 77
0010
0100
0010
0002
0003
0002
0003
0020
,  // measure 78
0230
0000
0320
0030
1001
0000
0000
0000
0100
0000
0000
0000
0010
0000
0000
0000
,  // measure 79
0010
0100
1000
0000
0001
0010
0002
0003
,  // measure 80
1000
0000
1100
0001
0010
0000
0100
0000
,  // measure 81
0110
0000
0010
1000
0100
0000
0001
0010
,  // measure 82
0001
0100
0110
1000
,  // measure 83
0010
0001
1000
0001
0100
0000
0010
0001
,  // measure 84
0000
1000
0000
0100
0010
0000
0001
0000
,  // measure 85
1000
0001
1000
0000
0010
0000
0010
0100
,  // measure 86
0010
0100
1001
0000
0000
1100
0000
1010
,  // measure 87
0000
0110
0000
0000
0001
1000
0000
1010
,  // measure 88
0100
0110
0001
1001
,  // measure 89
0110
0000
0000
0000
0001
0010
0000
1100
,  // measure 90
0000
0110
0000
0000
0001
0001
0001
0110
,  // measure 91
0000
0001
1000
1000
,  // measure 92
0100
0001
1000
0100
,  // measure 93
0101
0000
0000
0000
,  // measure 94
0000
1001
0010
1010
,  // measure 95
1000
0010
1000
0010
0000
0100
0000
0101
,  // measure 96
0000
0001
0010
0000
1000
0000
1100
0000
,  // measure 97
0100
0000
0010
0001
0010
0000
1010
1000
,  // measure 98
1100
0110
0010
1000
,  // measure 99
0100
0010
0100
0000
0001
0010
2020
3030
,  // measure 100
0100
0001
0010
1010
,  // measure 101
1000
0100
1000
0000
0100
0000
1100
0000
,  // measure 102
0011
1010
0100
0110
,  // measure 103
0001
1000
0001
0000
0100
0000
0100
0010
,  // measure 104
0100
1000
0001
0011
,  // measure 105
0010
1000
0010
1000
0110
0000
1010
0010
,  // measure 106
0110
0000
0000
0001
0010
0000
1100
0000
,  // measure 107
0110
0000
0001
0001
1010
0000
0100
0200
,  // measure 108
0000
0300
0010
0000
0001
0000
0011
0000
,  // measure 109
0010
0100
0010
0000
1010
0000
1000
0001
,  // measure 110
1000
1001
0010
1010
,  // measure 111
1000
0010
1000
0010
0000
0011
1000
0100
,  // measure 112
0001
0010
1010
1100
,  // measure 113
0100
0001
0010
0000
0001
0000
0100
0000
,  // measure 114
1000
0001
1000
0001
0100
0000
0110
0000
,  // measure 115
0010
1000
0010
0000
1100
0000
0010
0002
,  // measure 116
0003
0000
1100
0000
0010
0001
0000
1000
,  // measure 117
0010
0100
0000
0000
0000
0000
0000
0000
,  // measure 118
0000
0010
0110
1000
,  // measure 119
1000
0001
1000
0001
0010
0000
0010
0200
,  // measure 120
0300
1000
0011
1010
,  // measure 121
1100
0000
0010
0001
1100
0000
0010
0010
,  // measure 122
0010
1000
1100
1010
,  // measure 123
0010
0100
0010
0000
1001
0000
1001
0020
,  // measure 124
0000
0130
0000
0000
0011
0000
1010
0000
,  // measure 125
1100
0000
0010
0001
1000
0000
1010
0000
,  // measure 126
0110
0000
0101
0000
0010
0100
0000
1001
,  // measure 127
0000
0010
0100
0010
0000
1000
0000
0001
,  // measure 128
0010
0100
0010
0011
,  // measure 129
0001
1000
0011
0000
1100
0000
1000
0010
,  // measure 130
1000
0010
0000
0100
0001
0000
0011
0000
,  // measure 131
1000
0010
1000
0000
0100
0000
0010
0002
,  // measure 132
0000
0003
0100
0010
0000
0110
0000
1010
,  // measure 133
0000
1000
0001
0000
0010
0000
0100
0010
,  // measure 134
0100
0000
0001
1000
0001
0000
1100
0000
,  // measure 135
1010
0000
0110
0000
0001
1000
0001
1000
,  // measure 136
0000
0010
0100
0000
0001
1000
0000
1100
,  // measure 137
0000
0110
0000
0011
0000
1000
0001
1000
,  // measure 138
0001
0000
0010
0100
0000
0110
0000
1010
,  // measure 139
0000
1100
0000
0011
0000
0001
1000
0001
,  // measure 140
0000
0010
0100
0000
0001
1000
0000
1000
,  // measure 141
0000
1010
0000
0110
0000
0001
1000
0001
,  // measure 142
1000
0000
0010
0100
0000
0011
0000
1010
,  // measure 143
0000
1100
0000
0011
0000
0100
0010
0100
,  // measure 144
0010
0000
1000
0100
0001
0010
0000
1100
,  // measure 145
0000
1010
0000
0110
0000
0001
1000
0001
,  // measure 146
0000
1000
0100
0000
0010
0001
0000
1000
,  // measure 147
0000
1100
0000
0110
0000
0001
1000
0001
,  // measure 148
1000
0000
0010
0100
0001
1000
0000
1100
,  // measure 149
0000
1010
0000
0110
0000
0001
1000
0001
,  // measure 150
1000
0000
0010
0100
0000
1100
0000
0110
,  // measure 151
0000
0011
0000
1001
0000
0010
0100
0010
,  // measure 152
0100
0000
0001
0010
1000
0100
0000
0110
,  // measure 153
0000
0010
0000
0011
0000
0001
1000
0001
,  // measure 154
1000
0010
0010
0100
1000
0011
0000
0110
,  // measure 155
0000
1010
0000
1100
0010
0100
0010
0100
,  // measure 156
0000
0001
0010
0000
1000
0100
0000
0010
,  // measure 157
0000
1010
0000
1100
0000
0001
0010
0001
,  // measure 158
0010
0100
0100
0000
0110
0000
1100
0000
,  // measure 159
1010
0110
0101
0011
,  // measure 160
1001
1100
1010
0110
,  // measure 161
0101
0001
1001
1000
,  // measure 162
1010
0010
0110
1010
,  // measure 163
1100
0101
0011
0010
,  // measure 164
1010
0001
0010
0110
,  // measure 165
1100
0000
0022
0033
2200
3300
2020
3030
,  // measure 166
0001
0000
0100
0010
0100
0000
0011
0000
,  // measure 167
1010
0000
1000
0000
1000
0001
1000
0001
,  // measure 168
1000
0000
0010
0100
0010
0000
1010
0000
,  // measure 169
1100
0000
0001
0010
0100
1000
0001
1000
,  // measure 170
0001
0000
0010
0100
0000
1100
0000
1010
,  // measure 171
0000
0110
0000
0001
0010
0100
0010
0100
,  // measure 172
0000
1000
0000
1100
0000
0100
0000
0110
,  // measure 173
0000
0022
0033
0220
0330
0001
1000
0001
,  // measure 174
0100
0010
0000
0110
0000
0000
0000
0000
;
