#VERSION:0.83;
#TITLE:Turn into white;
#SUBTITLE:;
#ARTIST:BEMANI Sound Team "S-C-U & TATSUYA";
#TITLETRANSLIT:;
#SUBTITLETRANSLIT:;
#ARTISTTRANSLIT:;
#GENRE:;
#ORIGIN:;
#CREDIT:PaperBox440;
#BANNER:Turn into white.png;
#BACKGROUND:;
#PREVIEWVID:;
#JACKET:Turn into white-jacket.png;
#CDIMAGE:;
#DISCIMAGE:;
#LYRICSPATH:;
#CDTITLE:cdtitle.png;
#MUSIC:Turn into white.mp3;
#OFFSET:0.000000;
#SAMPLESTART:31.451614;
#SAMPLELENGTH:12.741936;
#SELECTABLE:YES;
#BPMS:0.000=186.000;
#STOPS:;
#DELAYS:;
#WARPS:;
#TIMESIGNATURES:0.000=4=4;
#TICKCOUNTS:0.000=4;
#COMBOS:0.000=1;
#SPEEDS:0.000=1.000=0.000=0;
#SCROLLS:0.000=1.000;
#FAKES:;
#LABELS:0.000=Song Start;
#BGCHANGES:;
#KEYSOUNDS:;
#ATTACKS:
;

//---------------dance-single - ----------------
#NOTEDATA:;
#CHARTNAME:;
#STEPSTYPE:dance-single;
#DESCRIPTION:;
#CHARTSTYLE:;
#DIFFICULTY:Hard;
#METER:15;
#RADARVALUES:0.737420,0.950380,0.848291,0.081219,0.482804,572.000000,478.000000,94.000000,9.000000,0.000000,0.000000,0.000000,0.000000,0.000000,0.737420,0.950380,0.848291,0.081219,0.482804,572.000000,478.000000,94.000000,9.000000,0.000000,0.000000,0.000000,0.000000,0.000000;
#CREDIT:;
#NOTES:
0000
0010
0100
0010
1000
0000
0100
0000
,
0001
0110
0000
1000
0000
0010
0100
0000
,
0010
0000
1001
0000
0010
0100
0000
0002
,
0000
0003
1100
0000
0010
0100
0010
0000
,
1001
0000
0100
0100
0000
1000
1000
0001
,
1100
0010
0000
0100
0010
0000
0001
0001
,
0000
0000
1000
0000
0001
0000
1000
0000
0000
0000
0001
0010
0200
0000
0000
0000
,
0000
0000
0000
1300
0001
0000
0001
0000
,
0001
0000
0000
0100
0110
0000
0000
1000
,
0001
1000
0000
0010
0001
0000
0001
0100
,
0000
0001
1000
0001
1000
0000
0010
0000
0110
0000
0000
0000
1000
0000
1000
0000
,
0000
0200
0000
0300
0001
0010
0100
0000
,
0110
0000
0000
0000
0000
0000
1000
0000
1000
0000
0000
0001
1000
0000
0000
0000
,
0100
0010
0000
0000
1000
0000
1000
0000
0001
0000
0000
0100
0010
0000
1000
0000
,
1000
0002
0003
1001
,
0100
0000
0100
0000
0000
0000
0001
0010
0100
0000
1000
0000
1000
0000
0001
0010
,
0001
0000
0000
0000
1000
0000
0100
0110
,
0000
0000
0001
0000
1000
0000
0000
0000
0000
0010
0000
0000
0100
0000
0000
0000
,
1000
0001
1000
0001
0000
0000
0100
0000
0000
0000
0110
0000
0000
0000
0011
0000
,
0000
1001
1000
0000
0000
0000
1010
0100
,
0000
0000
0000
0000
0001
0000
0000
0000
1000
0100
0000
0000
0000
0000
0000
0000
,
1001
0000
0010
0000
0000
0110
0000
1000
,
0000
0000
0000
0000
0001
0010
0100
0010
0100
0010
0000
1000
0100
1000
0000
0001
,
0010
0001
0100
0010
1000
0000
1000
0100
0010
0001
0000
0000
1000
0001
1000
0001
,
1000
0001
0000
0000
0000
0000
0110
0000
0000
0000
1000
0100
0000
0000
0001
0000
,
0001
0000
1001
0000
1100
0010
0000
0000
,
0100
0000
0000
0000
0001
0010
0100
0000
0000
0000
1000
0000
1000
0000
0001
0000
,
0000
0000
0100
0010
0100
0000
0000
0000
0001
0000
0010
0000
0110
0000
0000
0000
,
1010
0000
0000
0000
0001
0000
0000
0000
1000
0100
0000
0000
0000
0000
0010
0000
,
0010
0000
0000
0000
0110
0000
0000
0000
1000
0000
1000
0000
0010
0001
0000
0000
,
0110
0000
0000
0000
1000
0001
1000
0000
0000
0000
1001
0000
0010
0000
1010
0000
,
0000
0100
0110
0001
1001
0000
1100
0000
,
1010
0000
0001
0010
0100
0000
0000
0000
0000
0000
1001
0000
0000
0010
0100
0000
,
1000
0000
0000
1000
0000
0000
0000
0000
0110
0000
0000
0000
1001
0000
0000
0000
,
1200
0000
0000
0000
0300
0000
0000
0000
0000
0010
0100
0000
0110
0000
0000
0000
,
1000
0000
0000
1001
0000
0000
0000
0000
0010
0100
0000
0000
1000
0000
0000
1000
,
0000
0010
0000
0000
0110
0000
0000
0000
0000
0000
1001
0000
0000
0000
0000
0000
,
0000
0110
0000
0000
1000
1000
0100
0100
,
0000
0000
0001
0010
0100
0000
0000
0000
0000
0000
0000
1000
0010
0100
0000
0000
,
0000
0000
0000
0000
1000
0001
0100
0000
0000
0000
0000
0000
0010
0100
0001
0000
,
0000
0000
0000
0000
0000
0000
0000
0000
1000
0000
0000
0000
1001
0000
0010
0100
,
0020
0000
0000
0000
0000
0030
0000
0000
1001
0000
0000
0000
0010
0000
0000
0100
,
0000
0000
0100
0000
0001
0010
0001
0000
0000
0000
1100
0000
0000
0000
0001
0000
,
0010
0000
0100
0010
0000
0000
1001
0000
0000
0000
0000
0000
0110
0000
0000
0000
,
0001
0010
0100
0000
0000
0000
1000
0000
0000
0000
0000
0000
1001
0000
0000
0000
,
0100
1000
0110
0000
0001
0001
1000
0000
,
1100
0000
0000
0000
0001
0000
0001
0000
0010
0100
1000
0000
1000
0100
0010
0001
,
0000
0100
0010
0100
0000
1000
0001
1000
0000
0100
0010
0100
0010
0000
1000
0000
,
1001
0000
0100
0000
0110
0000
0001
0001
,
0100
0000
0000
0010
0110
0000
0000
1000
,
1000
0000
0010
0100
0000
1001
0000
0010
,
0100
0100
0000
0001
0000
0110
0000
1001
,
0000
0000
0110
0000
0000
1000
0000
0001
,
0001
0010
0100
0010
0000
0000
0000
0000
1001
0000
0000
0000
0100
0010
0100
0000
,
0000
0000
1001
0000
0000
0000
0000
0000
0000
0000
1000
0000
0001
0010
0001
0000
,
0000
0000
0110
0000
0000
0000
0000
0000
0100
0000
0000
0000
0001
1000
0001
1000
,
0000
0000
0100
0010
0100
0010
0000
0000
0000
0000
0100
0000
0110
0000
0000
0000
,
0000
0000
1000
0000
0000
0000
1001
0000
0000
0000
0010
0100
0010
0000
0000
0000
,
0000
0000
1000
0000
0110
0000
0000
0000
1001
0000
0000
0000
0010
0100
0000
0000
,
0000
0000
1001
0000
0000
0000
0000
0000
0010
0100
0010
0000
0000
0000
0001
0000
,
1100
0010
0101
0000
1000
1000
0001
0001
,
0000
0010
0110
0000
1000
0001
0001
0000
,
0110
0000
1000
0000
1000
0000
0000
0000
0001
0010
0100
0010
0000
1000
0001
0010
,
0001
1000
0100
1000
0010
0000
0000
0000
0210
0000
0000
0000
0000
0000
0300
0000
,
0000
0000
0100
1000
1001
0000
0000
0000
,
0010
0100
0010
0000
0000
0000
0000
0000
1000
0001
1000
0001
0000
0000
0000
0000
,
0001
0010
0100
0000
0000
1000
0000
0000
1001
0000
0000
0000
0000
0100
0000
0000
,
0110
0000
0000
0000
0000
0000
0000
0000
0100
0010
0100
0000
0000
0000
0001
0000
,
0000
0000
0010
0100
1000
0000
0000
0000
0000
0001
1000
0001
0000
0000
0000
0000
,
0010
0000
0100
0000
0110
0000
0000
0000
1000
0000
0000
0000
0000
0001
1000
0000
,
1001
0000
0100
0110
0000
0000
1001
0000
,
1010
0000
0110
0000
0000
0000
0001
0010
0100
0000
1000
0000
0001
0000
1000
0000
,
0001
0010
0001
0000
0000
0000
0000
0000
0100
0000
0000
0000
0110
0000
0000
0000
,
0000
1000
1001
0110
,
0001
0000
0001
0010
0100
0010
0000
0000
1000
0000
1001
0000
0010
0000
0000
0000
,
0110
0000
1001
0000
0010
0010
1100
0000
,
1001
0000
0000
0110
0000
0000
1001
0000
,
0000
0110
0000
1010
0000
0000
0110
0000
,
0000
0000
0011
0000
0000
0000
2002
0000
0000
0000
3003
0000
0010
0100
0000
0000
,
1000
0000
1000
0000
0110
0000
0000
0000
0001
0010
0100
0000
1000
0000
0000
0001
,
0000
0000
1001
0000
0000
0000
1000
0000
0000
1000
0100
0000
0000
0100
0010
0000
,
0000
0010
0001
0000
0000
0001
1000
0000
0000
1000
0000
0100
0000
0000
0100
0000
,
0000
0010
0000
0000
0110
0000
1000
0000
0000
1000
0001
0000
0000
0001
0100
0000
,
0000
0100
0010
0000
0000
0010
1000
0000
0000
1000
0001
0000
0000
0001
0100
0000
,
0000
0100
0000
0000
1001
0000
0000
0000
0000
0000
0000
0000
0000
0000
0000
0000
;

//---------------dance-single - ----------------
#NOTEDATA:;
#CHARTNAME:;
#STEPSTYPE:dance-single;
#DESCRIPTION:;
#CHARTSTYLE:;
#DIFFICULTY:Medium;
#METER:13;
#RADARVALUES:0.578849,0.608243,0.667804,0.027073,0.000000,449.000000,375.000000,74.000000,3.000000,0.000000,0.000000,0.000000,0.000000,0.000000,0.578849,0.608243,0.667804,0.027073,0.000000,449.000000,375.000000,74.000000,3.000000,0.000000,0.000000,0.000000,0.000000,0.000000;
#CREDIT:;
#NOTES:
// measure 0
0000
0010
0100
0010
0000
1000
0000
0000
,  // measure 1
0001
0000
0110
0000
1000
0000
0010
0100
,  // measure 2
0000
0000
1001
0000
0000
0010
0000
0100
,  // measure 3
0010
0000
0001
0000
1000
1000
0000
0000
,  // measure 4
1001
0010
0110
0000
0000
0000
0001
0000
,  // measure 5
1000
0000
0110
0000
0001
0001
0000
1001
,  // measure 6
0000
0100
0010
0100
0000
0002
0000
0000
,  // measure 7
0000
1003
0110
0000
,  // measure 8
0000
0000
0000
0001
1001
0000
0000
0000
,  // measure 9
0100
0010
0100
0000
0001
1000
0001
0000
,  // measure 10
0010
0010
0000
1000
0000
1000
0000
0001
,  // measure 11
0000
1000
0000
0010
0100
0000
0010
0001
,  // measure 12
1000
0000
0000
0100
0010
0000
1001
0000
,  // measure 13
0100
0010
0000
0000
1001
0000
0010
0100
,  // measure 14
0010
1001
0000
0110
,  // measure 15
0000
0001
1001
0000
0010
0100
0010
0100
,  // measure 16
0000
1001
0000
0000
0110
0000
0000
0001
,  // measure 17
0001
1001
0110
1000
,  // measure 18
0010
0010
0000
0100
0000
0110
0000
1001
,  // measure 19
0000
1000
0000
0001
0000
0010
0000
1001
,  // measure 20
0000
0010
0100
0000
,  // measure 21
1001
0001
0000
0110
,  // measure 22
0000
1001
0000
0010
0100
0010
1000
1000
,  // measure 23
0001
0010
0001
0100
0100
0010
0100
0010
,  // measure 24
1000
0000
1001
0000
0010
0000
0000
0100
,  // measure 25
0000
0110
0000
0001
0000
1001
0000
0010
,  // measure 26
0100
0010
0000
1000
0000
1001
0001
0000
,  // measure 27
0100
0110
1000
1001
,  // measure 28
0010
0000
0110
0000
0000
1001
0000
0001
,  // measure 29
0001
0110
1000
0001
,  // measure 30
0010
0000
0100
0010
0100
0000
0001
1000
,  // measure 31
0000
0110
1010
1001
,  // measure 32
0000
0001
0010
0100
0000
0000
1000
0001
,  // measure 33
1000
0000
0110
0000
,  // measure 34
0010
1000
0010
0100
,  // measure 35
0100
0001
0010
0001
,  // measure 36
1000
1000
0100
0110
,  // measure 37
1001
0000
0000
0100
0010
0100
0000
0000
,  // measure 38
0001
0010
0100
0000
0000
1000
0010
0100
,  // measure 39
0000
0000
0001
1000
0001
0000
0010
0100
,  // measure 40
0010
0000
0000
0000
1000
0000
1001
0010
,  // measure 41
0100
0020
0000
0000
0130
0000
1000
0000
,  // measure 42
1000
0000
0010
0000
0100
0000
0001
1000
,  // measure 43
0001
0000
0100
0000
0110
1001
0000
0010
,  // measure 44
0100
0000
0100
0010
0000
0000
1001
0000
,  // measure 45
0000
0100
0010
0100
0001
0000
0001
1000
,  // measure 46
0000
0000
1000
0100
0010
0001
0010
0100
,  // measure 47
1000
0100
0010
0001
0010
0100
1000
0000
,  // measure 48
1001
0000
0010
0000
0000
0100
0010
0000
,  // measure 49
1000
0000
1001
0000
0000
0100
0000
0001
,  // measure 50
0010
0001
1000
0000
1000
0000
0110
0000
,  // measure 51
0001
1000
0001
0000
1001
0000
0000
0110
,  // measure 52
0000
0000
1001
0000
0000
0010
0100
0010
,  // measure 53
0000
0100
0000
0000
1001
0000
0000
0010
,  // measure 54
0100
0010
0000
0001
0000
0001
1000
1000
,  // measure 55
0001
0000
1001
0000
0110
0000
0001
0010
,  // measure 56
1000
0100
0001
0010
0000
0000
0110
0000
,  // measure 57
0001
0000
1001
0000
1000
0000
0010
0100
,  // measure 58
0010
0000
0110
0000
0000
1001
0000
0010
,  // measure 59
0100
0000
1000
0000
0001
0001
1000
0000
,  // measure 60
0110
0000
0001
0000
1001
0000
0010
0100
,  // measure 61
0010
0000
1000
0000
0001
0001
0100
0000
,  // measure 62
0110
0000
0001
0020
0000
0030
0000
1000
,  // measure 63
0100
0010
0001
0100
0000
0000
0000
0000
,  // measure 64
0000
0000
0001
0000
1001
0000
0010
0100
,  // measure 65
0010
0000
1000
0001
0000
0001
0000
0000
,  // measure 66
0010
0100
1000
0000
0001
0010
0001
0000
,  // measure 67
1000
0100
1000
0010
0010
0000
0110
0000
,  // measure 68
0001
0010
0000
1000
0001
0000
1001
0000
,  // measure 69
0000
0010
0100
0000
0001
0000
1001
0000
,  // measure 70
0100
0010
0001
0000
1100
0000
1001
0000
,  // measure 71
0000
0010
0100
0000
1000
1000
0001
0000
,  // measure 72
0000
0010
0100
0000
1001
0000
0000
0010
,  // measure 73
0100
0100
1001
0010
,  // measure 74
1000
0001
1000
0001
0000
0110
0000
1010
,  // measure 75
0000
0001
0000
1000
0000
0010
0000
0110
,  // measure 76
0000
0001
1001
0000
0010
0000
0000
0110
,  // measure 77
0000
1000
1001
0100
,  // measure 78
0110
0000
0000
0001
0000
0000
1000
0000
,  // measure 79
0100
0010
0100
0000
0001
0000
0001
0000
,  // measure 80
1000
0100
0010
0000
0001
0000
0001
0000
,  // measure 81
0010
0010
0100
0100
,  // measure 82
0001
1001
0100
0100
,  // measure 83
0010
0010
1000
1000
,  // measure 84
0001
0001
0000
0000
;

//---------------dance-single - ----------------
#NOTEDATA:;
#CHARTNAME:;
#STEPSTYPE:dance-single;
#DESCRIPTION:;
#CHARTSTYLE:;
#DIFFICULTY:Easy;
#METER:8;
#RADARVALUES:0.377735,0.456182,0.351951,0.072195,0.000000,293.000000,254.000000,39.000000,8.000000,0.000000,0.000000,0.000000,0.000000,0.000000,0.377735,0.456182,0.351951,0.072195,0.000000,293.000000,254.000000,39.000000,8.000000,0.000000,0.000000,0.000000,0.000000,0.000000;
#CREDIT:;
#NOTES:
0000
1000
0001
0000
0000
1000
0000
0000
,
0100
0000
0010
0000
0000
0010
0000
0000
,
0110
0000
1000
0001
,
0000
0000
1001
0000
0000
0100
0000
0000
,
0001
0000
0000
0001
0000
0000
1000
0000
,
1000
0010
0000
0001
,
1000
2000
0000
0000
,
0000
0000
3000
0001
0001
0000
0000
0000
,
0000
0000
0010
0100
0000
0000
1000
0000
,
0000
1000
0000
0000
0001
0000
1000
0000
,
1002
0000
0003
0000
0010
0100
0000
0000
,
1000
0000
0001
1001
,
0010
0000
0000
0001
0100
0000
0100
0000
,
0000
0000
0010
0001
1000
0000
1000
0000
,
0001
1000
0000
0010
,
0000
0100
0100
0000
0002
0000
0000
0000
,
0000
0000
0003
0000
1000
0000
0010
0010
,
0000
0100
0010
1001
,
1000
0010
0010
2000
,
3000
0000
1001
0000
0010
0000
0000
0110
,
0000
1000
0000
0001
,
0010
0000
0110
0000
0000
1000
0000
0000
,
0001
2000
0000
0000
,
0000
0000
0000
0000
,
0000
0000
3001
0000
0010
0000
0100
0100
,
0000
0110
0000
0001
0000
0000
1000
0000
,
0010
0100
0010
0000
0000
0000
1000
0000
,
1001
0010
0110
1000
,
0001
1001
0010
0100
,
0010
1000
1000
0001
,
0100
0000
1000
0001
0100
0000
0010
0000
,
0100
1000
0001
1000
,
0010
0000
0110
0000
0001
0000
0000
1000
,
1000
0100
0010
0000
,
0001
0000
0100
0000
,
0100
0000
0001
0000
,
1000
0000
0010
0110
,
1001
0000
0010
0000
,
0000
1000
1000
0000
0000
0010
0010
0000
,
0000
0100
0100
0000
0000
0001
0001
0000
,
0000
0000
0000
0000
0000
1000
0001
0000
,
1001
0000
0110
0000
,
1000
0000
0000
0000
0000
0110
0000
0001
,
0001
1000
0001
1000
,
0000
0010
0100
0000
0000
0000
0110
0000
,
0000
0001
0000
0000
1000
0000
0000
0000
,
0002
0000
0000
0000
,
0000
0000
0000
0003
,
1000
0000
1000
0000
0110
0000
0000
0001
,
0000
0001
0000
1000
0000
0000
0100
0000
,
0010
0000
0000
0110
0000
0000
0001
0000
,
0001
0001
1000
0001
,
1001
0000
0010
0100
,
0100
0000
1001
0010
,
0110
0000
1000
0000
0000
1000
0000
0001
,
0000
0001
0000
0000
0110
0000
1000
0000
,
0001
1000
0000
0110
,
0000
0011
1000
0000
,
0001
0100
0110
0000
,
0010
0100
0000
0000
1000
0001
1000
0000
,
0000
0001
0000
0000
0100
0000
0010
0000
,
0000
1000
0000
1000
0000
0000
0001
0000
,
0100
0110
0002
0000
,
0000
0003
0000
1001
1001
0000
0000
0000
,
0000
0000
0000
0100
0110
0000
0000
0000
,
0001
0001
1000
0000
0100
0000
0100
0000
,
0000
1000
0000
1000
,
0000
0001
0001
0000
,
0100
0010
0100
0100
,
0000
0010
0000
0100
,
0100
0000
0001
0000
,
1000
1001
0000
0100
,
0100
0000
0000
1001
,
1000
0010
0110
0000
,
1000
0010
1000
0000
,
0001
0100
0000
0100
,
0000
0001
1000
0001
,
0110
0010
0100
1000
,
0011
0002
0000
0000
,
0000
0000
0000
0003
0010
0000
0100
0000
,
1000
0110
0001
0010
,
0100
1000
0100
0010
,
0001
0000
0010
0001
0100
0000
1000
0000
,
1000
0100
0100
0010
,
0010
1001
0000
0000
;

//---------------dance-single - ----------------
#NOTEDATA:;
#CHARTNAME:;
#STEPSTYPE:dance-single;
#DESCRIPTION:;
#CHARTSTYLE:;
#DIFFICULTY:Beginner;
#METER:4;
#RADARVALUES:0.340348,0.418167,0.388048,0.054146,0.000000,264.000000,221.000000,43.000000,6.000000,0.000000,0.000000,0.000000,0.000000,0.000000,0.340348,0.418167,0.388048,0.054146,0.000000,264.000000,221.000000,43.000000,6.000000,0.000000,0.000000,0.000000,0.000000,0.000000;
#CREDIT:;
#NOTES:
0000
0001
0000
1000
,
0100
0110
0000
0001
,
1000
1001
0000
0010
,
0010
0000
0100
0000
,
0001
1001
0000
0010
,
0000
0010
0100
0000
,
0100
0110
0000
0000
,
0000
1001
1001
0000
,
0020
0030
0100
0010
,
1000
1000
0000
0001
,
1000
1001
0000
0010
,
0100
1000
0001
0000
,
0010
0100
0000
0100
,
0000
0001
0010
0001
,
0000
1000
0000
1000
,
0010
0110
0000
0000
,
0000
0000
0001
1000
,
1000
0010
0100
0110
,
0001
0001
1000
0100
,
0010
0000
0110
0000
,
0001
1000
0000
1001
,
0010
0100
0000
0110
,
0001
2000
0000
0000
,
0000
0000
0000
0000
,
0000
3000
1000
1001
,
0010
0110
0000
1000
,
0001
1000
0000
0010
,
0010
0000
0100
0010
,
0100
0000
1000
0000
,
1000
0000
0001
0010
,
0001
1000
0100
0000
,
0010
0110
1001
0110
,
0000
0001
0000
1000
,
1000
0000
0110
0000
,
0001
0000
0001
0000
,
0100
0010
0000
0100
,
0001
0000
1000
1001
,
0010
0000
0001
0001
,
0000
1000
0000
0010
,
0000
0100
0000
0001
,
0000
0000
1000
1000
,
0001
1000
1001
0000
,
0010
0000
0100
0110
,
0000
0001
1000
1001
,
0000
0010
0000
0110
,
0000
0001
0000
0001
,
2000
0000
0000
0000
,
0000
3000
0001
0010
,
0100
0000
0001
1000
,
1000
0000
0110
0000
,
0001
1001
0000
0010
,
0000
0001
1000
0110
,
0000
0001
0001
0000
,
0010
0100
1000
0001
,
0000
0010
0110
0000
,
0001
0000
1001
1000
,
0010
0000
0100
0110
,
0000
0001
0000
0001
,
1000
1001
0110
0000
,
0010
0001
1000
1000
,
0000
0100
0000
1000
,
0001
0001
0100
0100
,
0010
0100
0002
0000
,
0003
1001
1001
0000
,
0200
0300
0110
0000
,
0010
0100
0000
0001
,
1000
1000
0010
0100
,
0010
0000
0001
1001
,
0010
0000
0100
0100
,
0000
0100
0000
0100
,
0010
0001
0000
1000
,
0010
0110
0000
0000
,
0000
0000
1000
1001
,
0000
0001
1001
1000
,
0001
0001
0000
0100
,
1000
1001
0000
0010
,
0100
0110
0000
0001
,
1000
1000
0000
0010
,
0110
0002
0000
0000
,
0000
0000
0003
1000
,
0100
1001
0010
0100
,
0000
0100
0010
0001
,
0000
0000
1000
0100
,
0000
0001
0010
0000
,
1000
1001
0000
0000
;
