#VERSION:0.83;
#TITLE:smooooch・∀・ KN mix;
#SUBTITLE:NOV;
#ARTIST:KN;
#TITLETRANSLIT:;
#SUBTITLETRANSLIT:;
#ARTISTTRANSLIT:;
#GENRE:;
#ORIGIN:;
#CREDIT:PaperBox440;
#BANNER:smooooch A KN mix.png;
#BACKGROUND:smooooch A KN mix-bg.png;
#PREVIEWVID:;
#JACKET:smooooch A KN mix-jacket.png;
#CDIMAGE:;
#DISCIMAGE:;
#LYRICSPATH:;
#CDTITLE:;
#MUSIC:smooooch A KN mix.mp3;
#OFFSET:-3.060000;
#SAMPLESTART:25.771864;
#SAMPLELENGTH:10.847460;
#SELECTABLE:YES;
#BPMS:0.000=177.000;
#STOPS:;
#DELAYS:;
#WARPS:;
#TIMESIGNATURES:0.000=4=4;
#TICKCOUNTS:0.000=4;
#COMBOS:0.000=1;
#SPEEDS:0.000=1.000=0.000=0;
#SCROLLS:0.000=1.000;
#FAKES:;
#LABELS:0.000=Song Start;
#BGCHANGES:;
#KEYSOUNDS:;
#ATTACKS:
;

//---------------dance-single - ----------------
#NOTEDATA:;
#CHARTNAME:;
#STEPSTYPE:dance-single;
#DESCRIPTION:;
#CHARTSTYLE:;
#DIFFICULTY:Hard;
#METER:14;
#RADARVALUES:0.681049,0.744808,0.606623,0.149872,0.303311,668.000000,583.000000,85.000000,21.000000,0.000000,0.000000,0.000000,0.000000,0.000000,0.681049,0.744808,0.606623,0.149872,0.303311,668.000000,583.000000,85.000000,21.000000,0.000000,0.000000,0.000000,0.000000,0.000000;
#CREDIT:;
#NOTES:
0000
0000
0000
0000
0000
0000
0100
0010
,
0100
0010
0100
0000
1000
0001
0010
0001
,
0100
0010
0100
0000
0110
0000
0001
0010
,
0100
0010
0100
0000
1000
0000
0010
0100
,
0001
0010
0001
0000
1001
0000
0010
0001
,
0100
1000
0100
1000
0010
0100
0010
0000
,
0110
0000
1000
0000
1001
0000
0001
0001
,
0100
0010
0100
0010
1000
0100
0001
0010
,
0001
1000
1000
0000
0100
0000
0010
0000
,
0110
0000
1000
0100
0110
0000
0001
0010
,
1001
0000
0010
0100
0010
0001
1100
0000
,
0101
0010
1000
1000
0001
0001
0100
0010
,
1100
0001
0001
1000
0110
0000
0001
1000
,
1001
0000
0100
0001
0110
0000
0010
0100
,
1010
0000
1000
0001
1001
0000
0110
0000
,
1100
0010
0101
1000
1001
0000
0010
0010
,
0010
0000
0100
0000
0100
0000
0100
0000
0001
1000
0001
1000
0001
0000
0000
0000
,
1000
0100
0010
0100
0100
0010
0010
0000
,
1001
0000
0000
0000
1000
0000
0000
0100
0010
0000
0100
0000
0001
0000
0001
0000
,
1001
0000
0000
0000
1100
0000
0000
0000
0010
0100
0010
0000
0000
0000
1001
0000
,
0000
2000
0000
3000
0010
0100
0000
0110
,
0000
0000
1010
0000
0000
0000
0001
1000
0001
1000
0001
0000
0000
0100
0000
0000
,
0100
0010
0000
0000
0010
0000
0100
1000
0001
0000
0001
0000
0100
0010
0100
0010
,
0100
0000
1000
1001
0000
0100
0110
0000
,
1010
0000
0000
0001
0000
0001
0000
0001
1000
0000
1000
0000
1001
0000
0000
0000
,
0010
0000
1010
0000
0000
0000
0100
0010
0100
0000
0000
0001
0000
0000
1000
0000
,
0001
0000
1001
0000
0000
0000
0000
0000
0110
0000
0000
1000
0000
1000
0000
1000
,
0000
0000
0000
0000
0110
0000
1000
0000
1010
0000
0000
0000
1001
0000
0000
0010
,
0200
0000
0000
0000
0000
0300
0000
0000
1001
0000
0000
0000
1100
0000
0010
0000
,
0000
0000
1001
0000
0000
0100
0010
0100
0010
0000
0000
0001
0000
0100
0000
0000
,
1001
0000
0000
0100
0000
0000
0100
0000
1000
0000
0000
0000
0001
0000
1000
0000
,
0001
1000
0001
0010
0010
0100
0000
0010
,
0001
1000
2000
0001
0001
3001
0000
0100
,
0010
0100
0010
0000
1000
0010
0100
0010
,
0000
0001
0000
0000
0001
0000
0000
0000
0010
0100
0010
0000
0000
0100
0000
0000
,
0100
0001
0000
0000
0001
1000
0000
0000
1000
0000
0001
0000
0010
0000
0001
0000
,
0100
0000
0000
0100
0010
0000
1000
0000
0001
0000
1000
0000
0010
0000
0100
0000
,
0100
0000
0001
0010
0001
0000
1000
0000
0000
1000
0010
0000
0010
0000
0010
0000
,
0100
0000
0100
0000
0000
0000
0010
0000
0001
0000
1001
0000
0000
0000
0100
0001
,
0000
0000
0001
0000
0100
0000
0000
0010
0100
0000
0000
0000
0001
0000
0000
0001
,
0010
0000
0000
0010
0100
0000
0000
0100
0000
0000
1001
0000
0000
0000
0010
0000
,
1000
0000
0100
0000
1000
0000
0001
0000
0001
0000
0000
0000
0100
0010
0000
0000
,
1000
0001
0000
0100
0010
0000
0000
0000
1001
0000
0000
0000
1000
0000
0010
0000
,
0010
1000
0001
0001
0100
0100
0000
0110
,
0000
0000
0001
0000
1000
0000
0001
0000
1001
0000
0000
0000
0000
0000
0220
0330
,
0000
0000
0000
0000
2020
3030
0000
0000
0000
0000
2002
3003
0000
0000
0010
0000
,
0100
0001
0000
0000
0001
0000
0100
0010
0100
0010
0100
0000
1000
0000
0000
0000
,
1001
0000
0000
0000
0100
0000
0000
0000
0110
0000
0000
0000
1000
0000
0100
1000
,
0010
0000
0001
0010
0100
0000
0010
0100
0001
0000
1000
0002
0000
0000
0000
0000
,
0000
0000
0000
0000
,
2003
0000
0010
0000
0001
0001
0000
0000
,
3200
0000
0000
0010
0000
0010
0000
0000
,
0302
0000
0000
0000
1000
0100
0100
0000
,
0010
0000
1003
0000
1001
0000
0100
0010
,
0010
1000
0100
1000
0001
0000
0001
0000
,
0010
0100
0000
0100
0010
0000
0110
0000
,
1000
1000
0001
0001
0010
0010
0100
1000
,
1000
0000
0000
0000
0110
0000
1000
0000
1000
0000
0001
0100
0010
0000
0100
1000
,
0100
0000
0001
0000
0010
0100
0001
0000
1000
0010
1000
0000
0100
0000
1000
0000
,
0001
0010
0001
0000
0100
0000
0010
0000
0100
0000
0001
1000
0001
0000
1000
0001
,
1000
0000
0100
0000
0010
0000
0000
0010
0100
0000
0001
0000
1001
0000
0000
0000
,
0100
0000
0010
0000
0100
0001
0000
0000
0001
1000
0000
0000
1000
0000
0001
0000
,
0010
0100
0000
0000
0100
0000
0010
0000
1000
0000
1000
0001
0000
0000
0001
0100
,
0000
0000
0100
0000
0000
0000
1001
0000
0010
0100
0000
0100
0010
0000
1000
0000
,
0001
1000
0000
0010
0000
0000
0010
0000
0100
0000
0000
0000
1001
0000
0000
0010
,
0000
0100
0000
0000
0110
0000
0001
0000
0000
0000
0001
0000
1000
0000
0100
1000
,
0010
0000
0001
0010
0100
0000
1000
0100
0000
0001
0010
0000
1001
0000
0000
0000
,
0100
0000
0010
0000
1001
0000
0100
0000
1000
0000
0001
0010
0001
0000
0100
0000
,
0010
0000
0100
0000
0001
1000
0001
0000
0100
0000
1000
0000
1001
0000
0000
0100
,
0010
0000
0001
0000
0100
0000
1100
0000
0001
0000
0010
0000
0001
0000
0100
0010
,
0100
0000
1000
0000
0001
1000
0001
0000
0100
0000
0010
0001
0010
0000
0000
0000
,
1000
0000
0100
0010
1000
0000
0001
0100
0001
0000
0000
0000
0100
0000
0010
0001
,
0100
0000
0010
0001
0000
0100
0110
0000
,
1001
0000
0011
0000
1100
0100
0010
0100
,
1000
0000
1001
0000
0100
0010
1001
0100
,
0000
0010
0000
0000
0010
0000
0100
0000
1001
0000
0001
0000
0100
0000
0010
0000
,
0000
0010
0001
0000
1000
0000
1000
0000
0010
0000
0100
0000
0010
0000
0000
0010
,
0001
0000
0100
0000
0000
0100
1000
0000
0001
0000
0001
0000
0100
0000
0010
0000
,
0100
0000
0010
0001
1001
0000
0100
0010
,
0001
0000
0110
0000
0010
0100
1010
0000
,
0001
1000
0101
0000
0010
0100
1001
0000
,
1100
0010
0001
0001
0110
0000
1010
0000
,
1100
0000
1100
0000
1001
0000
0000
0001
,
1000
0000
1000
0010
0100
0000
0120
0000
,
2000
3030
0000
0010
,
0010
0100
0001
0001
1100
0000
0120
0000
,
2000
3030
0000
0001
,
1000
0000
1000
0100
0010
0000
0200
0000
,
0020
0000
0330
0000
0000
1000
1000
0000
,
0100
0000
0110
0000
0010
0001
1100
0000
,
2020
0000
0000
0000
3030
0000
0000
0000
0000
0100
0010
0000
1001
0000
0000
0000
;

//---------------dance-single - ----------------
#NOTEDATA:;
#CHARTNAME:;
#STEPSTYPE:dance-single;
#DESCRIPTION:;
#CHARTSTYLE:;
#DIFFICULTY:Medium;
#METER:11;
#RADARVALUES:0.487337,0.517414,0.563802,0.035684,0.000000,478.000000,399.000000,79.000000,5.000000,0.000000,0.000000,0.000000,0.000000,0.000000,0.487337,0.517414,0.563802,0.035684,0.000000,478.000000,399.000000,79.000000,5.000000,0.000000,0.000000,0.000000,0.000000,0.000000;
#CREDIT:;
#NOTES:
0000
0000
0000
0100
,
0100
0100
0010
1000
,
0001
1000
0001
0000
0010
0000
0100
0001
,
1000
0100
0001
0010
,
0001
1000
0100
1000
,
0010
0100
0010
0000
0001
0000
0100
0000
,
0100
0000
1000
0010
1000
0000
0001
0000
,
0010
0000
0001
0000
1000
0001
1000
0000
,
0100
0010
0100
1000
,
1001
0100
0110
0001
,
1001
0000
1000
0001
0000
1100
0000
0000
,
0110
0001
1001
1000
,
1100
0000
0001
1000
0001
0000
0100
0000
,
0110
0000
1100
0000
,
1001
0000
0110
1010
,
1100
0000
1001
0000
1001
0000
0010
0100
,
0020
0000
1030
0001
1000
0000
0100
0000
,
0110
0000
0001
0001
1000
0000
1100
0000
,
0001
0000
1001
0000
0100
0000
0000
0010
,
0100
0010
1000
0000
0001
0000
1001
0000
,
0100
0100
0000
0001
0000
1001
0000
1100
,
0000
0010
0100
0100
0000
0010
0000
0001
,
1000
0000
0100
0000
1001
0000
0010
0100
,
0010
0000
1000
0001
1000
0000
0011
0000
,
1001
0000
1000
1000
0001
0000
0110
0000
,
0000
1100
0000
0001
0001
0000
0110
0000
,
1000
0001
0000
1001
0000
0100
0100
0000
,
0010
0000
0001
0000
1000
0001
1000
0000
,
0011
0000
0100
0000
0100
0000
0001
0010
,
0001
0000
1000
1000
1000
0000
0110
0000
,
0001
1000
0001
0000
0100
0000
1000
0000
,
1010
0010
0011
0001
,
1001
0000
1000
0001
1000
0000
2002
0000
,
3003
0000
0100
0000
1000
0010
0000
0010
,
0100
0000
0100
0001
1000
0001
0100
0000
,
0100
0000
0010
0001
0001
1000
1000
0000
,
1001
0000
0100
0010
0000
0000
0110
0000
,
1010
0000
1000
0000
0001
0001
0100
0010
,
0001
0000
1001
0000
0100
0000
1000
0001
,
1000
0000
0010
0000
0010
0000
1000
1000
,
1000
0001
0001
0001
0100
0000
0110
0000
,
0001
1000
0001
0000
0000
0000
1001
0000
,
0000
1100
0000
0000
0110
0000
0001
0001
,
1000
1000
0100
0000
0100
0010
0100
0000
,
0010
0010
0001
2000
,
3001
1001
1000
0110
,
0000
0110
0000
0000
0110
0000
0001
1000
,
0100
1000
0001
0000
0001
0000
1000
1000
,
0001
0001
0100
0100
0010
0010
2000
0000
,
0000
0000
3000
0001
,
0010
0000
0100
0000
,
0010
0000
0001
0100
,
0000
0100
0001
0000
,
0001
1000
0000
1000
,
0000
0000
0100
0010
0100
0000
0001
0000
,
0001
0000
0000
0000
1000
0000
0001
0001
,
0100
0110
0001
1000
,
1000
0001
0100
0100
,
0001
1000
0001
0000
0000
0000
1000
0000
,
0001
0010
0100
1000
,
1000
0000
0001
0010
0001
0000
0000
0100
,
0000
1000
1001
0100
,
0110
0001
1001
0100
,
0000
0110
0000
0001
0000
1001
0000
1000
,
1000
0001
0001
0100
0010
0100
0000
0000
,
0001
0000
1000
0001
1000
0000
0001
0001
,
0100
0100
0010
0010
1000
0000
0010
0000
,
0100
0001
0000
0001
1000
0000
1000
0000
,
0001
0000
0100
0000
0010
0000
1000
0100
,
1000
0000
0001
0000
0001
0000
0100
0010
,
0100
1000
1100
0001
,
0010
0100
0000
0000
1001
0000
0100
0000
,
0010
0010
1000
0001
1000
0000
0110
0000
,
0011
0100
1100
1001
,
0011
1001
0000
0110
,
0000
0001
1000
0000
1000
0000
0010
0000
,
0100
0001
0010
0001
1000
0000
1000
0000
,
0010
0000
0100
0001
0000
0001
1000
0000
,
1000
0000
0100
0010
0100
0000
0110
0000
,
0000
1001
0000
1100
,
0000
1001
0000
0110
,
1100
0000
0010
0000
0110
0000
0001
0010
,
0001
0000
1001
0000
0110
0000
0000
0010
,
0001
0000
1000
0001
1000
0000
0110
0000
,
0000
1001
0000
0000
0000
0100
0010
0100
,
1000
0000
1000
0001
0000
1001
0000
0000
,
1000
0000
0110
0000
0000
0000
0010
0100
,
0010
0000
1000
0000
1000
0011
0000
0000
,
0110
0000
0000
0000
0000
0000
0100
0100
,
0001
1000
0000
0010
0001
0000
1001
0000
,
0100
0000
0110
0001
0000
1001
0000
0000
;

//---------------dance-single - ----------------
#NOTEDATA:;
#CHARTNAME:;
#STEPSTYPE:dance-single;
#DESCRIPTION:;
#CHARTSTYLE:;
#DIFFICULTY:Easy;
#METER:8;
#RADARVALUES:0.355817,0.453361,0.520982,0.042820,0.000000,349.000000,276.000000,73.000000,6.000000,0.000000,0.000000,0.000000,0.000000,0.000000,0.355817,0.453361,0.520982,0.042820,0.000000,349.000000,276.000000,73.000000,6.000000,0.000000,0.000000,0.000000,0.000000,0.000000;
#CREDIT:;
#NOTES:
0000
0000
0000
0100
,
0010
0100
0000
1000
,
0001
1000
0000
0100
,
0010
0100
0010
1000
,
0001
1000
0001
0000
,
0100
0010
0100
1000
,
0001
1000
0001
0100
,
1000
0000
0001
0010
,
0100
1000
0001
0000
,
0110
0000
1001
0000
,
1100
0000
0110
0001
,
1001
0000
0110
0000
,
1010
0000
1001
0000
,
0110
0000
1100
0000
,
1001
0000
0110
1000
,
1001
0010
0110
2000
,
3002
0203
0300
0010
,
1001
0100
0100
0010
,
0001
1000
0110
1000
,
1000
0001
0100
1001
,
0010
0100
0110
1000
,
0001
0100
0100
0110
,
1000
1001
0000
0010
,
0100
0010
1000
0001
,
1001
2000
3000
1001
,
0110
1000
1000
0001
,
0110
0000
1000
0001
,
0001
0110
1000
1001
,
0010
0000
0100
0110
,
0001
1000
1000
0110
,
0001
0000
1000
0110
,
0001
1000
0001
0100
,
0010
0100
0110
2002
,
3003
0100
1000
0000
,
0100
0100
0001
0000
,
1000
0100
1000
0000
,
0001
0001
0100
0010
,
0100
1001
0100
0000
,
0010
0010
1000
0001
,
0110
0000
0001
1000
,
1000
1000
1000
0001
,
1001
0000
0000
0110
,
0001
1001
0110
1000
,
1000
0001
0001
1001
,
0000
0001
0010
0100
,
0110
0000
1001
1100
,
0000
0110
1001
0100
,
0110
0001
1000
0100
,
0100
0100
0100
1001
,
0000
0000
0000
0001
,
0010
0000
0100
0000
,
0010
0000
0001
0100
,
0000
0100
0001
0000
,
0001
1000
0000
1000
,
0000
0100
0100
0001
,
0001
0000
1000
0001
,
0100
0110
0000
1000
,
1000
0001
0100
0100
,
0001
0001
0000
1000
,
0000
0001
0010
0100
,
1000
0000
0001
0001
,
0000
1000
1001
0000
,
0000
0010
0000
1000
,
0001
1000
0000
0010
,
0100
0010
0000
0100
,
0110
0001
0000
1000
,
1000
1000
1001
0110
,
0000
0000
1000
1000
,
0001
0100
0010
0000
,
1000
0000
0001
0000
,
1000
0000
0100
0000
,
0100
0000
0010
0000
,
0010
0000
1000
1000
,
1001
0110
1001
0001
,
1000
1100
0000
0110
,
0001
0000
1000
0000
,
0100
0000
0010
0000
,
0100
0000
0001
0000
,
1000
0000
0110
1001
,
0000
1001
0000
0110
,
0000
1100
0000
0011
,
1001
0000
0110
0110
,
0001
1000
1001
0110
,
0000
0100
0010
0100
,
1001
0000
0000
1000
,
1000
0001
0010
1001
,
0110
0000
0000
0100
,
0010
0100
0010
0110
,
1001
0000
0000
1000
,
0001
1000
0010
0110
,
1001
0000
0010
0100
;
