#VERSION:0.83;
#TITLE:neu;
#SUBTITLE:(STARDOM Remix);
#ARTIST:Shounen radio arranged by BEMANI Sound Team "PON";
#TITLETRANSLIT:;
#SUBTITLETRANSLIT:;
#ARTISTTRANSLIT:;
#GENRE:;
#ORIGIN:;
#CREDIT:Paperbox440;
#BANNER:neu (STARDOM Remix).png;
#BACKGROUND:neu (STARDOM Remix)-bg.png;
#PREVIEWVID:;
#JACKET:neu (STARDOM Remix)-jacket.png;
#CDIMAGE:;
#DISCIMAGE:;
#LYRICSPATH:;
#CDTITLE:;
#MUSIC:neu (STARDOM Remix).mp3;
#OFFSET:0.000000;
#SAMPLESTART:61.573036;
#SAMPLELENGTH:11.685394;
#SELECTABLE:YES;
#BPMS:0.000=133.500;
#STOPS:193.000=0.300,
193.500=0.300,
194.000=0.300,
194.500=0.300,
195.000=0.300,
195.250=0.300,
195.500=0.300;
#DELAYS:;
#WARPS:;
#TIMESIGNATURES:0.000=4=4;
#TICKCOUNTS:0.000=4;
#COMBOS:0.000=1;
#SPEEDS:0.000=1.000=0.000=0;
#SCROLLS:0.000=1.000;
#FAKES:;
#LABELS:0.000=Song Start;
#BGCHANGES:;
#KEYSOUNDS:;
#ATTACKS:
;

//---------------dance-single - ----------------
#NOTEDATA:;
#CHARTNAME:;
#STEPSTYPE:dance-single;
#DESCRIPTION:;
#CHARTSTYLE:;
#DIFFICULTY:Hard;
#METER:15;
#RADARVALUES:0.546292,0.641367,0.483123,0.032754,0.257939,467.000000,408.000000,59.000000,4.000000,0.000000,0.000000,0.000000,0.000000,0.000000,0.546292,0.641367,0.483123,0.032754,0.257939,467.000000,408.000000,59.000000,4.000000,0.000000,0.000000,0.000000,0.000000,0.000000;
#CREDIT:;
#NOTES:
0000
0000
0000
0000
,
0000
0000
0010
0100
,
1000
0000
0100
0000
0001
0000
0010
0010
,
0100
0000
1000
0010
0001
1000
0001
0000
,
0100
0010
0001
0000
0010
0000
1000
0000
,
0100
0010
0100
0000
1000
0010
1000
0100
,
0001
0010
0001
1000
0100
1000
0100
0010
,
0001
0010
0001
0000
1000
0100
1000
0001
,
0010
0000
0100
0001
0100
0000
1001
0000
,
0100
0000
0000
0000
0010
0000
0010
0000
1000
0000
1000
0100
0001
0000
0000
0001
,
0010
0000
0010
0000
0001
0000
0100
0000
0100
0000
0000
0000
0010
0100
0000
0000
,
1000
0000
0100
0000
1000
0000
0001
0000
0010
0000
0001
0100
0000
0000
0100
0000
,
0001
0000
1000
0000
1000
0000
0000
0000
0100
0010
0000
0000
0100
0000
0001
0000
,
0001
0000
0000
0000
1000
0001
1000
0000
0100
0000
0010
0000
0000
0000
0010
0000
,
1000
0000
0100
0000
1000
0000
0000
0100
0001
0000
0010
0000
0001
0000
0000
0000
,
0010
0000
0010
0000
0100
0000
0000
0000
0100
0000
0001
0000
0000
0010
0001
0000
,
1000
0000
1000
0000
0010
0100
0000
0000
0010
0000
0100
0000
0100
0000
0010
0000
,
0000
0000
1001
0000
1001
0000
0100
0000
0010
0000
0010
0100
0001
0000
0001
0000
,
0000
0000
1100
0000
1100
0000
0001
0010
0001
0000
0010
1000
0010
0000
0100
0000
,
0000
0000
1010
0000
1010
0000
0000
0000
0001
1000
0001
0000
1000
0000
0100
0000
,
1000
0000
0010
0001
0010
0000
0100
0000
0001
0000
0001
0010
0001
0000
1000
0000
,
0000
0000
0110
0000
0110
0000
0000
0001
0000
1000
0000
1000
0000
0001
0000
0010
,
0000
0000
1100
0000
1100
0000
0001
0000
0001
0000
1000
0010
1000
0000
0100
0000
,
0100
0011
0011
0000
1010
0000
1100
0000
,
0110
1000
1001
0001
1001
0010
0100
0100
,
0100
1002
0100
0010
,
1000
1000
0100
0010
,
0100
0100
1000
0010
,
0103
0000
1001
1000
0001
0001
1100
0100
,
0000
0100
0110
0001
1000
0100
0101
0010
,
0010
1000
1001
0000
1000
1000
0110
0000
,
0010
0010
1100
0000
0100
0100
0101
0000
,
0001
0001
1001
0000
1000
1000
0110
0001
,
0100
0100
0001
0000
2000
0000
0000
0000
,
3010
0000
0000
0000
0100
0000
0010
0000
0010
0000
1000
0000
0000
0100
1000
0000
,
0001
0000
0010
0000
0001
0000
0100
1000
0100
0000
0000
0000
0010
0000
1000
0100
,
1000
0000
0001
0000
0001
0010
0000
0000
0100
1000
0100
0000
0010
0000
0000
0000
,
1000
0001
1000
0000
0000
0000
0100
0000
0010
0100
0010
0000
0001
0000
0000
0000
,
1001
0000
2001
0000
0010
0100
0100
0000
,
3000
0000
0010
0000
0001
1000
0001
0000
0100
0000
0000
0000
0100
0000
0010
0001
,
0010
0000
1000
0000
0100
0000
1000
0000
0001
0010
0001
0000
0100
0000
0000
0000
,
0100
0000
0010
0000
1000
0100
1000
0000
0001
0000
0000
0000
0010
0000
0100
0000
,
0100
0010
0000
0000
1001
0000
0000
0000
0100
0000
0100
0010
0000
0000
1000
0000
,
1010
0000
1010
0000
0000
0100
0010
0000
1000
0000
0000
1000
0001
0000
0000
0001
,
0110
0000
0110
0000
1000
0000
0000
1000
0010
0000
0010
0000
0100
0000
0010
0000
,
1001
0000
1001
0000
0000
0001
1000
0000
0100
0000
1000
0000
0010
0000
0000
0010
,
0100
0000
0000
0100
0001
0000
0000
0000
1000
0100
1000
0000
0010
0100
0010
0001
,
0000
0000
0001
0100
0000
0000
0100
0000
1000
0000
0000
0000
1000
0000
0011
0000
,
0011
0000
0000
0000
1100
0000
0110
0000
0011
0000
0110
0000
1001
1010
0110
0000
,
0000
0000
1000
0000
0000
0001
1000
0000
0110
0000
0000
0000
1000
0000
1001
0000
,
0000
0100
0010
0000
0100
0000
1000
0000
0000
0100
0010
0000
0001
0000
0100
0000
,
1000
0001
1000
0000
0010
0000
0001
1000
0010
0000
0100
0000
0000
0010
0000
0000
,
0001
0100
0001
0000
1000
0000
0100
0000
1000
0000
0000
0000
0100
0001
0100
0000
,
0010
0000
0000
0001
1000
0000
1100
0000
0001
0100
0000
0000
0010
0000
0010
0000
,
0110
0000
0000
0000
1000
0000
1000
0000
0001
0100
0000
0000
1001
0000
0010
0100
,
0000
0000
0110
0000
0110
0000
0000
1000
0001
0010
0001
0000
1100
0000
1100
0000
,
0000
0001
0000
0000
1010
0000
1010
0000
0000
0100
0000
0010
0001
0000
1000
0000
,
0000
0000
0010
0000
0100
0000
1000
1000
,
0001
0000
1001
0000
0100
0000
0010
0010
,
0100
2000
0100
0010
,
0010
3000
0000
0000
;

//---------------dance-single - ----------------
#NOTEDATA:;
#CHARTNAME:;
#STEPSTYPE:dance-single;
#DESCRIPTION:;
#CHARTSTYLE:;
#DIFFICULTY:Medium;
#METER:12;
#RADARVALUES:0.416445,0.542695,0.384861,0.024566,0.045037,356.000000,309.000000,47.000000,3.000000,0.000000,0.000000,0.000000,0.000000,0.000000,0.416445,0.542695,0.384861,0.024566,0.045037,356.000000,309.000000,47.000000,3.000000,0.000000,0.000000,0.000000,0.000000,0.000000;
#CREDIT:;
#NOTES:
0000
0000
0000
0000
,
0000
0000
0010
0100
,
1000
0000
0010
0000
0010
0000
1000
1000
,
0001
0001
1000
0000
1000
0000
0010
0000
,
0001
0001
0100
0100
,
1000
0010
0110
1000
,
1001
0100
0110
1000
,
1001
0010
1001
0010
,
0100
0110
1100
1001
,
0000
0000
0010
0100
0010
0000
0100
0000
,
0010
0000
1000
0010
1000
0000
0100
0001
,
0100
0000
0010
0010
1000
0000
0001
1000
,
0001
0000
0010
0100
0000
0100
0010
0000
,
0001
0000
1000
1000
0010
0000
0100
0000
,
1010
0000
1000
0100
0010
0000
0010
0000
,
0001
1000
1000
0000
0010
0001
0000
0001
,
1000
0000
1000
0000
0100
0010
0100
0000
,
0000
1001
1001
0000
0100
0010
0000
0010
,
0000
1100
1100
0000
0010
0000
0100
0001
,
0000
1010
1010
0000
0100
0000
0010
1000
,
0000
1000
0001
0010
0001
0100
0000
0100
,
0000
1010
1010
0000
0100
0001
0000
0001
,
0000
0110
0110
0000
0001
0100
0000
0100
,
0000
1010
1010
0000
0110
0000
1010
0000
,
0110
1001
1001
0100
0110
1010
0110
0000
,
0010
1002
0000
0100
,
0000
0010
0000
1000
,
0000
0010
0000
0100
,
0003
0000
1001
0000
0100
0100
0010
0000
,
1000
0001
0000
0001
0100
0000
0100
0010
,
1000
0000
1000
0000
0001
1000
0001
0000
,
0100
0000
0100
0010
1000
0000
0100
0001
,
0100
0000
0010
0000
0010
0100
0000
1000
,
0001
2000
0000
3000
,
1001
0000
0100
0010
0010
0000
1000
1000
,
0001
0010
0100
0100
0001
0000
1000
0000
,
1000
0010
0100
0000
0100
0001
0010
0001
,
1000
0000
1000
0010
0100
0100
0001
0000
,
0110
0000
0010
1000
0000
1000
0010
0010
,
0100
0000
1000
0001
1000
0010
0000
0100
,
0010
0000
0010
0001
1000
0000
1000
0100
,
0010
0100
0001
0001
1000
1000
0100
0000
,
1001
0000
0000
0000
0010
0000
0000
0000
0010
0000
0100
1000
0000
0000
0100
0000
,
0001
0000
0010
0100
0001
0000
1000
0000
0000
0000
1000
0000
0100
0000
0000
0000
,
0010
0000
0110
0000
0000
0000
0001
0000
0000
1000
0001
0000
0000
0000
1100
0000
,
1100
0000
0000
0000
0001
0000
0010
0000
0100
0000
0000
1000
0100
0000
0000
0000
,
1010
0000
1010
0000
0000
0000
0001
0000
1000
0010
0000
0000
0100
0000
1000
0000
,
0000
0010
0100
0000
0100
0001
0001
1000
,
1000
0000
0000
0000
0100
0000
0110
0000
1000
0000
1001
0000
0100
0100
0100
0000
,
0000
0010
0010
1000
0001
0100
0000
0100
,
0010
0000
0010
0000
1000
0000
0000
0000
0100
0010
0000
0000
0100
0000
0001
0010
,
0000
0001
0010
0010
1000
0100
0000
0100
,
0010
0000
0000
0010
0100
0000
0000
0100
0001
0000
1000
0010
1000
0000
0000
0000
,
1000
0100
1000
0000
0110
0000
0001
0000
,
1010
0100
0100
0000
0010
0100
1001
0000
,
0010
1000
1000
0000
0110
0000
1100
0000
,
0010
0000
0100
0001
0010
0001
1000
0000
,
1001
0010
0100
0010
,
1000
1000
0001
0010
,
0100
2000
0000
0010
,
0001
3000
0000
0000
;

//---------------dance-single - ----------------
#NOTEDATA:;
#CHARTNAME:;
#STEPSTYPE:dance-single;
#DESCRIPTION:;
#CHARTSTYLE:;
#DIFFICULTY:Easy;
#METER:6;
#RADARVALUES:0.276071,0.370019,0.180148,0.032754,0.000000,236.000000,214.000000,22.000000,4.000000,0.000000,0.000000,0.000000,0.000000,0.000000,0.276071,0.370019,0.180148,0.032754,0.000000,236.000000,214.000000,22.000000,4.000000,0.000000,0.000000,0.000000,0.000000,0.000000;
#CREDIT:;
#NOTES:
// measure 0
0000
0000
0000
0000
,  // measure 1
0000
0000
0010
0100
,  // measure 2
1000
0000
0100
0000
0010
0000
0001
0001
,  // measure 3
0010
0100
1000
0100
,  // measure 4
0010
0100
0010
0100
,  // measure 5
1000
0010
0010
1000
,  // measure 6
1000
0001
0001
0100
,  // measure 7
0110
0000
1001
0100
,  // measure 8
0000
0110
1001
1010
,  // measure 9
0000
0100
0100
0010
,  // measure 10
1000
1000
0001
0000
,  // measure 11
0001
0100
0100
0000
,  // measure 12
0010
1000
0000
1000
,  // measure 13
0000
0001
0000
0001
,  // measure 14
0010
0010
0100
0000
,  // measure 15
0100
0010
0100
1000
,  // measure 16
0010
0010
0000
0010
,  // measure 17
1000
1001
0000
0010
,  // measure 18
0100
0110
1000
0001
,  // measure 19
1000
1001
0000
0001
,  // measure 20
0010
0100
0000
0010
,  // measure 21
0010
1000
0000
0001
,  // measure 22
1000
1001
0010
0000
,  // measure 23
0000
1001
1000
1010
,  // measure 24
0010
1000
1001
0001
,  // measure 25
0000
0020
0000
0000
,  // measure 26
0000
0030
1000
0000
,  // measure 27
0100
0000
0000
0010
,  // measure 28
0000
0001
0001
0100
,  // measure 29
1000
1000
0010
0100
,  // measure 30
0010
0001
0001
1000
,  // measure 31
0010
0100
0100
0010
,  // measure 32
0100
0001
0010
0001
,  // measure 33
1000
2000
0000
3000
,  // measure 34
1001
0010
0010
1000
,  // measure 35
0001
0001
0100
0100
,  // measure 36
0010
0001
1000
0001
,  // measure 37
0010
0010
0100
0100
,  // measure 38
1000
1001
0100
0001
,  // measure 39
0100
0010
0100
0001
,  // measure 40
1000
0010
0100
0100
,  // measure 41
0001
0001
1000
1000
,  // measure 42
0110
0000
0001
0000
0010
0000
1000
0010
,  // measure 43
1000
0010
0001
0001
,  // measure 44
0100
0010
0100
0000
0010
0000
0100
0000
,  // measure 45
0001
1000
0001
0000
1000
0001
1000
0000
,  // measure 46
0010
0100
0010
0000
1000
0000
0001
0000
,  // measure 47
0100
0000
0100
0000
0010
0100
0010
0000
,  // measure 48
0001
0000
2000
0000
0000
0000
0000
3000
,  // measure 49
0000
0000
0010
0100
0010
0000
0001
0000
,  // measure 50
0010
0000
0100
1000
0100
0000
0010
0000
,  // measure 51
1000
0000
0001
0000
1000
0000
0010
0100
,  // measure 52
0010
0000
1000
0000
0100
0010
0100
0000
,  // measure 53
1001
0010
0110
0100
,  // measure 54
0110
0000
1000
0001
1000
0000
0100
0000
,  // measure 55
0110
0000
0001
1000
0001
0000
1001
0000
,  // measure 56
0010
0000
0110
0000
1000
0001
1000
0000
,  // measure 57
1001
0010
0000
0100
,  // measure 58
0000
0010
0000
0001
,  // measure 59
0000
2000
0000
0010
,  // measure 60
0001
3000
0000
0000
;

//---------------dance-single - ----------------
#NOTEDATA:;
#CHARTNAME:;
#STEPSTYPE:dance-single;
#DESCRIPTION:;
#CHARTSTYLE:;
#DIFFICULTY:Beginner;
#METER:2;
#RADARVALUES:0.167280,0.222012,0.040943,0.024566,0.000000,143.000000,138.000000,5.000000,3.000000,0.000000,0.000000,0.000000,0.000000,0.000000,0.167280,0.222012,0.040943,0.024566,0.000000,143.000000,138.000000,5.000000,3.000000,0.000000,0.000000,0.000000,0.000000,0.000000;
#CREDIT:;
#NOTES:
// measure 0
0000
0000
0000
0000
,  // measure 1
0000
0000
0010
0100
,  // measure 2
0000
0001
1000
0000
,  // measure 3
0010
0100
0000
0001
,  // measure 4
0001
0000
1000
0010
,  // measure 5
0000
0100
0100
0010
,  // measure 6
0000
1000
1000
0001
,  // measure 7
0000
0010
0000
0010
,  // measure 8
0000
0110
0000
1000
,  // measure 9
0000
1000
0010
0000
,  // measure 10
0100
0100
0000
0001
,  // measure 11
1000
0000
0010
0010
,  // measure 12
0000
0100
0010
0000
,  // measure 13
0000
1000
0000
1000
,  // measure 14
0000
0010
0000
0100
,  // measure 15
0000
0000
0100
0000
,  // measure 16
0000
0010
0000
0000
,  // measure 17
0001
0001
0000
0000
,  // measure 18
0100
0100
0000
0000
,  // measure 19
0010
0010
0000
0001
,  // measure 20
0000
0100
0000
0000
,  // measure 21
1000
1000
0000
0000
,  // measure 22
0100
0100
0000
0000
,  // measure 23
0001
0001
0010
0000
,  // measure 24
1000
1000
0000
0010
,  // measure 25
1000
0200
0000
0000
,  // measure 26
0000
0000
0000
0000
,  // measure 27
0000
0000
0000
0000
,  // measure 28
0000
0310
0000
0001
,  // measure 29
1001
0000
1000
1001
,  // measure 30
0000
0010
0010
1000
,  // measure 31
0000
1000
0000
0100
,  // measure 32
0010
0100
0000
0010
,  // measure 33
0010
0000
2000
0000
,  // measure 34
3001
0000
0010
0000
,  // measure 35
0100
0000
0010
0000
,  // measure 36
0100
0000
0100
0001
,  // measure 37
0000
0001
0000
1000
,  // measure 38
1001
0000
0010
0100
,  // measure 39
0000
0001
1000
0001
,  // measure 40
0000
0001
1000
0000
,  // measure 41
0010
0010
0000
0100
,  // measure 42
0110
0000
0000
0001
,  // measure 43
0001
0000
0000
1000
,  // measure 44
1000
0000
0000
0010
,  // measure 45
0010
0000
0001
0100
,  // measure 46
0100
0000
0010
0100
,  // measure 47
0000
0010
0001
0000
,  // measure 48
1000
1000
0000
0000
,  // measure 49
0000
0001
0000
0010
,  // measure 50
0000
0100
0010
0100
,  // measure 51
1000
0000
0001
0010
,  // measure 52
0001
0100
0010
0000
,  // measure 53
0100
0100
1000
0001
,  // measure 54
1000
0010
0000
0100
,  // measure 55
0001
1000
0100
0100
,  // measure 56
0000
0010
0010
1000
,  // measure 57
0000
0001
1000
0000
,  // measure 58
0000
0010
0000
0001
,  // measure 59
0000
2000
0000
0000
,  // measure 60
0010
3000
0000
0000
;
