#VERSION:0.83;
#TITLE:jet coaster☆girl sasakure.UK tRiCkStAr Remix;
#SUBTITLE:NOV;
#ARTIST:sasakure.UK feat.mirto;
#TITLETRANSLIT:;
#SUBTITLETRANSLIT:;
#ARTISTTRANSLIT:;
#GENRE:;
#ORIGIN:;
#CREDIT:PaperBox440;
#BANNER:jet coaster girl sasakure.UK tRiCkStAr Remix.png;
#BACKGROUND:jet coaster girl sasakure.UK tRiCkStAr Remix-bg.png;
#PREVIEWVID:;
#JACKET:jet coaster girl sasakure.UK tRiCkStAr Remix-jacket.png;
#CDIMAGE:;
#DISCIMAGE:;
#LYRICSPATH:;
#CDTITLE:;
#MUSIC:jet coaster girl sasakure.UK tRiCkStAr Remix.mp3;
#OFFSET:-1.000000;
#SAMPLESTART:60.000000;
#SAMPLELENGTH:15.500000;
#SELECTABLE:YES;
#BPMS:0.000=120.000;
#STOPS:;
#DELAYS:;
#WARPS:;
#TIMESIGNATURES:0.000=4=4;
#TICKCOUNTS:0.000=4;
#COMBOS:0.000=1;
#SPEEDS:0.000=1.000=0.000=0;
#SCROLLS:0.000=1.000;
#FAKES:;
#LABELS:0.000=Song Start;
#BGCHANGES:;
#KEYSOUNDS:;
#ATTACKS:
;

//---------------dance-single - ----------------
#NOTEDATA:;
#CHARTNAME:;
#STEPSTYPE:dance-single;
#DESCRIPTION:;
#CHARTSTYLE:;
#DIFFICULTY:Hard;
#METER:16;
#RADARVALUES:0.692675,0.701431,0.572041,0.099880,0.599281,534.000000,471.000000,63.000000,11.000000,0.000000,0.000000,0.000000,0.000000,0.000000,0.692675,0.701431,0.572041,0.099880,0.599281,534.000000,471.000000,63.000000,11.000000,0.000000,0.000000,0.000000,0.000000,0.000000;
#CREDIT:;
#NOTES:
0000
0000
0000
0000
0000
0000
0000
0000
0010
0000
0100
0000
0100
0010
0000
0010
,
0001
0000
0001
0000
1000
0001
1000
0000
1001
0000
0010
0000
0010
0000
0100
0000
,
0010
0000
1000
0000
0000
0100
1000
0000
0010
0000
0001
0000
1001
0000
0100
0000
,
0100
0010
1000
1000
0010
0110
0001
0100
,
0100
0000
0001
0010
0200
0000
0300
0000
1000
0000
1000
0000
0001
0010
0001
0000
,
0100
0000
0100
0010
1000
0001
1000
0001
0010
0000
0110
0000
0000
0000
0010
0000
,
0100
0001
0000
0001
1000
0000
1000
0000
0010
0000
0110
0000
1000
0000
1000
0001
,
0000
0000
0010
0000
1000
0001
1000
0001
1000
0000
0100
0000
0000
0010
0100
0010
,
0200
0000
0000
0001
0310
0000
1000
0000
1001
0000
0010
0000
0100
0000
0100
0000
,
0010
1000
0010
0001
1001
0100
0010
0100
,
0001
0001
1000
1000
0110
0001
0001
1000
,
1001
0010
0010
0100
1001
0010
0010
0100
,
0110
0000
0001
0000
0001
0000
1000
0000
1001
0000
0000
0000
1000
0100
1000
0000
,
1100
0000
0010
0100
0000
0000
0010
0000
0110
0000
0001
0000
0000
0001
0100
0000
,
1001
0000
0000
1000
0010
0000
0100
0000
0110
0000
0001
0000
0001
0010
0000
0000
,
1001
0000
0100
0010
0100
0000
0000
0000
0101
0000
1000
0000
1000
0001
0000
0000
,
1100
0000
0010
0000
0100
0010
0100
0010
0000
0000
0001
0000
1001
0000
0100
0010
,
0100
0000
1000
0000
1001
0000
0001
0100
0010
0000
0010
1000
1100
0000
0001
0000
,
1001
0000
1000
0100
1000
0001
0001
0000
1010
0100
0010
1000
1001
0000
0100
0000
,
0110
0000
0000
0000
1010
0000
0000
0010
0100
0001
0001
0000
0110
0000
1010
0000
,
0000
0100
0010
0100
0002
0000
0003
0000
1001
0100
0000
0100
0010
0000
0010
1000
,
0100
1000
0010
0000
0101
0000
0100
0010
0010
0000
1000
0000
0010
0100
1001
0000
,
0000
1000
1000
0010
0100
0001
0001
0000
1010
0000
0010
0100
1000
0001
0001
0000
,
0100
0010
0100
0000
1001
0001
0000
0010
0100
0010
1000
0000
1001
0000
0000
0010
,
0100
0000
0100
0000
0001
0010
0001
0000
1000
0000
1001
0000
0001
0000
1001
0000
,
1000
0000
1001
0000
0110
0000
0000
0000
0000
0001
0000
0100
0010
0100
0000
1000
,
0001
0000
0001
0000
0010
0100
0010
0000
1000
0000
1001
0000
0100
0000
0010
0010
,
1000
0100
1000
0000
0001
0100
0010
0000
1001
0000
0100
0100
0000
0010
0010
0100
,
0001
1000
1000
1000
0001
0010
0001
0100
0100
0010
0000
1000
0001
1000
0000
0000
,
0110
0001
0000
0001
0000
0001
0000
0000
1001
0000
0010
0000
0100
0000
0001
0000
,
1010
0000
0100
0000
0100
0010
0001
0000
0101
0000
1000
0000
0100
0000
1000
0000
,
0011
0000
0010
0000
0100
0000
0001
0000
0011
0000
1000
0000
1000
0010
0100
0000
,
1000
0010
1010
0100
0100
0001
0011
1000
,
0100
0000
1000
0000
0010
0001
0010
0000
0100
0000
1000
0000
1001
0000
0010
0000
,
0100
0000
0010
0000
0110
0000
0001
0000
1000
0000
0100
0010
1000
0000
0001
0100
,
0001
0000
0010
1000
0010
0000
0100
0010
0100
0000
0001
0000
1001
0000
0100
0000
,
0001
0000
0000
1000
0000
0000
0001
0000
0000
0000
0000
0000
0010
0000
0000
0100
0000
0000
0010
0000
0000
0000
0000
0000
0100
0000
0000
0000
0000
0000
0000
0000
1000
0000
0000
0000
0000
0000
0000
0000
1000
0000
0000
0000
0010
0000
0000
0000
,
0000
0000
0000
0000
0001
0000
0000
0000
0100
0000
0000
0000
0000
0000
0000
0000
0000
0000
0000
0000
0000
0000
0000
0000
1001
0000
0000
0000
0000
0000
0100
0000
0000
0000
0000
0000
0100
0000
0000
0000
0000
0000
0001
0000
0000
0010
0000
0000
,
0001
0000
1000
0000
1000
0010
0100
0000
0010
0000
0001
0000
1010
0000
0100
0000
,
0100
0001
0010
0000
1000
0001
1000
0000
0010
0000
0010
0000
1100
0000
0001
0000
,
0001
0100
0010
0100
0000
0000
0001
0000
1000
0000
0100
0010
0100
0001
0000
0001
,
2000
0000
3200
0000
0320
0000
0030
0000
0100
0010
0000
0000
1001
0000
0000
0100
,
0000
0010
0100
0000
0110
0000
0000
0001
0001
0000
1000
0000
0001
0010
0000
0000
,
0010
0100
0000
0000
0100
0000
0001
0010
0001
0000
1000
0000
1001
0000
0010
0000
,
0010
0000
0100
0000
0110
0000
0001
0000
0001
0000
0100
0000
0000
0010
1000
0100
,
1000
0000
0002
0000
0023
0000
0230
0000
0300
0000
0000
0000
0001
0000
0000
0100
,
0010
0100
0010
0000
1000
0001
1000
0000
0010
0000
0200
0000
0300
0010
0000
0010
,
1000
0100
1000
0001
0010
0001
0000
0000
0100
0000
0110
0000
0000
0001
0000
0000
,
0100
0000
0000
0110
0000
0000
0000
0000
0001
0000
0000
0000
0001
0000
1000
0000
0100
0000
1000
0000
0010
0000
0000
0000
,
0010
0000
0100
0001
1000
1000
0100
0010
0100
0001
0001
1000
,
0020
0000
0000
0000
0000
0000
0000
0000
0130
0000
0000
0000
0001
0000
0000
0000
0001
0000
0000
0000
0000
0000
0000
0000
1000
0000
0000
0000
0000
0000
1001
0000
0000
0000
0000
0000
0100
0000
0000
0000
0000
0000
0010
0000
0000
0100
0000
0000
,
0010
0100
0000
0000
0110
0000
1000
0001
1000
0000
0000
0000
0000
0000
0000
0000
;
