#VERSION:0.83;
#TITLE:in the end;
#SUBTITLE:(it's just got no games);
#ARTIST:Chris Voiceman;
#TITLETRANSLIT:;
#SUBTITLETRANSLIT:;
#ARTISTTRANSLIT:;
#GENRE:;
#ORIGIN:;
#CREDIT:PaperBox440;
#BANNER:in the end (it's just got no games).png;
#BACKGROUND:in the end (it's just got no games)-bg.png;
#PREVIEWVID:;
#JACKET:in the end (it's just got no games)-jacket.png;
#CDIMAGE:;
#DISCIMAGE:;
#LYRICSPATH:;
#CDTITLE:;
#MUSIC:in the end (it's just got no games).ogg;
#OFFSET:0.000000;
#SAMPLESTART:54.500000;
#SAMPLELENGTH:18.000000;
#SELECTABLE:YES;
#BPMS:0.000=140.000,
130.000=153.000;
#STOPS:;
#DELAYS:;
#WARPS:;
#TIMESIGNATURES:0.000=4=4;
#TICKCOUNTS:0.000=4;
#COMBOS:0.000=1;
#SPEEDS:0.000=1.000=0.000=0;
#SCROLLS:0.000=1.000;
#FAKES:;
#LABELS:0.000=Song Start;
#BGCHANGES:;
#KEYSOUNDS:;
#ATTACKS:
;

//---------------dance-single - ----------------
#NOTEDATA:;
#CHARTNAME:;
#STEPSTYPE:dance-single;
#DESCRIPTION:;
#CHARTSTYLE:;
#DIFFICULTY:Hard;
#METER:9;
#RADARVALUES:0.386616,0.464283,0.324757,0.252589,0.084196,225.000000,198.000000,27.000000,21.000000,0.000000,0.000000,0.000000,0.000000,0.000000,0.386616,0.464283,0.324757,0.252589,0.084196,225.000000,198.000000,27.000000,21.000000,0.000000,0.000000,0.000000,0.000000,0.000000;
#CREDIT:;
#NOTES:
// measure 0
0000
0000
0000
0000
0000
0100
0000
0010
,  // measure 1
0000
0000
0100
0000
0000
1001
0000
0000
,  // measure 2
0001
0000
0000
1000
0000
0000
0001
0000
,  // measure 3
1000
0001
1000
0000
0110
0000
0000
0010
,  // measure 4
0000
0000
1001
0000
0000
1000
0000
0001
,  // measure 5
0000
0000
1000
0000
0100
0000
0100
0010
,  // measure 6
0100
0000
1001
0000
0000
0001
0000
0000
,  // measure 7
1000
0000
0001
0000
0000
0010
0000
0100
,  // measure 8
0000
0000
0010
0100
0010
0100
0000
0000
,  // measure 9
0110
0000
1001
0000
0000
1000
0000
0000
,  // measure 10
0001
0000
0000
0000
,  // measure 11
0000
0000
1000
0000
1001
0000
0010
0100
,  // measure 12
0010
0000
1100
0000
0001
0001
1000
0001
,  // measure 13
0001
0010
0100
0000
1001
0000
1000
1000
,  // measure 14
0001
0000
0010
0100
0100
0000
0110
0000
,  // measure 15
1000
1000
0001
0000
0001
1000
0001
1000
,  // measure 16
0000
0000
0000
0000
1001
0000
0000
0000
0000
0000
0110
0000
0000
0000
0001
0010
,  // measure 17
0000
0000
1000
0000
1000
0000
0001
0000
0000
0000
0100
0010
0000
0000
0000
0000
,  // measure 18
1000
1000
0100
0010
0000
0010
0100
0200
,  // measure 19
0300
0000
0001
1000
0001
0000
0100
0010
,  // measure 20
0000
0100
0010
0000
0000
0000
1000
0000
0000
0000
1000
0000
0001
0000
0000
0000
,  // measure 21
0001
0000
0100
0010
0110
0000
1000
0000
,  // measure 22
1001
0000
0010
0100
0010
0100
2000
3000
,  // measure 23
0000
0001
1000
0000
0100
0010
0100
0100
,  // measure 24
0001
0000
1001
0000
0100
0010
0100
0010
,  // measure 25
1000
0000
1001
0000
0001
0010
0010
0000
,  // measure 26
1000
0001
1000
0000
0000
1100
0000
0110
,  // measure 27
0000
0000
2002
0000
3003
0000
0010
0100
,  // measure 28
0010
0000
1001
0000
0001
0100
0010
0200
,  // measure 29
0000
0300
0000
1000
0001
1000
0000
0010
,  // measure 30
0100
0010
0000
0100
1000
0000
0001
0010
,  // measure 31
0000
0010
0001
0100
0100
0000
1000
0000
,  // measure 32
0000
1001
0000
0000
0220
0000
0000
0000
,  // measure 33
0330
0000
0000
0000
0001
0010
0000
0000
1000
0000
0001
0000
1000
0000
0000
0000
,  // measure 34
2000
0000
0000
0000
0000
0000
0000
0000
0000
0000
3000
0000
0000
0000
0000
0001
,  // measure 35
0010
0010
0100
0200
0000
0000
0000
0300
,  // measure 36
0001
0000
1000
0000
0000
1000
0100
0010
0100
0000
0001
0000
0000
0001
0000
0000
,  // measure 37
2002
0000
3003
0000
0010
0000
0000
1010
,  // measure 38
0000
0000
2002
0000
0000
3003
0000
0000
,  // measure 39
0001
0010
0000
0000
0100
0000
0000
0000
0010
0000
0000
0000
0220
0000
0000
0000
,  // measure 40
0000
0000
0000
0000
0000
0000
0330
0000
0000
0000
0000
0000
1000
0000
1000
0001
,  // measure 41
0000
0020
0000
0000
0030
0000
0000
0100
,  // measure 42
0010
0100
0010
0000
1000
0000
0000
0000
2000
0000
0000
0000
0000
0000
0002
0000
,  // measure 43
0000
0000
0000
0000
,  // measure 44
0000
0000
3003
0000
0000
0000
0020
0000
0000
0030
0000
0001
1000
0000
0000
0000
,  // measure 45
0000
0000
0000
0000
0000
0000
0000
0010
0100
0000
0000
0000
2000
0000
0000
0000
,  // measure 46
0000
3000
0001
0000
0000
0000
0000
0000
0000
0000
0000
0000
0000
0010
0100
0000
,  // measure 47
0000
0000
0020
0000
0030
1000
0000
0000
,  // measure 48
0000
1001
0000
0000
;

//---------------dance-single - ----------------
#NOTEDATA:;
#CHARTNAME:;
#STEPSTYPE:dance-single;
#DESCRIPTION:;
#CHARTSTYLE:;
#DIFFICULTY:Medium;
#METER:5;
#RADARVALUES:0.271490,0.342799,0.156365,0.192449,0.000000,158.000000,145.000000,13.000000,16.000000,0.000000,0.000000,0.000000,0.000000,0.000000,0.271490,0.342799,0.156365,0.192449,0.000000,158.000000,145.000000,13.000000,16.000000,0.000000,0.000000,0.000000,0.000000,0.000000;
#CREDIT:;
#NOTES:
0000
0000
0000
0000
0000
0010
0000
0000
,
0100
0000
0010
0000
0001
0000
0000
1000
,
0000
0000
0100
0000
0010
0000
0000
0100
,
0000
0010
0001
0000
1000
0000
0000
1001
,
0000
0000
0010
0000
0000
0100
0000
0000
,
0010
0010
0010
1000
,
1001
0000
0010
0000
0100
0000
0000
0010
,
0000
0000
0001
0000
1000
0000
0000
1000
,
0000
0000
0001
0010
0100
0000
0000
0000
,
1000
0001
0010
0100
,
0000
0000
0000
0000
,
0000
0010
1000
0000
,
0001
1000
0001
0000
0000
0000
0010
0000
,
0100
0000
0100
0000
,
0010
0000
0100
0000
0010
0001
1000
0000
,
1000
0001
0000
0001
,
0010
0000
1000
0000
0000
1001
0000
0000
,
0000
0010
0000
0000
0110
0000
0001
0000
,
0001
0000
1000
0000
0001
0000
0000
0110
,
0000
0000
0010
0000
0000
1000
0000
0000
,
1000
0000
0001
0000
0000
0001
0000
0000
,
0100
0010
0100
0000
0000
0001
0000
0000
,
1001
0000
0000
1000
0000
0000
1000
0001
,
0000
0001
0100
0000
,
0010
0100
0000
0000
0001
0000
0000
0000
,
1000
0000
0000
0000
0001
0100
0000
0000
,
0100
0000
0000
0010
0000
0000
0010
0000
,
0001
2000
3000
0001
,
0000
0001
0000
0100
0000
0000
0100
0000
,
0000
0010
0000
0000
0010
0000
1000
0001
,
1000
0000
0010
0000
0000
0100
0000
0001
,
0000
0000
0110
0000
0000
1001
0000
0010
,
0100
0100
2002
3003
,
0100
0001
0000
0001
0000
0010
0100
0010
,
2000
0000
0000
0000
3000
0000
0000
0001
,
0010
0100
0000
2000
0000
0000
3000
0000
,
0010
0100
0010
0000
1000
0000
0001
0000
,
2002
3003
0010
0100
,
0000
0110
0000
0000
2002
0000
3003
0000
,
0100
0000
0010
0100
0010
0000
0200
0000
,
0000
0000
0000
0000
0300
0000
1000
0001
,
0010
0001
2000
0000
0000
3000
0001
0000
,
0100
0010
0100
0000
0010
0001
2000
0000
,
0000
0000
0000
3000
,
1001
0020
0000
0000
,
0000
0000
0000
0000
0000
0030
0200
0000
,
0000
0000
0000
0000
0000
0000
0300
2000
,
0000
0002
3003
0000
;
