#TITLE:coconut oil;
#SUBTITLE:;
#ARTIST:Club Ham Station;
#TITLETRANSLIT:;
#SUBTITLETRANSLIT:;
#ARTISTTRANSLIT:;
#GENRE:;
#CREDIT:;
#BANNER:coconut oil.png;
#BACKGROUND:coconut oil-bg.png;
#LYRICSPATH:;
#CDTITLE:cdtitle.png;
#MUSIC:coconut oil.mp3;
#OFFSET:0.000000;
#SAMPLESTART:29.400002;
#SAMPLELENGTH:9.299999;
#SELECTABLE:YES;
#BPMS:0.000000=400.000000
;
#STOPS:
;
#BGCHANGES:0.000=coconut oil.avi=1.000=0=0=0=StretchNoLoop====,
99999=-nosongbg-=1.000=0=0=0 // don't automatically add -songbackground-
;
#KEYSOUNDS:;
#ATTACKS:;

//---------------dance-single - ----------------
#NOTES:
     dance-single:
     :
     Hard:
     11:
     0.722324,1.321707,0.935924,0.776132,0.000000,443.000000,361.000000,82.000000,68.000000,0.000000,0.000000,0.722324,1.321707,0.935924,0.776132,0.000000,443.000000,361.000000,82.000000,68.000000,0.000000,0.000000:
0000
0000
0000
0000
,
0000
0000
0000
0000
,
0000
0000
0000
0000
,
0000
0000
0000
0000
,
0000
0000
0000
0000
,
0000
0000
0000
0000
,
0000
0000
0000
0000
,
0000
0000
0000
0000
,
0000
0000
0000
0000
,
0000
0000
0000
0000
,
0000
0000
0000
0000
,
0000
0000
0000
0000
,
0000
0000
0000
0000
,
0010
0100
0010
0100
,
0010
0100
0010
0200
,
0000
0000
0300
0010
,
0011
0001
1000
1100
,
0000
0011
1001
1100
,
0100
0000
0110
0000
,
0001
0000
1001
0000
,
1000
0000
1001
0000
,
1010
0000
0110
0000
,
1001
0000
0110
0000
,
1000
0001
0002
0000
,
0003
0010
0000
0010
,
0100
0010
0000
1010
,
0000
1000
0000
1001
,
0000
0001
0000
0011
,
0000
0010
0000
0110
,
0000
0100
0000
1001
,
0000
1000
0000
1001
,
0000
0010
0000
0110
,
0000
0100
0000
1001
,
0001
0010
0100
0010
,
1000
0000
1000
0010
,
0000
0100
0100
0010
,
0001
0000
0001
0000
,
0010
0000
0011
0000
,
0010
0000
0100
0000
,
0110
0000
1001
0000
,
2001
0000
0000
3001
,
0000
0010
0100
0001
,
0000
0100
0000
1010
,
0000
0100
0000
0011
,
0000
0100
0000
1100
,
0000
0100
0000
1000
,
0000
0011
0000
0001
,
0100
0000
0010
0000
,
1100
0000
1000
0000
,
0001
0010
0100
0010
,
0100
1000
0100
0001
,
0010
0110
0220
0000
,
0330
0000
1000
0100
,
0010
0100
0010
0001
,
1000
0001
0000
0010
,
0100
1000
1001
2002
,
0000
3003
0000
0010
,
0010
0100
0010
1000
,
0100
1000
0001
0001
,
0010
0100
0020
0000
,
0030
0100
0010
0100
,
0010
0010
0001
1000
,
0100
0010
0100
0010
,
0001
0100
2000
0000
,
0000
3000
0000
0020
,
0000
0130
0000
2000
,
0000
3001
0000
0001
,
0000
0001
0000
0010
,
0000
0020
0000
0130
,
0000
0100
0000
0100
,
0000
0200
0000
1300
,
0000
0020
0000
0130
,
0000
0100
0000
0100
,
0000
0200
0000
0301
,
0000
0002
0000
1003
,
0000
1000
0200
0320
,
0230
0302
2003
3002
,
0203
2300
3020
0032
,
0203
2300
3020
0030
,
0200
0000
0300
0200
,
0000
0000
0300
0010
,
0000
0010
1000
0000
,
1000
0100
0000
0100
,
0010
0100
1000
0000
,
1000
0001
0000
0001
,
0010
0000
0010
0100
,
0010
0000
1000
0100
,
1000
0000
1000
0100
,
0000
0011
0000
0110
,
0000
1001
0000
1100
,
0000
1001
0000
0011
,
0000
0110
0000
1100
,
0000
1001
1000
0100
,
0010
0100
0010
0001
,
0010
0100
0020
0000
,
0030
0110
0110
0110
,
0000
0110
0000
0000
,
2000
0000
0000
3001
,
0000
0010
0100
0010
,
1000
2000
0000
3001
,
0010
0100
0010
0020
,
0000
0130
1000
2000
,
0000
3001
0001
0010
,
0100
0001
0001
1000
,
1000
0110
0000
0220
,
0000
0000
0330
0000
,
0010
1000
1000
0001
,
0010
0100
0010
0000
,
1100
0000
1000
0001
,
0011
0100
0010
1100
,
0000
1000
0011
0010
,
0001
0100
1100
0000
,
0010
0011
0100
1100
,
0000
0100
0010
0000
,
0011
0010
0000
1100
,
1000
0010
0100
0110
,
0000
1000
1001
0000
,
0010
0110
0100
0010
,
1001
1000
0110
0100
,
0001
0001
1000
0000
,
1000
0110
0100
0000
,
0011
0001
1000
1100
,
0001
0000
0001
0100
,
0010
1000
1100
0000
,
0011
0001
1100
1000
,
0000
1010
0110
0000
,
2000
0000
3001
0010
,
0000
0020
0000
0130
,
0000
0001
2000
3200
,
0000
0310
0000
0010
,
0110
0000
1001
0000
,
0200
0320
0000
0130
,
2000
3000
0010
0100
,
0000
2010
0000
3001
,
0020
0000
0130
0000
,
1001
0001
0010
0100
,
0000
2000
3002
0203
,
2300
3020
0032
0203
,
2300
3020
0032
0203
,
2300
3020
0032
0203
,
2300
3020
0032
0203
,
2300
3000
0020
0000
,
0000
0130
0000
1001
,
1001
1001
1001
1001
,
0000
1001
0000
0000
1001
0000
1001
0000
;

//---------------dance-single - ----------------
#NOTES:
     dance-single:
     :
     Challenge:
     14:
     0.927771,1.154496,0.719063,1.164198,0.194033,569.000000,506.000000,63.000000,102.000000,0.000000,0.000000,0.927771,1.154496,0.719063,1.164198,0.194033,569.000000,506.000000,63.000000,102.000000,0.000000,0.000000:
// measure 0
0000
0000
0020
0000
,  // measure 1
0000
0000
0130
0000
,  // measure 2
1001
0200
0000
0000
,  // measure 3
0000
0000
0300
1001
,  // measure 4
0020
0000
0000
0000
,  // measure 5
0000
0030
0110
2000
,  // measure 6
0000
0000
0000
3000
,  // measure 7
0000
0000
0000
1001
,  // measure 8
0000
0020
0000
0000
,  // measure 9
0030
0000
0110
0000
,  // measure 10
0000
2000
0000
0000
,  // measure 11
3000
0000
0000
0110
,  // measure 12
0000
0002
0000
0003
,  // measure 13
0010
0100
0010
0010
,  // measure 14
1000
0100
0001
0010
,  // measure 15
0200
0000
0000
0000
0300
0000
0010
0100
,  // measure 16
0000
0000
0010
1000
0000
0000
0010
0100
,  // measure 17
0010
0100
0000
0000
0010
0000
1100
0000
,  // measure 18
0110
0001
1001
1100
,  // measure 19
0010
1000
0000
1000
0001
0000
0001
0000
,  // measure 20
0100
0010
0000
0010
1000
0000
0000
0000
,  // measure 21
1100
0000
0110
0000
,  // measure 22
0011
0000
0110
0000
,  // measure 23
1001
0000
0010
0110
,  // measure 24
0000
1000
0000
1000
0010
0000
0000
0100
,  // measure 25
0000
0100
0010
0000
0001
0000
0000
0001
,  // measure 26
1000
0000
0000
1000
0010
0000
0000
0100
,  // measure 27
0000
0010
0000
0010
0000
1000
0000
0000
,  // measure 28
1000
0010
0000
0000
0010
0100
0000
0000
,  // measure 29
0100
0001
0000
0000
0001
1000
0000
0000
,  // measure 30
1000
0000
0010
0000
1000
0001
0010
0000
,  // measure 31
0001
0100
0000
0100
1000
0000
1000
0000
,  // measure 32
0000
0010
0100
0010
0100
0010
0000
0000
,  // measure 33
0100
0000
0000
0110
0000
0000
0001
0000
,  // measure 34
0000
0001
0010
0000
0100
0010
0000
1000
,  // measure 35
0000
0000
1000
0000
0010
0100
0000
0000
,  // measure 36
1000
0010
0000
0001
0000
0100
0000
1000
,  // measure 37
0000
0010
0001
0000
1000
0010
0000
0000
,  // measure 38
0100
0010
0000
0001
1000
0000
0001
0000
,  // measure 39
1000
0100
0000
0010
0000
0001
0100
0000
,  // measure 40
0010
1000
0000
1000
0000
1000
0010
0001
,  // measure 41
0000
0000
0001
0100
0000
0000
0100
0000
,  // measure 42
1000
0000
0000
1000
0000
0010
0000
0000
,  // measure 43
1000
0010
0000
0010
0000
0001
0100
0000
,  // measure 44
1000
0000
0001
0000
0100
0010
0000
0000
,  // measure 45
0010
1000
0000
0000
1000
0001
0000
0000
,  // measure 46
0001
0100
0000
1000
0000
0110
0000
0000
,  // measure 47
0001
1000
0000
0100
0000
1000
0001
0000
,  // measure 48
0001
0000
0000
0010
0100
0000
0000
0000
,  // measure 49
2000
3000
0020
0030
0000
2000
3000
0020
0030
0000
0000
0000
0200
0300
0000
0002
,  // measure 50
0003
0000
0020
0030
0000
2000
3000
0000
0000
2000
3000
0000
0020
0030
0200
0300
,  // measure 51
0020
0030
0200
0300
0020
0030
0000
0000
0002
0003
0000
0000
2002
0000
0000
0000
,  // measure 52
0000
0000
3003
0000
0000
0000
0000
0000
0000
0000
0000
0000
2000
3000
0000
2000
,  // measure 53
3000
0020
0030
0000
0000
0020
0030
0200
0300
0000
0200
0300
0002
0003
0000
2000
,  // measure 54
3000
0002
0003
0000
0000
0000
0020
0030
0200
0300
0000
0020
0030
2000
3000
0000
,  // measure 55
0000
2000
3000
0002
0003
0000
0002
0000
0000
0000
0000
0000
0000
0000
0000
0000
,  // measure 56
0003
0000
0000
0000
0000
0000
0000
0000
0200
0320
0030
0000
0200
0300
0000
2000
,  // measure 57
3000
0000
0000
2000
3000
0020
0030
0000
0000
0200
0300
0000
0020
0030
0000
0002
,  // measure 58
0003
0000
0002
0003
2000
3000
0000
0000
2000
3000
0020
0030
0200
0300
0000
0020
,  // measure 59
0030
0002
0003
0200
0300
0000
0000
2000
3000
0000
0000
0000
2002
0000
0000
0000
,  // measure 60
0000
0000
3003
0000
0000
0000
0000
0000
0000
0000
0000
0000
0020
0030
0200
0300
,  // measure 61
0000
0020
0030
0000
0200
0300
0000
0020
0030
0000
0000
0020
0030
0000
0002
0003
,  // measure 62
2000
3000
0000
0002
0003
2000
3000
0000
0002
0003
0000
0020
0030
0200
0300
2000
,  // measure 63
3000
0020
0030
0000
0002
0003
0000
0000
2000
0000
0000
0000
0000
0000
0000
0000
,  // measure 64
0000
0000
0000
3000
0000
0000
0000
0000
0000
0000
0000
0000
0010
0000
0100
0000
,  // measure 65
0000
0000
1000
0000
0001
0010
0000
0000
,  // measure 66
0100
0010
0000
1000
0000
0100
0001
0010
,  // measure 67
0000
0000
0000
0000
0000
0000
0100
0010
,  // measure 68
0100
0000
0000
0000
0001
0010
0000
1000
,  // measure 69
0100
0000
0010
0000
0100
0000
0000
0010
,  // measure 70
0100
0010
0000
0000
0001
0000
0000
0001
,  // measure 71
1000
0000
0000
1000
0010
0000
0100
0010
,  // measure 72
0000
0001
0000
2000
0000
0000
3000
0000
,  // measure 73
0000
0010
0100
0000
0000
1000
0001
0000
,  // measure 74
0000
1000
0010
0200
0000
0000
0000
0300
,  // measure 75
0000
0000
0000
2000
0000
3000
0002
0023
,  // measure 76
0230
0320
0230
0320
0030
0200
0320
0230
,  // measure 77
0320
0030
0000
0002
0003
0000
0002
0000
,  // measure 78
0000
0000
0000
0003
0002
0000
0000
0003
,  // measure 79
0002
0000
0000
0003
0002
0003
0002
0000
,  // measure 80
0000
0000
0000
0003
,  // measure 81
0000
1000
0000
1100
,  // measure 82
0000
0100
0000
0110
,  // measure 83
0000
0010
0000
0011
,  // measure 84
0000
0001
0000
1001
,  // measure 85
0000
1001
0000
1001
,  // measure 86
0000
0011
0000
0110
,  // measure 87
0000
1100
0000
1010
,  // measure 88
0000
0110
0000
0110
,  // measure 89
0000
1010
0000
0101
,  // measure 90
0000
0011
0000
1100
,  // measure 91
0000
0000
0011
0110
,  // measure 92
1100
0000
0000
0000
0010
0100
0010
0100
,  // measure 93
0010
0100
0010
0100
0000
0010
0000
0100
,  // measure 94
0000
1000
0001
0000
0100
0001
0000
0010
,  // measure 95
1000
0000
0000
1100
0000
0000
0100
0000
,  // measure 96
0110
0000
0000
1001
0000
1001
0000
0000
,  // measure 97
0000
0000
0010
0000
0000
0110
0000
0000
,  // measure 98
1000
0000
0000
1001
0000
0000
0010
0000
,  // measure 99
0000
0110
0000
0000
1000
0000
1000
0010
,  // measure 100
0000
0100
0000
0001
0010
0001
0000
1000
,  // measure 101
0000
0100
0000
0000
0100
0010
0000
1000
,  // measure 102
0001
0000
0010
0100
0000
0100
0000
0100
,  // measure 103
0010
0000
1000
0000
1000
0001
0010
0000
,  // measure 104
0000
0100
0010
0100
0000
1000
0001
0000
,  // measure 105
0001
1000
0001
0000
0000
0010
0100
0000
,  // measure 106
0010
1000
0000
1000
0001
0000
0010
0010
,  // measure 107
0000
0100
0000
0100
0001
0000
1000
0000
,  // measure 108
0100
0010
0010
0100
,  // measure 109
0000
0010
0001
0000
0000
0001
1000
0000
,  // measure 110
0000
1000
0000
0000
0010
0000
0100
0000
,  // measure 111
0000
0100
0010
0000
0001
0001
1000
0000
,  // measure 112
1000
0010
0000
0001
0100
0000
0100
0000
,  // measure 113
0010
1000
0000
0100
0000
1000
0001
0000
,  // measure 114
0001
0000
0100
0010
0000
0000
1000
1000
,  // measure 115
0000
0010
0000
0001
0000
0100
0000
0100
,  // measure 116
0000
0010
1000
0000
0000
1000
0001
0000
,  // measure 117
0000
0001
0000
0000
0010
0100
0000
0000
,  // measure 118
0010
0001
1000
0000
0000
1000
0000
0010
,  // measure 119
0100
0000
0010
0001
,  // measure 120
1000
0000
1000
0000
,  // measure 121
0010
0000
0110
0000
,  // measure 122
0110
0000
0110
0000
,  // measure 123
1000
0000
1001
0000
,  // measure 124
0011
0000
0101
0000
,  // measure 125
0110
0000
1010
0000
,  // measure 126
0010
0100
0000
0001
0000
0001
1000
0100
,  // measure 127
0000
1000
0010
0000
0100
0000
0000
0000
,  // measure 128
0000
0000
0000
0000
0000
0010
0100
0001
,  // measure 129
1000
0000
1000
0010
0000
0100
0001
0000
,  // measure 130
2000
0000
0001
3000
0001
0000
1001
0000
,  // measure 131
0000
1001
0000
0000
0010
0100
0000
0010
,  // measure 132
0000
1000
0001
0000
0000
0001
0100
0000
,  // measure 133
0010
1000
0010
0100
,  // measure 134
0000
0000
0000
0000
0000
0010
0001
0000
,  // measure 135
1000
0010
0100
0000
,  // measure 136
0000
0020
0000
0030
,  // measure 137
0010
0000
1000
0100
0001
0000
0010
0000
,  // measure 138
0100
0010
0000
1000
0000
1000
0001
0010
,  // measure 139
0000
0100
0010
0000
2000
0000
3001
0010
,  // measure 140
0100
0100
0100
0010
,  // measure 141
0100
0000
0000
2002
0000
0000
3003
0000
,  // measure 142
1100
0000
0110
0000
,  // measure 143
0011
0010
1001
0001
,  // measure 144
1001
0100
0110
0000
;
