#VERSION:0.83;
#TITLE:Y.M.C.A (20th Anniversary Mix);
#SUBTITLE:;
#ARTIST:BEMANI Sound Team "Spics";
#TITLETRANSLIT:;
#SUBTITLETRANSLIT:;
#ARTISTTRANSLIT:;
#GENRE:;
#ORIGIN:;
#CREDIT:;
#BANNER:Y.M.C.A (20th anniversary).png;
#BACKGROUND:Y.M.C.A (20th anniversary)-bg.png;
#PREVIEWVID:;
#JACKET:Y.M.C.A (20th anniversary)-jacket.png;
#CDIMAGE:;
#DISCIMAGE:;
#LYRICSPATH:;
#CDTITLE:cdtitle.png;
#MUSIC:Y.M.C.A (20th anniversary).mp3;
#OFFSET:0.000000;
#SAMPLESTART:0.300000;
#SAMPLELENGTH:12.200000;
#SELECTABLE:YES;
#BPMS:0.000=300.000;
#STOPS:;
#DELAYS:;
#WARPS:;
#TIMESIGNATURES:0.000=4=4;
#TICKCOUNTS:0.000=4;
#COMBOS:0.000=1;
#SPEEDS:0.000=1.000=0.000=0;
#SCROLLS:0.000=1.000;
#FAKES:;
#LABELS:0.000=Song Start;
#BGCHANGES:0.000=Y.M.C.A (20th anniversary).avi=1.000=0=0=0=StretchNoLoop====,
99999=-nosongbg-=1.000=0=0=0 // don't automatically add -songbackground-
;
#KEYSOUNDS:;
#ATTACKS:
;

//---------------dance-single - ----------------
#NOTEDATA:;
#CHARTNAME:;
#STEPSTYPE:dance-single;
#DESCRIPTION:;
#CHARTSTYLE:;
#DIFFICULTY:Hard;
#METER:12;
#RADARVALUES:0.752067,0.935080,0.792501,0.826465,0.000000,465.000000,395.000000,70.000000,73.000000,0.000000,0.000000,0.000000,0.000000,0.000000,0.752067,0.935080,0.792501,0.826465,0.000000,465.000000,395.000000,70.000000,73.000000,0.000000,0.000000,0.000000,0.000000,0.000000;
#CREDIT:;
#NOTES:
// measure 0
0000
0000
0000
0020
0000
0000
0000
0000
,  // measure 1
0130
0000
0220
0000
,  // measure 2
0000
0330
1100
0220
,  // measure 3
0000
0000
0330
0000
,  // measure 4
0001
0010
0100
0000
1000
0000
1000
0010
,  // measure 5
0100
0000
0100
0001
0000
2002
0000
0000
,  // measure 6
3003
2002
0000
3003
,  // measure 7
0000
0000
0010
0200
0000
0000
0000
0000
,  // measure 8
0000
0300
0000
0000
,  // measure 9
1000
0000
1000
0100
0000
0100
0010
0000
,  // measure 10
0001
0010
0020
0030
,  // measure 11
0000
0000
0220
0000
0000
0330
0000
0000
,  // measure 12
1000
0020
0000
0000
0030
0000
0000
0000
,  // measure 13
0001
2000
0000
0000
3000
0000
0000
0000
,  // measure 14
0110
0000
1001
0000
,  // measure 15
0110
0000
0000
0000
1000
0010
0000
0000
,  // measure 16
0100
0010
0010
0000
0001
0000
0011
0000
,  // measure 17
0010
0000
0101
0000
0100
0000
1100
0010
,  // measure 18
0010
0100
0000
0010
0001
1000
0000
1000
,  // measure 19
0010
0010
0010
0000
0100
0001
0010
1000
,  // measure 20
0100
1000
0000
0000
1100
0000
0011
0000
,  // measure 21
0000
0000
0100
0000
0110
0001
0001
0100
,  // measure 22
0100
1000
1001
1100
,  // measure 23
0010
0100
0010
1000
0000
1000
0100
0001
,  // measure 24
0000
0001
0010
0000
1000
0100
1000
0000
,  // measure 25
0110
1001
0100
1000
,  // measure 26
0010
0100
0000
0010
0001
0000
0001
0000
,  // measure 27
0100
1000
0000
0000
1000
0010
0000
0100
,  // measure 28
0010
0000
0010
0001
0000
0001
1000
0100
,  // measure 29
0000
0100
1000
1000
0000
0000
2002
3003
,  // measure 30
0000
0000
0000
0000
0000
0000
0220
0330
,  // measure 31
0000
0000
0000
0000
0000
0000
2020
3030
,  // measure 32
0000
0000
0000
0000
0220
0330
0000
0000
,  // measure 33
0000
0000
2002
3003
0000
0000
0000
0000
,  // measure 34
2020
3030
0000
0000
0010
0100
0000
0000
,  // measure 35
0000
0001
0100
1000
0000
1000
0010
0000
,  // measure 36
0100
0001
0010
0001
0100
0100
1000
0000
,  // measure 37
1100
0010
0000
0011
0000
0100
0000
1000
,  // measure 38
0000
0100
0010
0000
0010
0000
0010
0100
,  // measure 39
0000
1010
0101
0010
,  // measure 40
0100
0010
0001
0000
0001
1000
0001
1000
,  // measure 41
0100
1000
0000
0000
0001
0010
0000
0010
,  // measure 42
0100
0010
1000
0000
1000
0100
0000
0100
,  // measure 43
0000
0100
0010
0000
1000
0000
0100
0000
,  // measure 44
0002
0003
0020
0030
1000
1000
0010
0000
,  // measure 45
0100
0000
0100
0010
0001
0000
0001
0000
,  // measure 46
1000
0000
0010
0100
0000
0010
0001
0100
,  // measure 47
0000
1000
0100
0010
0000
0001
0100
0000
,  // measure 48
0100
1000
0100
1000
0000
1000
0000
0000
,  // measure 49
2002
3003
0000
0000
0000
0000
0220
0330
,  // measure 50
0000
0000
0000
0000
2020
3030
0000
0000
,  // measure 51
0000
0000
0000
0000
0202
0303
0000
0000
,  // measure 52
0000
0000
0000
0000
2002
3003
0000
0000
,  // measure 53
0000
0000
1000
1010
,  // measure 54
0000
1001
0000
0011
,  // measure 55
0000
0101
0000
0011
,  // measure 56
0000
0000
1000
0100
0000
0000
0001
0010
,  // measure 57
0000
0000
0000
0000
0100
0010
0000
0000
,  // measure 58
0000
2000
0000
0000
,  // measure 59
3000
0000
0001
0011
,  // measure 60
0100
0000
0110
0000
0000
0010
0100
0010
,  // measure 61
1000
0000
1000
0100
0001
0010
0000
0010
,  // measure 62
0100
0010
1000
0000
1000
0100
0002
0000
,  // measure 63
0000
0000
0000
0003
,  // measure 64
1000
0000
0100
0010
0100
0000
0010
0000
,  // measure 65
0110
0000
0100
0000
0010
0100
0001
0000
,  // measure 66
1000
0001
0100
0000
0010
1000
0001
0000
,  // measure 67
0100
0000
1000
0001
0010
0010
2000
0000
,  // measure 68
0000
0000
0000
0000
,  // measure 69
0200
0000
0000
0000
0000
0000
0000
0300
,  // measure 70
0020
0000
0000
0000
0000
0030
0002
0003
,  // measure 71
0002
3003
0000
0000
1010
0000
0000
0000
,  // measure 72
0110
0000
0022
0033
,  // measure 73
0202
0303
2200
3300
,  // measure 74
0202
0303
2002
3003
,  // measure 75
0202
0303
2020
3030
,  // measure 76
2002
3003
2002
3003
,  // measure 77
2000
0000
0000
0000
,  // measure 78
0000
0000
3010
0000
0000
0000
0100
0010
,  // measure 79
0000
0000
0000
0000
0000
0000
0001
0010
,  // measure 80
0100
0010
1000
0000
1000
0100
0001
0010
,  // measure 81
0100
0000
0010
1000
0100
0000
0100
0010
,  // measure 82
0200
0000
0000
0300
,  // measure 83
0010
0000
0000
0000
1000
0001
0000
1000
,  // measure 84
0000
1000
0010
0000
0100
0010
0000
0001
,  // measure 85
0010
0000
0110
1000
0000
1000
0001
0000
,  // measure 86
1001
0100
0000
0010
1000
0000
1001
1000
,  // measure 87
0000
2000
0000
0200
,  // measure 88
0000
0300
0020
0000
0000
0000
0000
0030
,  // measure 89
0002
0003
0002
0000
3003
0000
0000
0000
,  // measure 90
0011
0000
1100
0000
,  // measure 91
0110
0000
1001
0000
,  // measure 92
0011
0000
0101
0000
,  // measure 93
1100
0001
0011
0000
,  // measure 94
1000
0100
1000
0000
0010
0010
0100
0000
,  // measure 95
1001
0000
0010
0100
0010
0000
0100
0100
,  // measure 96
1000
0001
0000
0000
1000
0000
0000
0000
,  // measure 97
1100
0000
0010
0000
,  // measure 98
0110
0000
0001
0010
0100
0000
1000
0000
,  // measure 99
0010
0100
0001
0000
0001
0100
0000
0100
,  // measure 100
1000
0100
1000
0000
0000
0000
1000
0001
,  // measure 101
0000
0000
0100
0010
0001
0000
1000
0010
,  // measure 102
0100
0000
0010
0001
0000
0100
1000
0000
,  // measure 103
1000
0001
0000
0000
0100
0010
0001
1000
,  // measure 104
0000
1000
0010
0100
0000
0010
0001
1000
,  // measure 105
0000
1000
0000
0000
0100
0010
0000
0000
,  // measure 106
0000
0110
0000
1100
,  // measure 107
0000
0000
0001
0010
0100
0000
1000
0010
,  // measure 108
0100
0001
0000
0001
0010
1000
0100
0010
,  // measure 109
0100
0001
1000
0000
0010
0000
0001
0001
,  // measure 110
2200
3300
0000
0000
0000
0000
0000
0000
;

//---------------dance-single - ----------------
#NOTEDATA:;
#CHARTNAME:;
#STEPSTYPE:dance-single;
#DESCRIPTION:;
#CHARTSTYLE:;
#DIFFICULTY:Medium;
#METER:9;
#RADARVALUES:0.682521,1.059757,1.041572,0.849108,0.000000,422.000000,330.000000,92.000000,75.000000,0.000000,0.000000,0.000000,0.000000,0.000000,0.682521,1.059757,1.041572,0.849108,0.000000,422.000000,330.000000,92.000000,75.000000,0.000000,0.000000,0.000000,0.000000,0.000000;
#CREDIT:;
#NOTES:
0000
0000
0000
0020
0000
0000
0000
0000
,
0130
0000
0020
0000
,
0000
0030
0100
0220
,
0000
0000
0330
0000
,
0000
0000
1000
0000
1000
0000
1000
0001
,
0000
0001
0000
0001
0000
2000
0000
0000
,
3000
2002
0000
3003
,
0000
0000
0010
0200
0000
0000
0000
0000
,
0000
0300
0000
0000
,
1000
0000
1000
0100
0000
0100
0001
0000
,
0001
0010
0020
0030
,
0000
0000
0220
0000
0000
0330
0000
0000
,
1000
0020
0000
0000
0030
0000
0000
0000
,
0001
2000
0000
0000
3000
0000
0000
0000
,
0110
0000
1001
0000
,
0110
0000
0000
0000
,
0100
0100
0001
1001
,
1100
0110
0101
1000
,
1100
0001
1010
1000
,
0011
1010
0100
0010
,
0110
0011
1100
0011
,
1100
0100
0110
0101
,
0100
1010
1001
0000
,
0010
0100
0010
1000
0001
1000
0000
0001
,
0000
0001
0010
0100
0010
0100
0010
0000
,
1000
0000
1001
0000
0000
0100
0010
0100
,
0000
1000
1000
0000
0001
0010
0001
1000
,
0000
1000
0000
0001
1000
0000
0000
0100
,
0010
0100
0010
0001
1000
0001
0000
0100
,
0000
0200
0300
0000
0000
0000
2002
3003
,
0000
0000
0000
0000
0000
0000
0220
0330
,
0000
0000
0000
0000
0000
0000
2020
3030
,
0000
0000
0000
0000
0220
0330
0000
0000
,
0000
0000
2002
3003
0000
0000
0000
0000
,
2020
3030
0000
0000
0010
0100
0000
0000
,
0000
1000
0001
1000
0000
0000
0100
0001
,
0100
0000
0010
0100
0010
0000
1010
0000
,
1100
0000
0000
0011
0000
0100
0000
1000
,
0000
0100
0010
0000
0010
0000
0010
0100
,
0000
1010
0101
0000
,
0100
0010
0000
0000
0001
0000
0001
1000
,
0100
1000
0011
0000
1001
0000
0000
0010
,
0100
0010
1100
0000
1001
0010
0000
0101
,
0000
0100
0010
0000
1000
0000
0100
0000
,
0002
0003
0020
0030
0000
0000
0000
0000
,
0100
0100
0001
0001
,
1000
0000
0000
0100
0000
0010
0001
0100
,
0000
1000
0000
0000
0110
0000
1010
0000
,
0000
1000
0000
1000
0000
1000
0001
0000
,
2002
3003
0000
0000
0000
0000
0220
0330
,
0000
0000
0000
0000
2020
3030
0000
0000
,
0000
0000
0000
0000
0202
0303
0000
0000
,
0000
0000
0000
0000
2002
3003
0000
0000
,
0110
0000
1000
1100
,
0000
0110
0000
0011
,
0000
1001
0000
0101
,
0000
0000
1000
0100
0000
0000
0001
0010
,
0000
0000
0000
0000
0100
0010
0000
0000
,
0000
2000
0000
0000
,
3000
0000
0000
0000
0002
0000
0000
0003
,
0100
0110
0000
1000
,
1000
0000
1000
0000
0000
0010
0000
0010
,
0000
0010
0000
0000
0000
0100
0002
0000
,
0000
0000
0000
0003
,
1000
0100
0100
0010
,
0110
0000
0000
0100
0100
0000
0001
0001
,
1000
0000
0010
1000
0010
0000
0001
0000
,
0100
0000
1000
0000
0010
0010
2000
0000
,
0000
0000
0000
0000
,
0200
0000
0000
0000
0000
0000
0000
0300
,
0020
0000
0000
0000
0000
0030
0002
0003
,
0002
3003
0000
0000
1100
0000
0000
0000
,
0110
0000
2002
3003
,
2020
3030
2002
3003
,
2200
3300
0202
0303
,
0022
0033
2002
3003
,
2200
3300
2020
3030
,
2000
0000
0000
0000
,
0000
0000
3010
0000
0000
0000
0100
0010
,
0000
0000
0000
0001
,
0101
1100
1001
0011
,
0110
1010
1100
0110
,
0200
0000
0000
0300
,
0010
0000
0000
0000
1000
0001
0000
0000
,
0000
0010
0100
0001
,
0010
0110
0000
0001
,
1001
0000
0000
0010
1000
0000
1001
0000
,
0000
2000
0000
0200
,
0000
0300
0020
0000
0000
0000
0000
0030
,
0002
0003
0002
0000
3003
0000
0000
0000
,
1010
0000
1001
0000
,
0110
0000
0101
0000
,
1001
0000
1010
0000
,
0011
0000
0110
0000
,
1000
0001
1000
0000
0010
0010
0100
0000
,
1001
0000
0010
0100
0010
0000
0100
0000
,
1000
0002
0003
0000
1001
0000
0000
0000
,
1100
0000
0010
0000
,
0110
0001
0100
1000
,
0000
0000
0001
0000
0001
0100
0000
0100
,
0000
0100
0000
0000
0000
0000
1000
0002
,
0003
0000
0100
0010
0100
0000
1000
0001
,
0001
1000
1000
0001
0001
0000
1000
0000
,
1000
0000
0010
0000
0010
0000
0000
1000
,
0000
1000
0000
0100
0000
0100
0001
0000
,
0001
0000
0000
0000
0100
0010
0000
0000
,
0000
0110
0000
1100
,
0000
0000
0001
0010
0100
0000
1000
0010
,
0000
0001
0000
0001
0010
0000
0100
0000
,
0100
1000
0001
0001
,
2200
3300
0000
0000
0000
0000
0000
0000
;

//---------------dance-single - ----------------
#NOTEDATA:;
#CHARTNAME:;
#STEPSTYPE:dance-single;
#DESCRIPTION:;
#CHARTSTYLE:;
#DIFFICULTY:Challenge;
#METER:12;
#RADARVALUES:0.541812,0.871751,0.747215,0.532108,0.028304,335.000000,269.000000,66.000000,47.000000,296.000000,4.000000,0.000000,0.000000,0.000000,0.541812,0.871751,0.747215,0.532108,0.028304,335.000000,269.000000,66.000000,47.000000,296.000000,4.000000,0.000000,0.000000,0.000000;
#CREDIT:;
#NOTES:
0000
0000
0000
0000
,
0000
0000
0000
0000
0110
0000
0000
MMMM
,
0000
0000
1000
0002
0000
0000
0000
0000
,
0003
MMMM
0000
0000
,
0000
0000
0010
0000
0010
0100
0010
0100
,
1000
0010
0100
0001
0000
0001
0000
2002
,
0000
3003
MMMM
0000
0020
0000
0030
0000
,
0100
0010
0220
0000
,
0000
0330
MMMM
0000
,
1000
0000
1000
0010
0100
0010
0000
0001
,
0010
0000
0000
0000
0200
0000
0000
0300
,
0000
0000
0110
0000
0000
0000
0000
1000
,
0010
0000
0000
MMMM
0000
0000
0000
0000
,
0010
0100
0001
0000
0000
0000
0011
0000
,
MMMM
0110
MMMM
1100
,
0000
0000
0010
0100
0010
0100
0000
0000
,
1000
0001
0000
MMMM
0000
0000
0000
0000
,
1100
MMMM
0110
MMMM
,
0011
MMMM
0110
MMMM
,
1010
0001
0000
0000
0001
0000
1000
0000
,
0000
1000
0000
0000
0010
0100
0000
0000
,
0000
0110
MMMM
1010
,
MMMM
1100
MMMM
0110
,
MMMM
0000
0101
0000
0010
0000
0000
0010
,
0000
0001
0000
0000
0001
1000
0000
0001
,
1000
0000
0000
0000
1000
0001
0000
0000
,
MMMM
MMMM
MMMM
MMMM
,
0000
0000
0010
0100
0010
0100
0001
1000
,
0000
0100
0010
0100
0001
0000
1000
0000
,
1000
0010
0000
0110
0000
0000
0000
0000
,
2020
3030
0000
0000
MMMM
0000
0220
0330
,
0000
0000
MMMM
0000
0202
0303
0000
0000
,
MMMM
0000
0000
0000
2002
3003
0000
0000
,
MMMM
0000
0000
0000
2002
3003
0000
0000
,
0110
0000
0000
0000
0000
1000
0010
0000
,
0000
MMMM
0000
0000
0100
0000
0000
0000
,
0110
0000
0000
1000
0000
0000
1000
0001
,
0000
0000
0001
0000
0010
0100
0010
0100
,
0010
0000
0000
0000
1000
0000
0000
0000
0000
0000
1100
0000
0000
0000
0000
MMMM
,
0000
0000
0010
0000
0000
0110
0000
0000
,
MMMM
MMMM
MMMM
MMMM
,
MMMM
0000
0000
0000
1000
0000
1000
0001
,
0010
0001
0100
0000
0100
0010
1000
0000
,
1000
0000
0010
0100
0010
0000
0000
0000
,
1000
0001
0000
1001
0000
0000
MMMM
0000
,
MMMM
MMMM
MMMM
MMMM
,
0000
0000
0100
0000
0100
0010
0001
1000
,
0001
1000
0000
0100
0010
0100
0010
0000
,
1000
0000
0000
0000
1000
0000
0010
0000
0000
0000
0000
MMMM
0000
0000
0000
0000
,
2020
0000
3030
0000
0000
0000
0000
MMMM
0000
0000
0000
0000
0220
0000
0330
0000
,
0000
0000
0000
MMMM
0000
0000
0000
0000
0202
0000
0303
0000
0000
0000
0000
MMMM
,
0000
0000
2002
3003
0000
0000
MMMM
0000
,
0000
0000
2020
3030
0000
0000
0000
0000
,
0110
MMMM
1001
MMMM
,
1100
MMMM
0110
MMMM
,
0011
MMMM
1001
MMMM
,
0110
0000
0000
1000
0000
0000
1000
0100
,
0000
0000
0100
0010
0000
0000
0010
0000
,
0002
0000
0000
0000
,
0003
0000
1000
0100
0000
MMMM
0000
0000
,
0010
0100
0000
MMMM
0000
0000
MMMM
0000
,
0010
0000
0010
0100
0010
1000
0000
1000
,
0001
0010
0000
0100
0010
0100
0000
0000
,
2000
0000
3000
0000
,
0020
0000
0000
0030
0000
0000
0100
0010
,
0100
0000
0000
0000
1000
0000
0000
1100
,
0000
0000
0100
0000
0000
0110
0000
0000
,
MMMM
MMMM
MMMM
0002
,
0000
0000
0000
0000
,
0000
0020
0000
0000
,
0200
0000
0000
2000
,
0000
3333
2000
0000
,
0200
0020
0002
3333
,
0011
0000
1100
0000
,
0110
0000
1010
0000
,
0101
0000
1001
MMMM
,
1001
MMMM
1001
0000
,
2020
0000
0000
3030
,
0020
0000
0030
0100
,
0110
0000
0000
MMMM
0000
0000
1000
0000
,
0000
1000
0000
0010
0000
0000
0010
0000
,
0000
0100
0010
0100
0000
0000
0002
0000
,
0000
0000
0000
0003
0000
0000
1000
0000
,
MMMM
0000
0000
0000
0010
0100
0010
0000
,
MMMM
0000
1000
MMMM
,
1100
MMMM
0110
MMMM
,
0011
0000
0002
0000
,
0000
0000
0020
0000
,
0030
0200
0000
0300
,
2000
0000
3003
0000
,
0001
0000
0000
0001
0010
0000
0000
0010
,
0100
0000
0000
0100
0000
1000
0000
0000
,
1000
0000
0000
0010
0100
0000
0010
0100
,
0000
2000
0000
3000
,
MMMM
0000
1100
0000
,
0110
0000
0011
0000
,
0100
0010
0000
0000
0000
0000
1100
0000
,
MMMM
0110
MMMM
0011
,
MMMM
1001
MMMM
0110
,
MMMM
0000
1010
0000
0000
0000
0010
0100
,
0010
0000
0100
0010
0000
0000
1001
0000
,
0000
MMMM
0000
0000
MMMM
0000
0000
MMMM
,
0000
0000
MMMM
0000
0000
0000
0010
0100
,
0010
1000
0000
0000
1000
0001
0000
0000
,
0001
0010
0100
0010
,
0000
1000
0010
0000
0000
0000
MMMM
0000
,
0000
MMMM
0000
MMMM
,
0000
0000
0100
0000
0000
0100
0000
0001
,
0000
0000
0001
0000
0010
0000
0000
0010
,
0000
0100
0010
0000
1000
0000
1000
0000
,
1001
0000
0000
0000
;

//---------------dance-single - ----------------
#NOTEDATA:;
#CHARTNAME:;
#STEPSTYPE:dance-single;
#DESCRIPTION:;
#CHARTSTYLE:;
#DIFFICULTY:Easy;
#METER:8;
#RADARVALUES:0.502995,0.871751,0.962322,0.498143,0.000000,311.000000,226.000000,85.000000,44.000000,0.000000,0.000000,0.000000,0.000000,0.000000,0.502995,0.871751,0.962322,0.498143,0.000000,311.000000,226.000000,85.000000,44.000000,0.000000,0.000000,0.000000,0.000000,0.000000;
#CREDIT:;
#NOTES:
0000
0000
0000
0000
,
0000
0000
0010
0000
,
0000
0000
0100
0010
,
0100
0000
0000
0000
,
0000
0000
0001
1000
,
0001
0010
0220
0000
,
0330
2000
0000
3000
,
0011
0020
0000
0000
,
0030
0000
0000
0000
,
1000
1000
0100
0010
,
0100
0002
0000
0003
,
0000
2000
0000
3000
,
0010
0002
0000
0003
,
0000
0100
0020
0000
,
0030
2000
0000
3200
,
0000
0320
0030
0001
,
1001
0000
0000
0000
,
0000
0000
0000
0001
,
0011
1001
1100
0100
,
0110
0000
1000
1001
,
0000
1100
0011
0000
,
0000
0000
0000
0000
,
0000
0000
0100
0110
,
0010
1000
1100
0001
,
0011
0100
1100
0000
,
0010
1010
0000
0000
,
0000
0000
0000
0000
,
0100
0110
1000
1100
,
0011
1000
1100
0010
,
1010
0000
0000
0000
,
0011
0000
0000
1001
,
0000
0000
0110
0000
,
0000
1010
0000
0000
,
0000
1001
0000
1000
,
0000
0000
0010
1010
,
0000
0000
0000
0000
,
0000
0000
0010
0110
,
0100
1100
1000
1001
,
0001
1001
1100
0000
,
0000
0010
1010
0000
,
0000
0000
0000
0000
,
0000
0100
0100
0010
,
0010
1000
0001
1000
,
1100
0010
0002
0003
,
0000
1000
0001
0000
,
0000
0000
0000
0000
,
0010
1010
1000
1100
,
0100
0110
0001
0001
,
1001
0000
0000
2200
,
0000
3300
0220
0000
,
0330
0022
0000
0000
,
0033
2020
0000
0000
,
3030
2002
0000
3003
,
1001
0000
1100
0000
,
1010
0000
0110
0000
,
0101
0000
0000
0011
,
0000
1000
1000
0010
,
0100
0100
0010
1001
,
0000
0020
0000
0000
,
0030
0100
0000
0110
,
0000
0110
0000
0000
,
1000
1100
0100
0110
,
0010
0011
0001
2002
,
0000
0000
3003
0000
,
0020
0000
0030
0100
,
0000
0110
0000
1100
,
0000
1010
0000
0110
,
0001
0001
1000
1000
,
0002
0000
0000
0023
,
0000
0000
0030
0200
,
0000
0000
1300
2000
,
0000
0000
3002
0023
,
0030
0020
0030
0100
,
0000
1100
0000
1010
,
0000
0110
0000
0101
,
0000
1001
0000
1100
,
0000
0110
0000
0001
,
0020
0000
0000
0030
,
0200
0300
0000
1000
,
1001
0000
0010
0110
,
0100
1100
1000
1001
,
0001
0011
0000
2000
,
0000
0000
3000
0020
,
0000
0030
0100
0010
,
0000
0000
1001
0000
,
1100
0000
1010
0000
,
0100
0000
0002
0000
,
0000
0000
0020
0000
,
0003
2030
0000
0020
,
3000
0000
0030
0200
,
0000
0300
0001
0000
,
1001
0000
1000
0000
,
1001
0000
0010
0000
,
0220
0000
0000
0000
,
0000
0000
0330
0000
,
0000
0000
0000
1000
,
1001
0000
0000
0000
,
0000
0000
0000
0010
,
0100
0010
1000
1000
,
0001
0010
0100
0010
,
0001
1000
1000
1001
,
0000
0000
0000
0000
,
0000
1000
1000
0010
,
0100
0010
0001
0001
,
1000
0001
0001
1000
,
1000
0000
0010
0110
,
0000
0000
0000
0000
,
1000
0010
1000
1100
,
0100
0110
0010
0011
,
0001
1001
0000
0000
,
1001
0000
0000
0000
;

//---------------dance-single - ----------------
#NOTEDATA:;
#CHARTNAME:;
#STEPSTYPE:dance-single;
#DESCRIPTION:;
#CHARTSTYLE:;
#DIFFICULTY:Beginner;
#METER:5;
#RADARVALUES:0.367138,0.622679,0.475500,0.124536,0.000000,227.000000,185.000000,42.000000,11.000000,0.000000,0.000000,0.000000,0.000000,0.000000,0.367138,0.622679,0.475500,0.124536,0.000000,227.000000,185.000000,42.000000,11.000000,0.000000,0.000000,0.000000,0.000000,0.000000;
#CREDIT:;
#NOTES:
0000
0000
0000
0000
,
0000
0000
0010
0000
,
0000
0000
1000
1000
,
0000
0000
0000
0000
,
0000
0100
0010
0100
,
0100
0000
0001
1001
,
0000
0000
0010
0000
,
0000
0100
0020
0000
,
0030
0000
0000
1000
,
0000
1000
0000
1000
,
0001
0000
1001
0000
,
0000
0110
0000
0000
,
1000
0001
0000
0000
,
0010
0100
0000
0000
,
0000
1001
0000
1001
,
0000
1001
0000
0000
,
0000
0000
0010
0000
,
1000
0000
0100
0000
,
0010
0000
0001
0000
,
0010
0000
0100
0000
,
1000
0000
0010
0000
,
0010
0000
0100
0000
,
0100
0000
0001
0000
,
0001
0000
0010
0000
,
0010
0000
1000
0000
,
1000
0010
0000
0100
,
0000
0100
0000
0001
,
0000
0001
0000
1000
,
0000
1000
0000
0010
,
0000
0010
0000
0001
,
0100
0000
0000
1001
,
0000
0000
1001
0000
,
0000
0000
0110
0000
,
0000
0110
0000
0000
,
1001
0000
0001
1001
,
0000
0010
0000
0010
,
0000
0100
0000
0100
,
0000
0001
0000
0001
,
0000
1000
0000
0001
,
0000
1000
0010
0000
,
0100
0000
0100
0000
,
0010
0000
0010
0000
,
0001
0000
0001
0000
,
1000
0000
0010
0000
,
0100
0110
0000
0001
,
0000
0001
1000
0000
,
0010
0000
0100
0000
,
0100
0001
0000
0001
,
1000
0000
1000
0000
,
1001
0000
0000
0110
,
0000
0000
1000
0000
,
0000
0001
0000
0000
,
0001
0000
0000
0020
,
0030
0000
0100
0000
,
0100
0000
0100
0000
,
0110
0000
0110
0000
,
0110
0000
0000
0000
,
0000
0000
0000
0000
,
0000
0002
0000
0000
,
0000
0003
0020
0000
,
0030
0100
0010
0000
,
1000
0000
1000
0001
,
0000
0001
0010
0000
,
0020
0000
0000
0000
,
0030
0200
0000
0300
,
0010
1000
0000
0001
,
0000
0000
0001
0000
,
0010
0000
0020
0000
,
0000
0000
0000
0000
,
0000
0000
0000
0000
,
0000
0000
0000
0000
,
0030
1001
0000
1001
,
0000
0110
0000
1001
,
0000
1001
0000
0110
,
0000
1000
0000
0100
,
0000
0010
0000
0110
,
0000
0110
0000
0002
,
0000
0000
0000
0003
,
0000
0010
0000
0100
,
0010
0000
0000
0000
,
1000
0000
1000
0000
,
1000
0000
0000
0002
,
0000
0000
0003
0020
,
0000
0030
0100
0010
,
0000
1000
0000
1001
,
0000
0001
0000
0011
,
0000
0110
0000
2000
,
0000
0000
0000
0000
,
0000
0000
0000
0000
,
0000
0000
0000
0000
,
3000
0000
0000
1001
,
0000
1001
0000
1001
,
0000
1001
0000
0110
,
0000
0110
0000
0110
,
0000
1001
0000
1001
,
0000
1001
0000
1000
,
1001
0000
0000
0000
,
0010
0000
0000
0010
,
0000
0000
0010
0000
,
0000
0001
0000
0000
,
1000
1000
0000
1001
,
0000
0000
0000
0000
,
0000
0010
0100
0000
,
1000
0000
1000
0001
,
0000
0001
0010
0000
,
0100
0000
1000
0000
,
0010
0000
0010
0000
,
0100
0000
0100
0000
,
0010
0000
0001
0000
,
0001
0000
1000
0000
,
1001
0000
0000
0000
;
