#TITLE:Y&Co. is still alive;
#SUBTITLE:;
#ARTIST:Y&Co.;
#TITLETRANSLIT:;
#SUBTITLETRANSLIT:;
#ARTISTTRANSLIT:;
#GENRE:;
#CREDIT:PaperBox440;
#BANNER:Y&Co. is still alive.png;
#BACKGROUND:Y&Co. is still alive-bg.png;
#LYRICSPATH:;
#CDTITLE:;
#MUSIC:Y&Co. is still alive.mp3;
#OFFSET:0.000000;
#SAMPLESTART:26.804125;
#SAMPLELENGTH:11.958761;
#SELECTABLE:YES;
#BPMS:0.000000=145.500000
;
#STOPS:
;
#BGCHANGES:0.000=Y&Co. is still alive.avi=1.000=0=0=0=StretchNoLoop====,
99999=-nosongbg-=1.000=0=0=0 // don't automatically add -songbackground-
;
#KEYSOUNDS:;
#ATTACKS:;

//---------------dance-single - ----------------
#NOTES:
     dance-single:
     :
     Challenge:
     16:
     0.780998,0.910312,0.495872,0.055786,0.994843,882.000000,802.000000,80.000000,9.000000,0.000000,0.000000,0.780998,0.910312,0.495872,0.055786,0.994843,882.000000,802.000000,80.000000,9.000000,0.000000,0.000000:
// measure 0
0000
0000
0000
0000
,  // measure 1
0000
0000
0000
0000
,  // measure 2
0000
0000
0000
0000
,  // measure 3
0000
0010
0100
0010
,  // measure 4
0000
0110
1000
0000
1000
0100
0010
0100
,  // measure 5
0010
0001
0001
0010
0100
0010
1000
1000
,  // measure 6
1000
0010
0100
0100
0010
0001
0000
0001
,  // measure 7
0010
0000
1000
0000
0000
1000
0100
0000
0100
0010
0000
0001
,  // measure 8
0000
1000
0000
0110
0000
0001
0000
0001
0100
0010
0000
1000
,  // measure 9
0010
0100
0000
0100
0010
0001
0000
0001
0000
0010
0100
0000
,  // measure 10
1000
0000
1000
0010
0100
0000
0010
0001
0000
0001
1000
1000
,  // measure 11
0100
0000
0100
0010
0000
0010
0001
0000
0001
1000
1000
0000
,  // measure 12
0100
0000
0000
0000
0110
0000
0000
0000
0001
0000
0000
0001
0010
0000
0100
0010
,  // measure 13
1000
0000
0000
1000
0010
0000
0000
0010
0100
0000
0000
0100
0001
0000
0000
0001
,  // measure 14
1000
0000
0000
0000
0000
0000
0001
0000
0000
0000
0000
0000
0100
0000
0000
0000
0010
0000
0000
0000
0000
1000
0000
0000
0000
0000
0000
0000
0000
0000
1000
0000
0000
0000
0000
0000
0010
0000
0000
0100
0000
0000
0010
0000
0000
0000
0000
0000
,  // measure 15
0000
0000
0000
0001
0000
0000
0000
0000
0000
0100
0000
0000
1000
0000
0000
0000
0000
0000
1000
0000
0000
0010
0000
0000
0000
0000
0000
0000
0000
0000
0010
0000
0000
0000
0000
0000
0100
0000
0000
0000
0001
0000
0000
0000
0001
0000
0000
0000
,  // measure 16
1000
0000
0000
0000
1000
0000
0000
0000
0000
0000
0000
0000
1001
0000
0000
0000
0000
0000
0000
0000
0000
0000
0000
0000
0001
0000
0000
0000
0000
0000
0000
0000
0000
0001
0000
0000
0010
0000
0000
0100
0000
0000
0000
0000
0000
0010
0000
0000
,  // measure 17
1000
0000
0000
0000
1000
0100
0000
0000
0010
0000
0100
0010
0001
0001
0000
1000
,  // measure 18
0100
0000
1000
0010
0000
0010
0100
0000
0100
0000
0001
0010
0001
1000
1000
0100
,  // measure 19
0000
0000
0000
0100
0000
0000
0010
0000
0000
0000
0000
0000
0001
0000
0000
0000
0000
0000
0000
0000
0000
0000
0000
0000
0001
0000
0000
0000
0100
0000
0000
0000
0000
0000
0000
0000
0010
0000
0000
0000
0000
0000
0000
0000
1000
0000
0000
0000
,  // measure 20
0000
0000
0000
0000
0000
0000
0000
0000
1000
0000
0000
0000
0010
0000
0000
0000
0000
0000
0000
0000
0000
0000
0000
0000
1001
0000
0000
0000
0000
0000
1000
0000
0000
0000
0000
0000
1000
0000
0000
0000
0000
0000
0010
0000
0000
0100
0000
0000
,  // measure 21
0010
0000
0001
0000
0001
1000
0000
0000
1000
0010
0100
0010
0000
0100
0001
0000
,  // measure 22
0100
0000
0010
0100
1000
0000
1000
0001
0010
0001
0000
0010
0100
0100
1000
0000
,  // measure 23
1000
0100
0100
0010
0100
0001
1000
1000
,  // measure 24
0010
0000
0000
0100
0000
0000
0100
0000
0000
0010
0000
0000
1001
0000
0000
0000
0000
0000
0001
0000
0000
0000
0001
0000
,  // measure 25
0000
0001
0000
0010
0100
1000
0000
1000
0001
1000
0001
1000
,  // measure 26
0001
0000
0010
0000
0010
0000
0100
0010
0000
0100
0000
0100
,  // measure 27
1000
0000
0100
1000
0000
0001
0001
0010
0100
0100
0001
0010
,  // measure 28
0001
1000
0000
1000
0000
0100
0100
0010
0000
0001
0001
1000
,  // measure 29
0100
0000
0100
0010
0000
0001
0100
1000
1000
0100
0000
0010
,  // measure 30
0100
0100
0010
0000
0010
0001
0100
0100
1000
0010
0010
0100
,  // measure 31
0001
0001
1000
0100
0000
0100
0001
0010
0000
1000
0010
0010
,  // measure 32
0100
0000
0100
0000
1000
0000
0001
0000
0001
0000
0000
0000
0010
0000
0100
0000
0100
0000
0000
0000
0000
1000
0000
0000
,  // measure 33
1000
0010
0000
0010
0100
0000
0001
0000
1001
0000
0001
0000
0010
0000
0100
0000
,  // measure 34
0000
0100
0010
0000
0010
0100
1000
0000
0110
0000
0000
0100
0001
0000
0010
0001
,  // measure 35
0100
0000
0100
0010
0000
0010
1000
0000
1001
0000
1000
0000
1001
0000
0001
0010
,  // measure 36
0100
0000
0110
0000
1000
0000
0010
0100
0010
0000
1000
0100
1001
0000
0100
0000
,  // measure 37
0001
0000
0000
0010
0000
0000
0001
0000
0000
0000
0000
0000
1100
0000
0000
0000
0000
0000
0100
0000
0000
0000
0000
0000
1001
0000
0000
0000
0000
0000
0000
0000
0010
0001
0000
0000
0000
0000
0000
0001
0000
0000
0100
0000
0000
0010
0000
0000
,  // measure 38
0100
0000
1100
0000
1010
0000
0000
0000
0110
0000
0000
1000
0100
1000
0001
0000
,  // measure 39
0001
0000
0100
0010
0100
0000
0000
0000
1100
0000
0001
0000
1001
0000
0000
1000
,  // measure 40
0100
1000
0010
0001
0010
0000
0100
0000
0110
0000
0001
0000
0110
0000
0000
0000
,  // measure 41
1000
0000
1100
0000
0100
0000
0110
0000
0010
0000
0010
0000
1000
0100
1000
0000
,  // measure 42
1001
0000
0010
0100
0010
0000
0110
0000
1000
0000
0100
0000
0101
0000
0001
0010
,  // measure 43
1001
0100
1000
0000
1100
0000
0010
0000
0110
0000
1001
0000
0010
0000
0000
0000
,  // measure 44
0010
0100
1000
1001
,  // measure 45
1001
0000
0001
0000
0010
0000
0100
0001
1100
0000
0011
0000
0010
0000
1100
0010
,  // measure 46
0100
0000
0011
0000
0010
0100
1010
0000
0100
0000
1100
0000
0110
0000
0001
0000
,  // measure 47
0011
0000
0110
0000
1000
0000
1001
0000
0001
0010
0101
0000
0010
0100
1010
0000
,  // measure 48
1000
0100
1000
0000
0001
0000
0100
0000
0110
0000
0010
0000
1100
0000
1000
0100
,  // measure 49
1001
0000
0010
0000
0110
0000
1000
0100
1000
0000
0001
0010
0001
0010
0001
0000
,  // measure 50
0100
0000
0010
0000
1010
0000
1000
0100
1000
0000
0011
0000
0010
0100
1010
0000
,  // measure 51
0100
0000
0110
0000
0001
0000
0001
0010
1000
0100
1000
0000
0011
0100
0010
0000
,  // measure 52
0100
0000
0100
0100
0010
0000
1000
0000
,  // measure 53
1001
0000
2000
0010
0010
0100
0100
0001
,  // measure 54
0001
0010
3020
0100
0100
1000
1000
0100
,  // measure 55
0001
0001
0230
0000
0010
0010
0001
0001
,  // measure 56
1000
1000
0302
0010
0010
0100
0100
0010
,  // measure 57
1000
0000
0100
0000
2003
0000
0000
0100
0010
0000
0010
0000
0100
0010
0100
0000
,  // measure 58
0001
0010
0001
0000
3020
0000
0000
0000
0100
1000
0100
0000
1000
0000
1000
0000
,  // measure 59
0100
0000
0001
0000
0230
0000
0000
0000
0010
0000
0001
0010
0001
0000
0010
0000
,  // measure 60
1000
0000
1000
0000
0010
0000
0001
0000
0302
0000
0000
1000
0010
0000
0100
0000
,  // measure 61
0100
0000
1000
0000
1003
0000
0000
0100
0000
0100
0010
0000
0110
0000
0000
0000
,  // measure 62
1010
0000
0000
0100
0001
0000
0001
0000
0100
0010
0100
1000
0000
1000
0000
0000
,  // measure 63
1001
0000
0000
0010
0100
0000
0100
1000
0010
0001
0010
0000
0100
0000
0100
0000
,  // measure 64
1001
0000
0000
0001
0010
0100
0010
0000
1000
0100
0010
0100
0000
0000
0010
0100
,  // measure 65
1000
0001
0010
0001
0000
0001
0000
0100
0010
0100
0000
0000
1010
0000
0010
0000
,  // measure 66
1001
0000
0000
1000
0100
1000
0001
0010
0100
0000
0000
0000
1100
0000
0010
0000
,  // measure 67
1010
0000
0000
0001
0000
0001
0000
0100
0010
0100
0000
0000
1010
0000
0010
0000
,  // measure 68
1001
1000
1001
0001
0100
0110
0010
1010
,  // measure 69
1000
0000
0000
0100
0000
0000
1001
0000
0000
0000
0010
0000
1000
0000
0000
0000
1000
0000
0010
0000
0100
0000
0000
0000
,  // measure 70
0100
0000
0000
1001
0100
0000
0100
0010
1000
0000
1000
0000
,  // measure 71
0110
0000
0000
1010
0000
0000
0001
0000
0100
0000
0000
0000
0100
0000
1000
0000
0000
0000
1001
0000
0000
0000
0000
0000
,  // measure 72
0110
0000
0001
1000
1000
0000
0100
0010
0010
0001
0001
1000
,  // measure 73
1000
0100
1000
0010
0010
0100
0000
0100
0001
0000
0001
0000
,  // measure 74
1010
0010
0000
0100
0100
1000
1000
0010
0100
0010
0001
0001
,  // measure 75
1000
1000
0000
1001
0000
0100
0010
0010
0001
0100
0100
0000
,  // measure 76
1100
0010
0000
1001
0000
0010
0010
0100
0000
0100
0001
0000
,  // measure 77
0001
0010
0100
0000
0100
0000
1001
0000
0100
0000
0100
0010
,  // measure 78
1000
0000
1000
0001
0010
0001
0100
0000
0100
0010
0000
1000
,  // measure 79
0000
1000
0010
0010
0100
0000
0100
0001
0010
0001
1000
0000
,  // measure 80
0100
0000
0100
0001
0010
1000
0000
1000
0001
0010
1000
0000
,  // measure 81
1000
0010
0100
0000
0100
0100
0001
0010
1000
0000
1000
0010
,  // measure 82
0010
0100
0000
0100
1000
0100
0001
0010
0001
0001
0010
0010
,  // measure 83
0100
0100
0000
1000
0100
1000
0001
0010
0000
0010
0001
1000
,  // measure 84
0100
1000
0100
0010
0001
0000
0001
0100
0010
0100
1000
0000
,  // measure 85
1000
0000
0100
0000
0000
0000
0120
0000
1000
0000
0000
0000
0100
0000
0000
1030
0000
0000
0001
0000
0000
0000
0001
0000
,  // measure 86
0010
0100
0010
1000
0000
1000
0100
0001
0010
0001
1000
0000
,  // measure 87
1000
0010
0000
0010
0100
0000
0100
0001
0010
0001
1000
0000
,  // measure 88
0100
0000
0100
0010
0000
1000
0100
1000
0000
0001
0010
0001
,  // measure 89
0100
0000
0100
0010
0000
1000
0100
0000
1000
0001
0010
0001
,  // measure 90
0100
0000
0100
0010
1000
0100
1000
0001
0001
0010
0100
0100
,  // measure 91
0010
1000
1000
0100
0100
0010
0010
0001
1000
0100
1000
0001
,  // measure 92
0010
0001
0100
0000
0100
0010
0010
1000
0000
1000
0001
0000
,  // measure 93
0001
0010
0100
0010
0000
0010
1000
0100
0000
1000
0000
0000
,  // measure 94
0100
0010
0100
0110
;
