#VERSION:0.83;
#TITLE:Xepher;
#SUBTITLE:-Full Version-;
#ARTIST:Tatsh;
#TITLETRANSLIT:;
#SUBTITLETRANSLIT:;
#ARTISTTRANSLIT:;
#GENRE:;
#ORIGIN:;
#CREDIT:;
#BANNER:Xepher -Full Version-.png;
#BACKGROUND:Xepher -Full Version--bg.png;
#PREVIEWVID:;
#JACKET:Xepher -Full Version--jacket.png;
#CDIMAGE:;
#DISCIMAGE:;
#LYRICSPATH:;
#CDTITLE:cdtitle.png;
#MUSIC:Xepher -Full Version-.mp3;
#OFFSET:0.000000;
#SAMPLESTART:0.470588;
#SAMPLELENGTH:18.588236;
#SELECTABLE:YES;
#BPMS:0.000=85.000,
60.667=42.500,
62.750=170.000,
135.000=85.000,
173.000=65.000,
174.500=55.000,
177.000=170.000;
#STOPS:;
#DELAYS:;
#WARPS:;
#TIMESIGNATURES:0.000=4=4;
#TICKCOUNTS:0.000=4;
#COMBOS:0.000=1;
#SPEEDS:0.000=1.000=0.000=0;
#SCROLLS:0.000=1.000;
#FAKES:;
#LABELS:0.000=Song Start;
#BGCHANGES:;
#KEYSOUNDS:;
#ATTACKS:
;

//---------------dance-single - ----------------
#NOTEDATA:;
#CHARTNAME:;
#STEPSTYPE:dance-single;
#DESCRIPTION:;
#CHARTSTYLE:;
#DIFFICULTY:Hard;
#METER:14;
#RADARVALUES:0.616743,0.761533,0.568560,0.313190,0.744428,896.000000,778.000000,118.000000,65.000000,0.000000,0.000000,0.000000,0.000000,0.000000,0.616743,0.761533,0.568560,0.313190,0.744428,896.000000,778.000000,118.000000,65.000000,0.000000,0.000000,0.000000,0.000000,0.000000;
#CREDIT:;
#NOTES:
// measure 0
0000
0000
0000
0000
,  // measure 1
0000
0000
0000
0000
,  // measure 2
0000
0000
0000
0000
0000
0000
0000
0000
0000
0000
0001
0000
0002
0000
0003
0010
,  // measure 3
0000
0010
0200
0000
0000
0300
0020
0000
0030
0000
0000
1000
2000
0000
3000
0020
,  // measure 4
0000
0030
0200
0000
0000
0000
0000
0000
0000
0000
0300
0000
0000
0000
0110
0000
,  // measure 5
1010
0000
1100
0000
0110
0000
0011
0000
0001
0000
2002
0000
0000
3003
0000
0000
,  // measure 6
0000
0000
0000
0000
1001
0000
0000
2002
0000
0000
3003
0000
0020
0000
0130
0000
,  // measure 7
0010
0100
0010
0100
0010
0100
0000
1000
1000
0000
0100
0010
0000
0010
0001
1000
,  // measure 8
0001
1000
0100
0000
0100
0010
0000
0010
0001
1000
0001
1000
0000
0100
0000
0100
,  // measure 9
0010
0001
0000
0001
1000
0000
1000
0000
0000
0001
0010
0100
1000
0000
1000
0000
,  // measure 10
0100
0010
0000
0010
0002
0000
0000
0000
0000
0003
0000
0000
2000
0000
0000
0000
,  // measure 11
3000
0000
0010
0002
0000
0000
0000
0000
0003
0000
0010
0000
0200
0000
0300
0000
,  // measure 12
2020
0000
0000
3030
0220
0000
0000
0330
0022
0000
0000
0033
2002
0000
0000
3003
,  // measure 13
2020
0000
3030
0000
0220
0000
0000
0000
0000
0000
0000
0330
2000
0000
0000
0000
,  // measure 14
0000
3000
0200
0000
0000
0000
0000
0000
,  // measure 15
0300
0000
0000
0000
0000
0000
0000
0000
0010
0000
0020
0000
0000
0000
0000
0000
0000
0000
0000
0000
0000
0000
0000
0000
0000
0000
0030
0000
0000
0000
0000
0000
0000
0001
0000
0000
0000
0000
0000
1000
0000
0000
0001
0000
0000
0000
0000
0000
,  // measure 16
1000
0100
0000
0010
0000
0100
0000
0000
1100
0000
0000
0010
0000
0100
0000
0010
,  // measure 17
0100
0000
0010
0100
0000
0000
0011
0000
0011
0000
0000
0000
0100
1000
0000
0000
,  // measure 18
1000
0001
1000
0000
0001
1000
0000
0000
1001
0010
0000
0100
0000
0010
0100
0000
,  // measure 19
0100
0010
0000
0010
0000
1000
0000
1000
0100
0010
0000
0001
0000
0000
0000
0100
,  // measure 20
0000
0010
0100
0000
0010
0100
0000
0000
1010
0000
0000
0100
0000
0001
1000
0000
,  // measure 21
0001
1000
0000
0001
1000
0000
0000
0000
0110
0000
0110
0000
0000
0001
0000
1000
,  // measure 22
0000
0000
0000
0001
0000
0000
1000
0000
0000
0000
0000
0000
0001
0000
0000
1000
0000
0000
0000
0000
0000
0000
0000
0000
1001
0000
0000
0000
0000
0000
0000
0000
0000
0000
0000
0000
1000
0000
0000
0000
0000
0000
0000
0000
1000
0000
0000
0000
,  // measure 23
0001
0000
0000
0000
0010
0100
0010
0100
0010
0100
0000
0000
1010
0000
0000
0000
,  // measure 24
0110
0000
0000
0001
0000
0001
1000
0000
0000
1000
0000
0000
0011
0000
0000
0000
,  // measure 25
0110
0000
0000
0000
1000
0100
0000
1000
0100
0000
0000
0000
0110
0000
0000
0000
,  // measure 26
0011
0000
0000
0000
1000
0000
0001
1000
0001
0000
0000
0000
1010
0000
0000
0000
,  // measure 27
0110
0000
0001
1000
1000
0100
0011
0000
,  // measure 28
1001
0000
0000
0000
0010
1000
0000
0010
1000
0000
0000
0000
0110
0000
0000
0000
,  // measure 29
1010
0000
0000
0001
0000
0010
0100
0010
0000
1000
0001
1000
0000
0000
0000
0000
,  // measure 30
1010
0000
0000
0010
0100
0000
0010
0100
0000
0000
0000
0000
0001
0000
0002
0000
,  // measure 31
0000
0000
2003
0000
0000
0000
3000
0000
0010
0000
1001
0000
1001
0000
0000
0100
,  // measure 32
0000
0010
0000
0000
0110
0000
1000
0000
1001
0000
0000
0000
0010
0100
0010
0000
,  // measure 33
0001
1000
0001
0000
0100
1000
0100
0000
0010
0000
0010
0000
0001
0000
0000
0000
,  // measure 34
0000
0000
1010
0000
0000
0000
0010
0000
0000
0110
0000
0000
,  // measure 35
0001
0000
0000
0000
0000
0000
0011
0000
0000
0000
0000
0000
0020
0000
0000
0000
0000
0000
0130
0000
0000
0000
0000
0000
0100
0000
0000
0000
1000
0000
0000
0000
0000
2000
0000
0000
0000
0000
0000
0000
0000
0000
3000
0000
0000
0000
0000
0000
,  // measure 36
0000
0000
0000
0001
0000
0000
0002
0000
0000
0000
0000
0000
0013
0000
0010
0000
0000
0000
0110
0000
0000
0000
0000
0000
,  // measure 37
1000
0000
0000
0000
0020
0000
0000
0200
0030
0000
0000
0000
0302
0000
0000
0000
,  // measure 38
0000
0000
0000
0003
0000
0000
1000
0000
1100
0000
0100
0000
0110
0000
0010
0000
,  // measure 39
0011
0000
0001
0000
1000
0001
1000
0001
1000
0001
1000
0000
0110
0000
0010
0100
,  // measure 40
0000
0100
0010
1000
0000
1000
0001
0001
0010
0100
0100
0010
0001
0001
0000
0010
,  // measure 41
1000
0010
1000
0000
1001
0000
0100
0010
0010
0000
0100
0000
0110
0000
1000
0000
,  // measure 42
2002
0000
0000
3003
0000
0020
0000
0000
0000
0030
0000
0000
0200
0000
0000
0000
,  // measure 43
0000
0000
0000
0000
0000
0320
0000
0000
,  // measure 44
0030
0000
0000
0000
1000
0001
0000
1000
0001
1000
0000
0001
1000
0001
0000
0000
,  // measure 45
0110
0000
0000
0100
0010
0000
1000
0001
1000
0000
0100
0001
1000
0001
0000
0000
,  // measure 46
1100
0000
1100
0000
0001
0000
0001
0000
0010
0100
0010
0000
1000
0001
1000
0000
,  // measure 47
0110
0000
0001
0001
1000
0100
0010
0100
,  // measure 48
0000
1000
0010
0100
0000
0100
0001
0010
0001
1000
0100
1000
0000
0000
1001
0000
,  // measure 49
0000
0010
0000
0100
0010
0000
0010
0100
1000
0100
0001
0010
0001
0000
1000
0000
,  // measure 50
1100
0000
0010
0001
0000
0001
0000
0010
0100
0010
0000
0001
1000
0001
0000
0000
,  // measure 51
0110
0000
0000
0000
1000
0000
0000
0000
1001
0000
0000
1000
0001
1000
0001
1000
,  // measure 52
0001
0000
0000
0000
1001
0000
0000
0000
1100
0000
0000
0010
0100
0000
0010
0000
,  // measure 53
0000
0000
1010
0000
0000
0000
0110
0000
0000
0000
0001
1000
0001
1000
0001
0000
,  // measure 54
0000
0000
0000
1010
0000
0000
0000
0110
0000
0000
0001
0000
0000
0001
0000
0010
,  // measure 55
0000
0100
0010
0100
0010
0000
0000
1010
0000
0000
0100
0000
0001
0010
0000
0000
,  // measure 56
0000
1100
0000
0000
0110
0000
0000
0000
0010
0000
0010
0100
0000
0001
1000
0100
,  // measure 57
0010
0000
0100
0001
0000
0001
0000
0000
1001
0000
0000
0000
0010
0100
0001
0000
,  // measure 58
1001
0000
0000
0000
1100
0000
0000
0000
0020
0030
0100
0010
0100
0000
0000
0000
,  // measure 59
0011
0100
1100
2000
,  // measure 60
3001
0000
1001
0000
1001
0000
0110
0000
0000
0110
0000
0000
1001
0000
1001
0000
,  // measure 61
1001
0000
0000
1000
0010
1000
0010
1000
0010
0000
0100
0010
0100
0002
0000
0000
,  // measure 62
0003
0100
0010
0001
1000
0100
1000
0010
0100
0010
0100
0001
1000
0010
0100
0000
,  // measure 63
0001
0000
0000
0000
1001
0000
0100
0000
0010
0001
0000
0000
0001
0100
0000
0000
,  // measure 64
0100
0000
0000
1010
0000
0100
0000
1000
0001
0000
0001
0100
,  // measure 65
0010
0000
0010
1000
0000
1000
0000
0100
0000
0011
0000
0000
,  // measure 66
0110
0000
0000
1100
0000
0100
0010
0000
0010
0100
0000
0100
,  // measure 67
0001
0000
0000
2002
0000
0000
3003
0000
0010
0000
0010
0100
,  // measure 68
0000
0100
0010
0000
0010
0001
0000
0001
1000
0100
0001
1000
,  // measure 69
0010
0100
0000
0010
0100
0001
0001
0010
0100
1000
0000
0100
,  // measure 70
1000
0010
0000
0010
0100
0000
0001
0100
0010
1000
0000
1000
,  // measure 71
0001
0100
0010
0100
0001
1000
0001
0000
0010
0100
0010
0000
,  // measure 72
0100
0001
1000
0001
0100
0000
0100
0010
0000
0010
1000
0000
,  // measure 73
1000
0000
0000
0000
1001
0000
0100
0000
0001
1000
0001
1000
0001
1000
0000
0000
,  // measure 74
0110
0000
0000
0010
0001
1000
0100
1000
0001
0100
0001
0000
0000
0000
1010
0000
,  // measure 75
0110
0000
0000
0010
0000
0001
0010
0001
0000
0100
1000
0000
0100
1000
0000
0000
,  // measure 76
0110
0000
0000
0000
0010
0001
1000
0100
1000
0000
0001
0010
0001
0000
1000
0100
,  // measure 77
1000
0001
0000
0010
0001
0000
0010
0001
0000
0100
1000
0000
0100
1000
0000
0000
,  // measure 78
0110
0000
0000
0001
1000
0100
1000
0000
0010
0001
0100
0000
0100
0000
0000
0000
,  // measure 79
1010
0000
1010
0000
0000
0100
0001
0000
0010
0001
1000
0000
0100
1000
0000
0000
,  // measure 80
0110
0000
0000
0001
0000
0001
0100
0000
0100
0000
0000
0001
1000
0001
1000
0001
,  // measure 81
1000
1001
1100
0011
,  // measure 82
0110
0000
0000
0000
1000
0010
0000
1000
0010
0000
1000
0010
0000
0100
0000
0100
,  // measure 83
0001
0010
1000
0000
0000
0000
1100
0000
0000
0000
0100
0000
0000
0000
0110
0000
,  // measure 84
0010
0000
0000
0001
0000
0001
0010
0000
0010
0100
0000
0100
,  // measure 85
0000
0000
0000
0000
0000
0000
0000
0000
1010
0000
0000
0000
0000
0000
0000
0000
0000
0000
0000
0000
0000
0001
0000
0000
1000
0000
0000
0001
0000
0000
0000
0000
0000
0000
0000
0000
0010
0000
0000
0100
0000
0000
0010
0000
0000
0000
0000
0000
,  // measure 86
0000
1000
0100
0010
0000
0000
0000
0001
0010
0100
0001
0010
0100
0000
0000
1000
,  // measure 87
0010
1000
0010
0000
0000
0000
0100
0001
0100
0001
0000
0000
0010
0000
0010
0000
,  // measure 88
0010
0000
0000
1000
0100
1000
0001
0000
0010
0001
0000
0100
0010
0100
0000
0000
,  // measure 89
0001
0000
1000
0000
0010
0100
0000
0000
0100
0000
0001
0010
0001
0000
1000
0100
,  // measure 90
1000
0000
0000
0000
1001
0000
0000
1000
0000
0010
0001
0000
0010
0100
0000
0000
,  // measure 91
0100
0000
0000
0000
1010
0000
0000
0000
0001
0000
0010
0000
0001
0100
0000
0000
,  // measure 92
0100
0000
0000
0000
0110
0000
0000
0000
1000
0100
1000
0100
0000
0001
0010
0000
,  // measure 93
0010
0000
0100
0000
0000
0010
0100
0000
0010
0000
0000
0000
1010
0000
0000
0000
,  // measure 94
1100
0000
0000
0000
1002
0000
1000
0000
1003
0000
0000
0100
0010
0100
0010
0000
,  // measure 95
0000
0000
1010
0000
0000
0001
0000
0100
0000
0010
0100
0000
0001
0010
0001
0000
,  // measure 96
1000
0100
1000
0000
0002
0000
0000
0000
0000
0000
1003
0000
0000
0000
0100
0000
,  // measure 97
0000
2020
0000
3030
0000
0220
0000
0330
,  // measure 98
0000
0000
1000
0000
0202
0000
0000
0000
0000
0000
0000
0303
0000
0000
0010
0000
,  // measure 99
0000
0010
2100
0000
0010
0001
0000
3001
,  // measure 100
0000
0000
1000
0000
0020
0000
0100
0000
0000
0000
1000
0000
0130
0000
0000
0010
,  // measure 101
0100
0000
0010
0000
2002
0000
3003
0000
0100
0000
0010
0100
0000
0100
0000
0000
,  // measure 102
0010
0001
0010
0000
0100
0000
0100
0000
0010
1000
0000
0010
1000
0000
0000
0000
,  // measure 103
0110
0002
0000
1000
0000
1000
0003
0000
,  // measure 104
1001
0000
1001
0000
0010
0000
0010
0000
0010
0000
0100
0010
0100
0010
0000
0000
,  // measure 105
1000
0000
0000
1000
0000
0000
0100
0000
0000
0000
0100
0000
0010
0000
0000
0000
0010
0000
0001
0000
0000
0000
0001
0000
,  // measure 106
1000
0000
2002
0000
0000
3003
0000
0000
0000
0000
0000
0000
,  // measure 107
0000
0000
0000
0000
1000
0010
0100
0010
0001
0010
0001
1000
0100
1000
0100
0010
,  // measure 108
0100
0001
0000
0000
2002
0000
0000
0000
0000
0000
0000
0000
0000
0000
0000
0000
,  // measure 109
3003
0000
0000
0000
;
