#VERSION:0.83;
#TITLE:Xenon;
#SUBTITLE:;
#ARTIST:Mr.T meets SilvaGunner;
#TITLETRANSLIT:;
#SUBTITLETRANSLIT:;
#ARTISTTRANSLIT:;
#GENRE:;
#ORIGIN:;
#CREDIT:PaperBox440;
#BANNER:Xenon.png;
#BACKGROUND:Xenon-bg.png;
#PREVIEWVID:;
#JACKET:Xenon-jacket.png;
#CDIMAGE:;
#DISCIMAGE:;
#LYRICSPATH:;
#CDTITLE:;
#MUSIC:Xenon.ogg;
#OFFSET:0.000000;
#SAMPLESTART:18.227848;
#SAMPLELENGTH:11.772150;
#SELECTABLE:YES;
#BPMS:0.000=158.000;
#STOPS:;
#DELAYS:;
#WARPS:;
#TIMESIGNATURES:0.000=4=4;
#TICKCOUNTS:0.000=4;
#COMBOS:0.000=1;
#SPEEDS:0.000=1.000=0.000=0;
#SCROLLS:0.000=1.000;
#FAKES:;
#LABELS:0.000=Song Start;
#BGCHANGES:0.000=Xenon.mp4=1.000=0=0=0=StretchNoLoop====,
99999=-nosongbg-=1.000=0=0=0 // don't automatically add -songbackground-
;
#KEYSOUNDS:;
#ATTACKS:
;

//---------------dance-single - ----------------
#NOTEDATA:;
#CHARTNAME:;
#STEPSTYPE:dance-single;
#DESCRIPTION:;
#CHARTSTYLE:;
#DIFFICULTY:Hard;
#METER:9;
#RADARVALUES:0.501573,0.571964,0.284985,0.193790,0.313483,308.000000,283.000000,25.000000,17.000000,0.000000,0.000000,0.000000,0.000000,0.000000,0.501573,0.571964,0.284985,0.193790,0.313483,308.000000,283.000000,25.000000,17.000000,0.000000,0.000000,0.000000,0.000000,0.000000;
#CREDIT:;
#NOTES:
// measure 0
0000
0000
0000
0000
,  // measure 1
0000
0000
0000
0000
,  // measure 2
0000
0000
0000
0000
,  // measure 3
0000
0000
0000
0000
,  // measure 4
1000
0001
1000
0000
0110
0000
1010
0000
,  // measure 5
1000
0001
1000
0000
0101
0000
0110
0000
,  // measure 6
1000
0001
1000
0000
1010
0000
0110
0000
,  // measure 7
0001
0000
1000
0001
1000
0000
1001
0000
,  // measure 8
0100
0010
0100
0000
1010
0000
0110
0000
,  // measure 9
1000
0100
1000
0000
0011
0000
1001
0000
,  // measure 10
0100
0010
0001
0000
0110
0000
1001
0000
,  // measure 11
0100
0010
0100
0000
1100
0000
1001
0000
,  // measure 12
0010
0000
0000
0010
0100
0000
0000
0100
0000
0001
0000
0000
0001
0000
1000
0100
,  // measure 13
0000
1000
0000
0010
0000
0000
0010
0100
0000
0000
0100
0000
0001
0000
0010
0000
,  // measure 14
0001
1000
0100
1000
0010
0000
1100
0000
,  // measure 15
1001
0000
0000
0000
0010
0000
0000
0010
0000
0000
0010
0000
0100
0000
0000
0000
,  // measure 16
0010
0000
0000
0010
0100
0000
0000
0100
0001
0000
0010
0000
0001
0000
1000
0000
,  // measure 17
0100
0000
1000
0000
0010
0000
0000
0010
0100
0000
0000
0100
0000
0000
1000
0000
,  // measure 18
0000
0000
1000
0000
0001
0010
0000
0000
0010
0100
0000
0000
0100
0000
0001
0000
,  // measure 19
2000
0000
3000
0001
0010
0100
0010
0001
,  // measure 20
1000
0000
0000
1000
0010
0000
0000
0010
0000
0000
0100
0010
0100
0000
0001
0000
,  // measure 21
0000
0001
0000
1000
0100
0000
1000
0000
0010
0000
0000
0010
0100
0000
0000
0100
,  // measure 22
0001
0000
0010
0000
0001
0000
1000
0000
0010
0000
0100
0000
1000
0000
0001
1000
,  // measure 23
0000
0000
1001
0000
0000
0000
0010
0000
0000
0010
0000
0000
0010
0000
0000
0000
,  // measure 24
1000
0000
0001
0000
1000
0000
0010
0000
0000
0010
0000
0000
0001
1000
0001
0000
,  // measure 25
0000
0010
0000
0000
0010
0000
0000
0100
0000
0000
0100
0000
0010
0000
0000
0010
,  // measure 26
0000
0000
1000
0000
0001
0000
1000
0000
0000
0001
0000
0000
0001
0000
0000
0000
,  // measure 27
1001
0000
0000
0000
0010
0100
0010
0000
0000
1000
0001
1000
0000
0000
0000
0000
,  // measure 28
0020
0000
2030
0000
,  // measure 29
3002
0000
0203
0000
,  // measure 30
0320
0000
0000
0000
0000
0030
2000
0000
,  // measure 31
0002
3000
2003
0000
,  // measure 32
0002
3000
0000
0000
0000
0003
0020
0000
,  // measure 33
0230
0000
0000
0000
0302
0000
0000
0003
,  // measure 34
2000
0000
0000
0000
0000
3000
0002
0000
,  // measure 35
2000
0000
0003
3000
,  // measure 36
0001
0000
0000
0001
0000
0000
1000
0001
1000
0000
0000
0000
0100
0000
0010
0000
,  // measure 37
0100
0000
0001
0000
0000
0001
0010
0000
0000
0010
1000
0000
0000
1000
0000
0000
,  // measure 38
0100
0010
0000
0000
1000
0000
0000
0000
0001
1000
0000
0000
0000
0000
0010
0000
,  // measure 39
0100
0000
0010
0000
0000
1000
0000
0000
1000
0001
0000
0000
0001
0000
0000
0000
,  // measure 40
1000
0001
0000
0100
0100
0000
0010
0010
,  // measure 41
1000
0000
0000
1000
0001
0000
0000
0001
0000
0010
0000
0000
0010
1000
0000
0000
,  // measure 42
1000
0001
0001
0000
1000
1000
0000
0100
,  // measure 43
0020
0000
0000
0030
,  // measure 44
1000
0000
0001
0000
1000
0000
0010
0000
0000
0010
0100
0000
0000
0100
0000
0000
,  // measure 45
0001
0010
0001
0000
1000
0100
1000
0000
0010
0000
0000
0010
0000
0100
0000
0000
,  // measure 46
0100
0001
0010
0010
0001
1000
0100
0000
,  // measure 47
1100
0000
0000
0000
0010
0000
0000
0010
0000
0000
0010
0000
0000
0000
0000
0000
,  // measure 48
0001
0000
0010
0000
0100
0000
0010
0000
0000
0000
1000
0001
0000
0001
1000
0000
,  // measure 49
0010
0000
0100
0000
0010
0000
0000
0000
1000
0000
1000
0000
0001
0010
0001
0000
,  // measure 50
0000
0100
0010
0100
0001
1000
0001
0000
,  // measure 51
1100
0000
0000
0000
,  // measure 52
0001
1000
0001
0000
0010
0100
0110
0000
,  // measure 53
0001
1000
0001
0010
0000
1000
1001
0000
,  // measure 54
1000
0010
1000
0000
0100
0010
1010
0000
,  // measure 55
0001
0000
1000
0001
1000
0000
1001
0000
;
