#TITLE:Wuv U(picoustic rmx);
#SUBTITLE:;
#ARTIST:kamome sano;
#TITLETRANSLIT:;
#SUBTITLETRANSLIT:;
#ARTISTTRANSLIT:;
#GENRE:;
#CREDIT:PaperBox440;
#BANNER:Wuv U(picoustic rmx).png;
#BACKGROUND:Wuv U(picoustic rmx)-bg.png;
#LYRICSPATH:;
#CDTITLE:;
#MUSIC:Wuv U(picoustic rmx).mp3;
#OFFSET:0.000000;
#SAMPLESTART:1.813187;
#SAMPLELENGTH:10.384616;
#SELECTABLE:YES;
#BPMS:0.000000=182.000000
;
#STOPS:
;
#BGCHANGES:;
#KEYSOUNDS:;
#ATTACKS:;

//---------------dance-single - ----------------
#NOTES:
     dance-single:
     :
     Hard:
     16:
     0.714821,0.795625,0.591125,0.224794,0.512031,601.000000,530.000000,71.000000,27.000000,0.000000,0.000000,0.714821,0.795625,0.591125,0.224794,0.512031,601.000000,530.000000,71.000000,27.000000,0.000000,0.000000:
// measure 0
0000
0000
0000
0000
,  // measure 1
0000
0000
0000
0001
0001
0000
1000
0000
,  // measure 2
0100
0010
0100
0000
1100
0000
1001
0000
,  // measure 3
0010
0100
0010
0000
1100
0000
0110
0000
,  // measure 4
0001
1000
0000
1000
0100
0010
0100
0001
,  // measure 5
0001
1000
1000
0000
1001
0000
0000
0001
,  // measure 6
0010
0100
0010
0010
1100
0000
1001
0000
,  // measure 7
0100
0010
0100
0001
0001
0000
0110
0000
,  // measure 8
1000
1000
0001
1100
0011
1100
0011
0000
,  // measure 9
0000
0000
0000
0000
0000
0000
0100
0000
0100
0000
0001
0000
0000
1000
0001
0000
,  // measure 10
0100
0000
0100
0010
0000
0000
0010
0000
0200
0000
0000
0000
0000
0000
0300
0000
,  // measure 11
0001
1000
0001
0000
0100
0000
0010
0000
2000
0000
0000
0000
3000
0000
0000
0000
,  // measure 12
0001
0001
1000
1000
0010
0010
0100
0100
,  // measure 13
0001
0010
0001
0000
1000
0000
1000
0000
0220
0000
0000
0000
0330
0000
0000
0000
,  // measure 14
0001
0000
0010
0100
0010
0000
1000
0000
1001
0000
0000
0000
0010
0000
0100
0000
,  // measure 15
0100
0000
0001
1000
0001
0000
0000
0000
0110
0000
0000
0000
0000
0000
0000
0000
,  // measure 16
0001
0000
0001
0000
0100
1000
0000
0000
0100
0000
0001
0000
0010
0000
0001
0000
,  // measure 17
1000
0000
0100
0000
0100
0000
0001
0010
0001
0000
1000
0000
1000
0000
0000
0000
,  // measure 18
0100
0000
0000
0100
0001
0000
0000
0001
1000
0000
0000
1000
0100
0000
0000
0100
,  // measure 19
0010
0000
0000
0110
0000
0000
0000
0000
1001
0000
0000
0000
1001
0000
0000
0000
,  // measure 20
0000
0000
0100
0000
0000
0100
0010
0000
0000
0010
0000
1000
0000
0000
1000
0000
,  // measure 21
0002
0000
0000
0000
0000
1003
0000
0000
0000
0000
0000
0100
0000
0200
0000
0000
,  // measure 22
0300
0000
0000
0000
0000
0001
0000
0000
0001
1000
0000
0000
1000
0100
0000
0000
,  // measure 23
0100
0010
0000
0000
1001
0000
0000
0000
0110
0000
0000
0000
1001
0000
0000
0000
,  // measure 24
0000
0000
0000
0000
0100
0000
0000
0100
0000
1000
0000
0010
0000
0000
0010
0000
,  // measure 25
0002
0000
0000
0003
0000
1000
0000
0000
1001
0000
0000
0000
0100
0000
0010
0000
,  // measure 26
0100
2000
0000
0000
0000
0000
0000
0000
,  // measure 27
3001
0000
0000
0000
0001
0000
0001
0000
0001
1000
0000
1000
0000
1000
0000
0000
,  // measure 28
0100
0010
0100
0000
0000
0000
1001
0000
0000
0000
0000
0000
0010
0100
0000
0000
,  // measure 29
1100
0000
0000
0000
0000
0000
0001
0000
0001
0000
0001
1000
0000
1000
0000
1000
,  // measure 30
0000
0100
0010
0200
0000
0000
0000
0000
0000
0000
0000
0000
0000
0000
0300
0000
,  // measure 31
0002
0000
0000
0000
0000
0000
0000
0000
1000
0000
1000
0000
1003
0100
0000
0100
,  // measure 32
0000
0100
0000
0000
0000
0000
2002
0000
0000
0000
0000
0000
0000
0000
3003
0000
,  // measure 33
0220
0000
0000
0000
0330
0000
0000
0000
0001
0000
0001
0000
0001
1000
0100
1000
,  // measure 34
0000
0000
1000
0000
1000
0000
0001
0000
0100
0000
1000
0000
0010
0100
0000
0000
,  // measure 35
1001
0100
0010
0000
1001
0000
0000
0001
,  // measure 36
1100
0000
0100
0010
0110
0000
0001
1000
,  // measure 37
1001
0000
1100
0000
1010
0000
0110
0001
,  // measure 38
2000
0000
3001
0000
0001
0001
0100
2000
,  // measure 39
0000
0000
3000
0001
0001
0020
0000
0030
,  // measure 40
1000
0000
0000
0000
0001
0000
0001
0000
1000
0100
1000
0000
0011
0000
0000
0000
,  // measure 41
0000
0000
0000
0000
1000
0000
1000
0000
0000
0100
0010
0100
0000
0001
0000
0000
,  // measure 42
0001
0100
0000
0000
0100
0000
0010
0000
1000
0000
1000
0000
0001
0010
0001
0000
,  // measure 43
2000
0000
0000
0000
0000
0000
0000
0000
3001
0000
0001
0000
0010
0100
0010
0000
,  // measure 44
0000
1000
0000
0010
0000
0010
0000
1000
0100
1000
0001
0000
0000
0001
0000
0000
,  // measure 45
0110
0000
1000
0000
2000
0000
0000
0000
3000
0000
0001
1000
0001
0000
0000
0000
,  // measure 46
0010
0100
0010
1000
1000
0001
0010
0001
,  // measure 47
1000
1000
0000
1010
0000
0220
0330
0000
,  // measure 48
0001
1000
0001
0100
0010
0100
0000
0000
1000
0100
1000
0001
0000
0001
0000
0001
,  // measure 49
0000
0000
0010
0100
1000
0000
0010
0000
0001
0000
0001
0000
0100
0010
0100
0001
,  // measure 50
0000
0001
0000
0001
0000
0001
0000
0001
0000
0000
1000
0000
1000
0000
1000
0000
,  // measure 51
1000
1000
0010
0100
0100
0010
0001
1000
,  // measure 52
1000
0001
0010
0001
0100
0010
0010
1000
,  // measure 53
0100
1000
0001
0010
0100
0100
1001
0000
,  // measure 54
0100
0010
0100
0010
0001
0001
1100
0000
,  // measure 55
0010
0100
0001
0001
0000
1100
1001
0000
,  // measure 56
0010
0100
0010
0100
0001
0000
0001
0000
,  // measure 57
0100
0000
0010
0000
0100
0000
0001
0000
1001
0000
0000
0010
0100
0000
0001
0000
,  // measure 58
0001
0000
0000
0010
0100
0010
0000
0000
1001
0000
0000
0000
0000
0000
0100
0001
,  // measure 59
0000
0000
0001
0000
0000
0010
0100
0010
0000
0000
1001
0000
0000
0000
0100
0000
,  // measure 60
0100
0000
0001
1000
0001
0000
0100
0000
0000
0100
0000
0000
0110
0000
0000
0001
,  // measure 61
0000
0001
1010
0110
0000
1001
1001
0000
,  // measure 62
0100
0000
0001
0000
0000
0001
0000
0010
0100
0010
0000
0000
1001
0000
0000
0000
,  // measure 63
0100
0000
0001
0000
0000
0010
0100
0010
0000
0000
1001
0000
1001
0000
0000
0000
,  // measure 64
0010
0100
0100
0010
1000
1000
0001
0000
,  // measure 65
0100
0010
0100
0001
0000
0000
0001
0000
1100
0000
0110
0000
0000
0000
0001
0000
,  // measure 66
0001
0000
1000
0000
0000
1000
0100
0000
0000
0100
0001
0000
0000
0001
0010
0000
,  // measure 67
0000
0010
0000
0000
0100
0000
0100
0000
0000
0000
0000
0000
1100
0000
1001
0000
,  // measure 68
0000
0010
0100
0001
0000
0000
0001
1000
0000
0000
1000
0000
0010
0000
0100
0000
,  // measure 69
0100
0000
1000
0001
1000
0000
0000
0000
0110
0000
0000
0000
1010
0000
0000
0000
,  // measure 70
0000
0000
0001
0000
0100
0000
0100
0000
0000
0010
0000
0000
0010
1000
0000
0000
,  // measure 71
1000
0001
0000
0000
0001
0000
0000
0010
0100
0010
0000
0000
1001
0000
1001
0000
,  // measure 72
0000
0000
0010
0000
0001
0100
0000
0000
0100
0010
0000
0000
0010
0000
1000
0100
,  // measure 73
1000
0000
0001
0000
0001
0000
0000
0100
0010
0100
0000
0000
1001
0000
1001
0000
,  // measure 74
0000
0000
0010
0000
0100
0000
0000
0100
0000
0010
0000
0000
0010
1000
0000
0000
,  // measure 75
1000
0001
0000
0000
0001
0000
0100
0010
0100
0000
0000
0000
1001
0000
1001
0000
,  // measure 76
0000
0000
0100
0000
0000
0000
0010
0100
0010
1000
0000
0000
1000
0001
0000
0000
,  // measure 77
0001
0000
0000
0010
0100
0000
0000
0000
1001
0000
0000
0000
0000
0000
0000
0000
,  // measure 78
0000
0000
1000
0100
1000
0001
0000
0000
0001
0000
0000
0000
0100
0010
0100
0000
,  // measure 79
0000
0000
1001
0000
1001
0000
0000
0010
0000
0000
1100
0000
1100
0000
0000
0000
,  // measure 80
0001
0000
0000
0001
0010
0000
0000
0010
1000
0000
0000
1000
0001
0000
0000
0000
,  // measure 81
0100
0000
0100
0000
0001
1000
0000
0000
2002
0000
0000
0000
0000
0000
0000
0000
,  // measure 82
3003
0010
0010
0000
0200
0000
0000
0000
,  // measure 83
0000
0300
0001
0001
2000
0000
3000
0000
,  // measure 84
0002
0000
0000
0000
0100
0000
0100
0100
,  // measure 85
2000
0000
3000
0000
0100
0010
0100
0000
,  // measure 86
1000
0000
0000
0000
0000
0000
0000
0000
0000
0000
0000
0000
1003
0100
0010
0000
;
