#TITLE:Wuv U;
#SUBTITLE:(Colorful QT3 nekomix);
#ARTIST:Nekomirin feat. Emyuu, Miyu, Mao Komiya.;
#TITLETRANSLIT:;
#SUBTITLETRANSLIT:;
#ARTISTTRANSLIT:;
#GENRE:;
#CREDIT:PaperBox440;
#BANNER:Wuv U (Colorful QT3 nekomix).png;
#BACKGROUND:Wuv U (Colorful QT3 nekomix)-bg.png;
#LYRICSPATH:;
#CDTITLE:;
#MUSIC:Wuv U (Colorful QT3 nekomix).ogg;
#OFFSET:0.000000;
#SAMPLESTART:0.000000;
#SAMPLELENGTH:11.445086;
#SELECTABLE:YES;
#BPMS:0.000000=173.000000
;
#STOPS:
;
#BGCHANGES:;
#KEYSOUNDS:;
#ATTACKS:;

//---------------dance-single - ----------------
#NOTES:
     dance-single:
     :
     Hard:
     14:
     0.706810,0.724226,0.930833,0.117402,0.205454,590.000000,479.000000,111.000000,14.000000,0.000000,0.000000,0.706810,0.724226,0.930833,0.117402,0.205454,590.000000,479.000000,111.000000,14.000000,0.000000,0.000000:
// measure 0
0001
0001
0010
0100
0000
0100
1000
0001
,  // measure 1
1000
0000
1001
0000
0110
0000
0100
0010
,  // measure 2
0100
0001
0000
0001
1100
0000
0010
0000
,  // measure 3
0100
0001
0010
0001
1000
1000
0100
0010
,  // measure 4
0000
0010
1000
0001
1000
0000
1001
0000
,  // measure 5
0100
0010
0100
0000
0110
0000
0001
1000
,  // measure 6
1000
0001
0000
0001
1100
0000
0001
1000
,  // measure 7
0010
0000
0010
0100
0100
0001
0000
0001
,  // measure 8
1100
0000
0000
0000
1001
0000
0000
0100
0010
0100
0000
0000
1001
0000
0000
0000
,  // measure 9
0010
0100
0001
0001
1100
0000
0010
0100
,  // measure 10
0010
0001
1000
0000
1001
0000
0010
0000
,  // measure 11
0010
1000
0100
1000
0001
0001
0100
0010
,  // measure 12
0100
1001
1001
1100
,  // measure 13
1100
0000
0100
0010
0000
0001
1100
0000
,  // measure 14
1010
0000
0001
0001
0001
1000
0000
0010
,  // measure 15
0100
0000
0000
0000
0110
0000
0000
0000
1001
0000
0000
0000
0000
0100
0000
0000
,  // measure 16
0100
0010
0000
0000
0010
0000
0000
0000
1100
0000
0000
0000
0000
0000
0000
0000
,  // measure 17
1001
0000
0000
0000
1001
0000
1000
0000
1000
0000
0000
0100
0000
0000
0100
0010
,  // measure 18
0000
0010
0100
0000
0001
0000
1001
0000
,  // measure 19
1100
0000
1010
0000
0001
0001
1100
0000
,  // measure 20
0010
0010
0100
0000
0110
0000
0000
0000
,  // measure 21
1100
0000
1010
0000
0000
1001
1001
0000
,  // measure 22
0110
0000
0000
0000
1000
0000
0001
0000
1001
0000
0000
0000
0100
0000
0000
0100
,  // measure 23
0010
0000
0000
0010
0001
0000
1000
0100
1000
0000
0000
0000
1001
0000
0000
0000
,  // measure 24
0010
0000
1000
0100
1000
0000
0001
0000
0001
0000
0000
0000
1010
0000
0000
0000
,  // measure 25
0110
0000
0000
0000
1001
0000
1001
0000
0000
0110
0000
0000
0010
0100
0010
0100
,  // measure 26
0010
1001
1100
0001
,  // measure 27
1001
0100
0110
1010
,  // measure 28
0001
1000
0000
1000
0000
1000
0010
0000
0010
0000
0000
0000
1000
0000
0000
0000
,  // measure 29
1001
0100
0110
0000
1000
1000
0000
1001
,  // measure 30
0000
0200
0000
0000
0310
0000
0000
0000
1010
0000
0000
0000
0001
0000
0000
0000
,  // measure 31
1001
0000
0000
0000
1000
0000
1000
0000
1001
0000
0000
0100
0000
0000
0110
0000
,  // measure 32
1010
1001
0010
0100
,  // measure 33
1001
0000
0000
0000
1000
0000
1000
0000
0000
0000
0001
1000
0001
1000
0001
0000
,  // measure 34
0000
0110
0000
1010
0000
0100
0001
0000
,  // measure 35
1001
0100
0000
0110
0000
1001
0000
1100
,  // measure 36
1010
0000
0001
0000
0001
0000
0001
1000
0000
1000
0000
1000
0010
0000
0000
0110
,  // measure 37
0000
0001
0000
1001
0000
0100
0000
0110
,  // measure 38
0002
1003
1001
0100
,  // measure 39
0110
0000
0001
0000
0000
0000
1001
0000
0000
0000
1100
0000
0000
0000
0010
0100
,  // measure 40
0000
0001
1000
0000
0000
0000
2002
0000
3003
0000
0000
0000
1000
0000
0001
0000
,  // measure 41
1000
0000
0010
0100
1000
0001
0000
0001
,  // measure 42
0100
0010
0100
0010
0000
0000
1001
0000
,  // measure 43
1001
0000
0100
0000
0100
0000
0011
1000
,  // measure 44
0011
0000
0000
0000
1000
0001
1000
0001
1000
0000
0000
0000
1001
0000
0000
0000
,  // measure 45
0110
1100
1001
1001
,  // measure 46
1000
1001
0001
1100
,  // measure 47
0011
0000
0010
0100
0010
0100
0010
0000
,  // measure 48
1001
0000
1001
0000
0100
0000
0110
0010
,  // measure 49
1100
0000
0000
0000
1010
0000
0000
0000
0001
1000
0001
0000
0100
0000
0100
0000
,  // measure 50
0010
0000
1000
0000
0001
0000
0001
0000
0100
0010
0100
0000
0001
0000
0000
0000
,  // measure 51
1000
0000
0001
0000
1000
0000
0100
0000
0100
0000
0010
0000
1000
0001
1000
0000
,  // measure 52
0100
0001
0001
0100
0010
0000
1001
0000
,  // measure 53
1000
0000
0001
0000
0001
0000
0100
0010
0100
0000
0001
0000
1000
0000
0000
0000
,  // measure 54
1000
0000
0100
0010
0100
0000
0001
0000
0001
0000
1000
0000
0100
0000
0000
0000
,  // measure 55
0100
0010
0001
1000
0001
0000
1100
0000
,  // measure 56
1001
0000
0010
0000
0100
0100
0001
1000
,  // measure 57
0001
0000
2000
0000
3000
0001
0010
0001
,  // measure 58
0100
0100
0020
0000
0030
1000
1000
0001
,  // measure 59
0000
0001
0100
0100
0001
0010
0001
1000
,  // measure 60
1000
0000
1001
0000
0100
0110
0000
0001
,  // measure 61
0001
1100
1010
0100
,  // measure 62
0001
1001
1100
0010
,  // measure 63
0110
1000
0001
0000
1001
0000
0010
1100
,  // measure 64
1100
0000
0010
0100
0001
0000
1001
0000
,  // measure 65
0010
1000
1000
0000
0110
0000
0100
0001
,  // measure 66
0001
1000
0000
1000
0011
0000
0100
0000
,  // measure 67
0010
1000
0100
1000
0001
0001
0100
0010
,  // measure 68
0100
0010
0100
0000
1001
0000
0010
0010
,  // measure 69
0100
0001
2200
0000
3300
0001
0001
0100
,  // measure 70
0010
0000
0100
0000
2002
0000
0000
0000
3003
0000
0000
0000
0100
0000
0000
0100
,  // measure 71
0010
0000
0000
0010
0001
0000
0001
0000
2000
0000
0000
0000
3001
0000
0000
0000
,  // measure 72
1001
0000
0010
0000
0000
0100
0010
0100
0010
0000
0000
0000
1000
0000
0000
0000
,  // measure 73
1100
0000
0000
0000
1001
0000
0000
0000
0010
0100
0000
0000
0100
0001
0000
0000
,  // measure 74
0001
0000
0100
0010
0200
0000
0000
0000
0300
0000
0000
0000
0100
0000
0000
0000
,  // measure 75
0100
0000
0001
0000
0010
0000
0001
0000
0100
1000
0000
0000
1000
0000
0001
0000
,  // measure 76
0001
0000
0000
0000
0010
0100
1000
0010
0100
1000
0010
0100
1000
0000
0000
0000
,  // measure 77
0001
1000
0001
0100
0100
0010
0001
1000
,  // measure 78
1000
0000
0010
0100
0010
0000
0001
0000
0001
0000
1000
0000
1000
0000
0010
0000
,  // measure 79
0000
0000
1010
0000
0001
0000
0001
0000
1000
0100
1000
0000
0010
0000
0000
0000
,  // measure 80
0110
0000
0000
0000
1000
0000
1000
0001
0000
0001
0000
0000
2002
0000
0000
0000
,  // measure 81
0000
0000
0000
0000
,  // measure 82
0000
3003
0000
0000
;
