#VERSION:0.83;
#TITLE:William Tell jokyoku;
#SUBTITLE:;
#ARTIST:W.T.Orchestra;
#TITLETRANSLIT:;
#SUBTITLETRANSLIT:;
#ARTISTTRANSLIT:;
#GENRE:;
#ORIGIN:;
#CREDIT:PaperBox440;
#BANNER:William Tell jokyoku.png;
#BACKGROUND:William Tell jokyoku-bg.png;
#PREVIEWVID:;
#JACKET:William Tell jokyoku-jacket.png;
#CDIMAGE:;
#DISCIMAGE:;
#LYRICSPATH:;
#CDTITLE:;
#MUSIC:William Tell jokyoku.mp3;
#OFFSET:0.000000;
#SAMPLESTART:14.250000;
#SAMPLELENGTH:15.250000;
#SELECTABLE:YES;
#BPMS:0.000=120.000,
59.000=130.000,
67.000=140.000,
75.000=150.000,
84.000=160.000,
111.000=170.000,
144.000=180.000,
163.000=190.000;
#STOPS:;
#DELAYS:;
#WARPS:;
#TIMESIGNATURES:0.000=4=4;
#TICKCOUNTS:0.000=4;
#COMBOS:0.000=1;
#SPEEDS:0.000=1.000=0.000=0;
#SCROLLS:0.000=1.000;
#FAKES:;
#LABELS:0.000=Song Start;
#BGCHANGES:;
#KEYSOUNDS:;
#ATTACKS:
;

//---------------dance-single - ----------------
#NOTEDATA:;
#CHARTNAME:;
#STEPSTYPE:dance-single;
#DESCRIPTION:;
#CHARTSTYLE:;
#DIFFICULTY:Hard;
#METER:16;
#RADARVALUES:0.647235,0.751374,0.427611,0.356343,0.422521,445.000000,403.000000,42.000000,35.000000,0.000000,0.000000,0.000000,0.000000,0.000000,0.647235,0.751374,0.427611,0.356343,0.422521,445.000000,403.000000,42.000000,35.000000,0.000000,0.000000,0.000000,0.000000,0.000000;
#CREDIT:;
#NOTES:
// measure 0
0000
0000
0002
0000
0003
1000
2000
0000
,  // measure 1
3000
0010
0010
0100
0100
0001
0001
0010
,  // measure 2
0100
1000
1000
0001
1001
0100
0010
0110
,  // measure 3
1000
1001
0002
0000
0003
0010
0200
0000
,  // measure 4
0300
1000
1000
0001
0001
0010
0100
1000
,  // measure 5
0100
0001
0002
0000
0000
0000
0000
0000
,  // measure 6
0000
0000
0000
0003
,  // measure 7
0000
0000
1000
0001
1000
0000
0100
0010
0100
0000
0001
0000
0001
0000
1000
0000
,  // measure 8
1001
0000
0100
0010
0100
0000
1000
0000
0001
0010
0001
0000
1000
0000
1000
0000
,  // measure 9
1001
0000
0000
0010
1000
0000
1000
0000
0010
0000
0100
0000
0100
0001
0010
0001
,  // measure 10
1000
0000
2000
0000
0000
3000
0000
0010
0001
0000
0001
0000
0100
0000
0110
0000
,  // measure 11
1000
0001
1000
0000
0100
0000
0100
0000
0001
0010
0001
0000
1000
0000
1100
0000
,  // measure 12
0001
0010
0000
1000
0100
0000
0010
0000
0001
0000
1001
0000
0000
1100
0000
0000
,  // measure 13
0001
0010
0000
1000
0100
0000
0001
1000
0000
1000
0001
0010
0001
0000
0100
0000
,  // measure 14
0200
0000
0000
0000
0300
0000
0001
0010
0001
0000
1000
0000
1000
0000
0001
0100
,  // measure 15
0010
0000
0010
0000
0100
1000
0000
0010
0001
0000
1000
0000
0110
0000
0010
0000
,  // measure 16
0011
0000
1001
0000
1000
0000
1100
0000
0010
0000
0110
0000
0000
0001
1000
0000
,  // measure 17
1000
0100
0010
0100
0000
0010
0000
0000
0001
0000
1001
0000
1000
0000
1100
0000
,  // measure 18
0010
0110
0000
1000
0001
1001
0000
1000
,  // measure 19
0001
0000
0001
0010
0000
0000
1000
0001
1000
0000
0100
0010
0100
0000
0001
0000
,  // measure 20
0110
0100
1100
0000
1001
1000
0010
0100
,  // measure 21
0110
0000
1000
0000
1000
0001
0000
0000
0100
0000
0100
0001
0000
0000
0010
0000
,  // measure 22
0010
1000
0000
0000
0000
0000
0010
0100
0010
0000
0001
0000
1001
0000
1000
0000
,  // measure 23
2000
0000
0000
0000
3000
0000
0001
0000
0001
0000
0010
0000
0000
0010
0100
0000
,  // measure 24
0000
0100
0000
1000
0001
0000
1000
0000
0100
0000
0000
0100
0010
0000
0000
0010
,  // measure 25
0000
0001
0000
1000
0000
0100
1000
0000
0001
0000
0000
0001
0010
0000
0000
0010
,  // measure 26
1000
0000
0100
1000
0001
0000
0000
0001
0010
0100
0000
0010
1000
0000
0000
1000
,  // measure 27
0001
0000
0000
0001
1000
0000
0000
0000
1001
0000
0000
0000
0000
0000
1000
0000
,  // measure 28
0001
0001
0100
0010
0100
0000
1001
0000
,  // measure 29
0100
0010
0100
0001
0001
0000
1001
0000
,  // measure 30
1100
0010
0100
0100
0001
1000
0001
0010
,  // measure 31
0100
0100
0002
0000
0000
0003
1000
0000
,  // measure 32
1001
0000
0100
0000
1100
0000
0000
0000
0001
1000
0001
0000
0100
0010
0100
0000
,  // measure 33
0010
0000
0100
0000
0110
0000
0000
0000
1000
0001
1000
0000
0100
0010
0100
0000
,  // measure 34
0001
0000
0010
0000
1001
0000
0000
1000
0000
0000
1000
0010
0000
0000
0010
0100
,  // measure 35
0000
0100
0001
0001
1000
1000
0002
0000
,  // measure 36
0003
0000
1000
0000
0100
0010
0100
0000
0001
0000
0010
1000
0100
1000
0000
0001
,  // measure 37
0010
0001
0100
0000
2000
0000
0000
0000
0010
0000
0000
0000
0010
0000
0000
0000
,  // measure 38
0010
0000
0000
0000
3010
0000
0000
0000
0001
0000
0001
1000
0100
1000
0010
0000
,  // measure 39
0010
0100
0001
0000
0010
1000
0100
0000
0002
0000
0000
0000
1000
0000
0000
0000
,  // measure 40
1000
1000
1003
0010
,  // measure 41
0110
0000
1000
0001
1000
0000
0001
0000
,  // measure 42
1001
0100
0110
0022
,  // measure 43
0000
0000
0000
0000
0033
0000
0000
0100
0010
0100
0000
0000
2200
0000
0000
0000
,  // measure 44
0000
0000
0000
0000
3300
0000
0000
1000
0001
1000
0000
0000
2002
0000
0000
0000
,  // measure 45
0000
0000
0000
0000
3003
0000
0000
0010
0100
0010
0000
0000
2020
0000
0000
0000
,  // measure 46
0000
0000
3030
0000
0001
0001
0010
0100
,  // measure 47
2000
0002
3000
0023
0000
2030
0002
3000
,  // measure 48
0203
2000
0300
3002
0020
0003
0230
0000
,  // measure 49
0300
0010
0001
0001
,  // measure 50
1000
0001
1000
0100
0010
0100
0001
0010
,  // measure 51
0001
1000
0100
1001
0000
0001
0100
0010
,  // measure 52
0100
0000
1000
0000
0000
1000
0000
0000
1000
0001
0000
0000
0001
0000
0000
0001
,  // measure 53
0100
0000
0000
0100
0000
0000
0100
0000
0010
0000
0000
0010
0000
0000
0010
0000
,  // measure 54
0001
0000
0000
0001
0000
0000
0001
0000
1000
0000
0000
1000
0000
0000
1000
0000
,  // measure 55
0010
0000
0000
0010
0000
0000
0010
0000
0100
0000
0000
0100
0000
0000
0100
0000
,  // measure 56
0001
0000
0001
0000
1000
0100
1000
0000
0000
0000
0100
0000
0010
1000
0000
0000
,  // measure 57
1000
0000
0001
0000
0010
0001
0000
0000
0110
0000
1000
0000
2002
0000
0000
0000
,  // measure 58
3003
0000
1000
0001
1001
0000
0100
0010
,  // measure 59
0200
0000
0300
0001
0002
0000
0000
1003
,  // measure 60
2000
0000
0000
0000
,  // measure 61
0000
0000
3000
0000
;
