#VERSION:0.83;
#TITLE:White Stream;
#SUBTITLE:;
#ARTIST:BEMANI Sound Team "ZAQUVA";
#TITLETRANSLIT:;
#SUBTITLETRANSLIT:;
#ARTISTTRANSLIT:;
#GENRE:;
#ORIGIN:;
#CREDIT:PaperBox440;
#BANNER:White Stream.png;
#BACKGROUND:White Stream-bg.png;
#PREVIEWVID:;
#JACKET:White Stream-jacket.png;
#CDIMAGE:;
#DISCIMAGE:;
#LYRICSPATH:;
#CDTITLE:;
#MUSIC:White Stream.mp3;
#OFFSET:0.000000;
#SAMPLESTART:19.459459;
#SAMPLELENGTH:17.027025;
#SELECTABLE:YES;
#BPMS:0.000=222.000;
#STOPS:;
#DELAYS:;
#WARPS:;
#TIMESIGNATURES:0.000=4=4;
#TICKCOUNTS:0.000=4;
#COMBOS:0.000=1;
#SPEEDS:0.000=1.000=0.000=0;
#SCROLLS:0.000=1.000;
#FAKES:;
#LABELS:0.000=Song Start;
#BGCHANGES:;
#KEYSOUNDS:;
#ATTACKS:
;

//---------------dance-single - ----------------
#NOTEDATA:;
#CHARTNAME:;
#STEPSTYPE:dance-single;
#DESCRIPTION:;
#CHARTSTYLE:;
#DIFFICULTY:Hard;
#METER:14;
#RADARVALUES:0.784738,0.845591,0.333659,0.390625,0.463867,675.000000,634.000000,41.000000,48.000000,0.000000,0.000000,0.000000,0.000000,0.000000,0.784738,0.845591,0.333659,0.390625,0.463867,675.000000,634.000000,41.000000,48.000000,0.000000,0.000000,0.000000,0.000000,0.000000;
#CREDIT:;
#NOTES:
0000
0000
0000
0000
,
0000
0000
2000
0000
,
3001
0000
0010
0100
0000
0100
0001
0000
,
0001
1000
0000
1000
0010
0000
0010
0100
,
0000
0100
0001
0000
0001
1000
0000
1000
,
0001
0000
0001
0000
0010
0100
1000
0001
,
1000
0000
0110
0000
1010
0000
0100
0001
,
0000
0001
1000
0100
1000
0000
1001
0000
,
0110
0000
0001
0100
0000
0100
1000
0000
,
1000
0010
0001
0001
0100
0010
0100
1000
,
1000
0000
0100
0001
0010
0001
0100
0000
,
0100
1000
0000
1000
0010
0001
0010
0100
,
0100
1000
0000
1000
0001
0010
0001
0100
,
0010
0100
0000
1000
0001
1000
0001
1000
,
0002
0000
0003
0100
0000
0100
0010
0001
,
1000
0100
1000
0010
0100
0000
0100
0001
,
0000
0001
1000
0000
1000
0000
0100
0010
,
0100
0001
0000
0001
1000
1000
0001
0010
,
0100
0010
1000
1000
0100
0000
0100
0001
,
0000
0001
1000
0000
1000
0001
0000
0010
,
0100
0010
0000
1000
0000
1000
0001
0000
,
0001
0010
0000
1000
1000
0001
0010
0001
,
0100
0100
0010
0000
1000
0000
1000
0001
,
0000
0001
0100
0000
0100
0001
0000
0001
,
0100
0010
0100
0000
1000
0000
1000
0001
,
0000
0001
0100
0000
0100
0010
0000
0010
,
1000
0000
1001
0000
0100
0000
0100
0010
,
0000
0010
1000
0000
1000
0001
0000
0001
,
0100
0000
0100
0010
0001
0000
1000
0100
,
1000
0010
0100
0100
0001
0010
0001
1000
,
1000
0010
0001
0000
0001
0100
0000
0100
,
1000
0000
1000
0000
0011
0000
0100
0010
,
0100
0000
0001
0000
0001
1000
0000
1000
,
0010
0110
1100
1001
,
0100
0010
0000
0010
0100
0000
0100
0001
,
0000
0001
1000
0000
1000
0000
0110
0000
,
1000
0001
0000
0001
0100
0010
0010
0000
,
1000
0001
0200
0000
0300
0000
0010
0100
,
0000
0100
0001
0000
1000
0000
1100
0000
,
0000
0100
0010
0100
1000
0000
1000
0001
,
0000
0001
0110
0000
1100
0001
0000
0110
,
0001
1000
0000
1000
0110
0001
0010
0001
,
1000
0110
0001
0000
0001
1000
0000
1000
,
0000
0000
0110
0000
0000
0010
0100
0010
,
0000
0000
0002
0000
0000
0010
0000
0000
0013
0000
0100
0000
0000
0100
0000
0000
,
2000
0000
0001
0000
0000
0001
3000
0000
0020
0000
0000
1000
0000
0000
0030
0000
,
0200
0000
0000
0010
0000
0000
0310
0000
0002
0000
0000
1000
0000
0000
1003
0000
,
0000
0000
0010
0000
0100
0000
0000
0000
0110
0000
0000
1000
0000
0000
1000
0000
,
0001
0010
0001
0000
0000
0000
2200
0000
0000
0000
0000
0000
3300
0000
0000
0000
,
0002
0000
2000
0000
0003
0000
3010
0001
,
0200
0002
0300
1003
,
0100
0000
0010
0000
0100
0001
0000
0000
0001
1000
0000
0000
1000
0000
0000
0000
,
0110
1000
0001
0001
0110
0000
1100
0000
,
0002
0000
0000
0100
0000
0000
0100
0000
0003
0000
0010
0000
0100
0000
2000
0000
,
0001
0000
0000
0001
3000
0000
0000
0000
0020
0000
0100
0000
0000
0100
0000
0000
,
1030
0000
0000
0000
0200
0000
0001
0000
0000
0001
0000
0000
0310
0000
0000
0000
,
0002
0000
0000
1000
0000
0000
1000
0000
0013
0000
0000
0000
0200
0000
0010
0000
,
0000
0010
0000
0000
0001
0000
0000
0001
0300
0000
0000
0000
0020
0000
1000
0000
,
0000
1000
0000
0000
0100
0000
0000
0000
2030
0000
0000
0000
0000
0000
0001
0000
,
0000
0001
0000
0010
0000
0000
0010
0000
0100
0000
0000
0100
0000
0000
0010
0000
,
0000
0010
0000
0000
3001
0000
0000
0000
0100
0000
0010
0100
0000
0000
0001
0000
,
0000
0001
1000
0000
0000
1000
0010
0000
0100
0010
0000
0001
0000
0000
0001
1000
,
0000
0000
1100
0000
0010
0000
0000
0010
0100
0000
0000
0100
0001
0000
0001
0000
,
1000
0000
0000
1000
0100
0000
0100
0000
0010
0000
0000
0110
0000
0000
1000
0001
,
0000
0000
0001
0100
0000
0000
0100
0000
0000
0010
0000
0000
0010
1000
0000
0000
,
1000
0000
0000
0000
2200
0000
3300
0000
0001
0000
0000
0001
0000
0100
0010
0000
,
0100
0000
2002
3003
0000
0000
0000
0000
1000
0000
0000
0000
1000
0000
0001
0000
,
0010
0000
0001
0000
0100
0000
0000
0000
0100
0000
0010
0001
0010
0000
1000
0000
,
0100
1000
0001
0010
0001
0200
0000
0010
,
0310
0000
0001
1000
0100
1000
0001
0010
,
0100
1000
0100
0000
0000
0000
0010
0000
0100
0000
0001
0000
0000
0000
0001
0000
,
1000
0000
0100
0000
1000
0000
0010
0000
0000
0000
0100
0010
0100
0000
0001
0000
,
0001
0000
1000
0000
0000
0100
1000
0000
0002
0000
0100
0000
0000
0100
0000
1000
,
0000
0000
1000
0000
0010
0000
0000
0010
0000
0100
0000
0000
0100
0000
0000
0000
,
2003
0000
3200
0000
0000
0000
0300
1000
,
0100
0000
1000
0000
0001
0000
0000
0000
0011
0000
0000
0000
1100
0000
0000
0001
,
0010
0100
0000
0000
2000
0000
0000
0000
0000
0000
0000
0000
0000
0000
0000
0000
,
3002
0000
0000
0203
0000
0000
0000
0300
,
1000
0000
1000
0000
0001
0000
0000
0001
0000
0000
0100
0000
0000
0100
0000
0000
,
1000
0000
0100
0000
1000
0001
0000
0000
0001
0100
0000
0000
0100
0010
0000
0000
,
0010
1200
0001
0301
,
0002
0000
2000
0000
0003
0000
0000
3200
,
0000
0000
0000
0302
0000
0000
1000
0003
,
1000
0000
0000
0010
0000
0000
0110
0000
0100
0000
0000
0000
1000
0000
0001
0010
,
0001
0100
0000
0000
0100
0010
0000
0000
0010
0000
1000
0001
1000
0000
0000
0000
,
0100
0000
0000
0100
0010
0000
0000
0010
0000
1000
0001
0000
1000
0000
0000
0110
,
0000
0000
0010
0000
0100
0000
0000
0100
0001
0000
0000
0001
1000
0000
0000
1000
,
0000
0000
0110
0000
0000
0100
0000
0001
0000
0010
0000
0001
1000
0000
0000
1000
,
0010
0000
0000
0110
0000
0000
0001
0000
0000
0001
0000
1000
0000
0000
1000
0010
,
0000
0100
0010
0000
0000
0001
1000
0001
0000
0000
0100
0000
0000
0100
0010
0000
,
0000
0110
0000
0001
0000
0000
0001
1000
0000
0000
1000
0000
0010
0100
0010
0000
,
0000
0001
0000
1000
0000
0000
1000
0001
0010
0001
0000
0000
0100
0000
0000
0100
,
0010
0000
0000
1000
0000
0000
1000
0000
0002
0000
0000
0000
0000
0010
0000
0000
,
0003
0100
0000
0000
0100
0000
0001
0000
1000
0000
0001
0000
0000
0110
0000
0000
,
0100
0001
0000
0000
0001
1000
0000
0000
1000
0000
0000
0000
0010
0000
0100
0000
,
0010
0000
0020
0000
0030
0000
2000
0000
0001
0000
0000
0100
3000
0000
0100
0001
,
0000
0000
0001
0000
0100
0010
0100
0000
0002
0000
0000
0000
0003
0000
2000
0000
,
0000
0000
0000
0000
3000
0000
0000
0001
0000
0000
0001
1000
0000
0000
1000
0000
,
0020
0000
0000
0000
0030
0100
0000
0000
0100
0000
0000
0000
0001
0000
0001
0000
,
0000
1000
0001
1000
0000
0000
0100
0000
0100
0000
0010
0000
0000
0100
0000
0000
,
1000
0001
0000
0000
0000
0110
0000
0000
0000
0010
0000
0000
0010
1000
0000
0000
,
1000
0001
0000
0000
0001
0000
0010
0100
0010
0000
0000
0000
1000
0000
0000
0000
,
1001
0100
0110
0000
0001
0010
0100
0100
,
0001
0000
0000
0000
0001
0010
1000
0000
0000
0000
1000
0000
0100
0000
0010
0000
,
0100
0000
0001
0000
0001
0000
1000
0000
1000
0000
0100
0000
0010
0000
0100
0001
,
0000
0000
0001
1000
0000
0000
1000
0000
0001
0000
0100
0010
0100
0000
0001
0000
,
0000
0001
2000
0000
0100
0000
0100
3001
,
0000
0000
0001
0000
0000
0010
0100
0010
0000
0000
1000
0000
0001
0000
1000
0000
,
0010
0010
0200
0000
0310
0000
0011
0000
,
0110
0000
2200
3300
0000
0000
0000
0000
;

//---------------dance-single - ----------------
#NOTEDATA:;
#CHARTNAME:;
#STEPSTYPE:dance-single;
#DESCRIPTION:;
#CHARTSTYLE:;
#DIFFICULTY:Medium;
#METER:12;
#RADARVALUES:0.588263,0.622355,0.406901,0.162760,0.000000,506.000000,456.000000,50.000000,20.000000,0.000000,0.000000,0.000000,0.000000,0.000000,0.588263,0.622355,0.406901,0.162760,0.000000,506.000000,456.000000,50.000000,20.000000,0.000000,0.000000,0.000000,0.000000,0.000000;
#CREDIT:;
#NOTES:
0000
0000
0000
0000
,
0000
0000
2000
0000
,
3001
0010
0100
0010
,
1000
0001
0001
1000
,
1100
0000
1001
0010
,
1000
1000
0001
0010
,
0000
0110
1000
0001
,
0010
0100
0010
0001
,
1100
1000
0001
0010
,
0100
0100
0001
0010
,
0001
2000
0001
0001
,
0100
0010
0001
0010
,
3100
0000
0001
0010
0100
0000
1000
0001
,
1000
0000
0001
1000
0001
0000
0010
0000
,
0100
0000
0010
0000
1000
0010
0001
0000
,
1000
0000
0001
0100
0010
0000
0001
1000
,
0100
0000
0010
0000
1000
0000
0010
0001
,
0100
0000
0010
0000
0001
1000
0001
0000
,
1000
0001
0001
1000
,
1000
0010
0100
0010
,
1001
0000
0100
0010
,
0100
0000
1000
0001
0010
0000
0100
0010
,
1000
0001
1000
0100
,
0010
0100
0001
0001
,
1001
0000
0100
0110
,
1000
0001
1100
0000
,
0100
0110
0001
1000
,
0100
1000
0001
0001
,
1100
1000
0001
0010
,
0100
0000
0000
0000
0100
0010
0100
0010
,
0000
0001
1000
1000
,
0001
0010
0001
1000
,
1100
0001
1100
1000
,
0011
0010
0110
0000
,
1000
1000
0010
0001
,
0100
1000
0110
0001
,
0000
1000
1100
0010
,
1010
0000
0000
0000
1000
0000
0001
0010
,
0001
0000
1000
0000
0110
0000
0000
0001
,
0010
0000
1000
0100
0000
0000
0010
0000
,
0110
1001
1100
0010
,
0001
1000
1000
0001
,
1000
0010
0100
0100
,
0001
0110
0011
1000
,
1001
0000
0100
0000
0010
0000
0100
0001
,
0000
0001
1000
0000
1000
0000
0100
0000
,
0010
0000
0100
0001
0000
0001
1000
0000
,
0100
0000
1000
0010
0000
0010
0001
0000
,
0001
1000
0001
0001
,
0100
0010
0100
0000
0001
1000
0000
1000
,
0001
0100
0010
0100
,
1001
0001
1100
0110
,
0011
0100
1000
0001
,
0000
0001
0100
0100
,
0010
0000
1000
0100
1000
0000
0001
0000
,
0001
1100
1010
0001
,
1001
0100
0010
0000
,
0001
0000
1000
0000
0001
0010
0001
0100
,
0010
0100
2000
0000
0000
0000
0000
0000
,
0000
0001
0010
0100
,
0010
0000
3001
0000
0010
0000
0100
0001
,
0010
0000
1000
0000
0100
0010
1000
0000
,
0001
1000
0001
0000
0010
0000
0100
0000
,
0010
0000
1000
0001
1000
0000
0001
0000
,
0010
0000
0001
0000
0100
0010
0100
0000
,
0001
0010
0002
0000
0003
0100
0010
0100
,
2000
0000
3000
0000
0100
0010
0100
0000
,
0001
1000
0010
0000
0100
0000
0010
0000
,
0001
0000
1000
0001
1000
0000
0100
0000
,
0010
0000
0100
0001
0010
0001
1000
0000
,
1000
0000
0000
0010
0100
0001
0000
0001
,
0100
0100
0010
0010
,
1000
0100
1000
0001
0000
0001
2000
0000
,
0000
3000
0100
0100
,
0022
0033
2002
3003
,
0100
0010
0100
0000
1100
0000
1001
0000
,
0010
0010
0000
0100
0000
0100
0001
0000
,
1000
0001
2000
3002
,
0000
0003
0010
0100
,
0010
0100
1000
1000
,
0001
0010
0001
0100
,
0100
0000
0001
1000
0001
0000
0010
0000
,
0100
0000
0010
0000
1000
0100
1000
0000
,
0001
0001
1010
1100
,
1001
0000
0010
0100
0001
0000
1000
0000
,
0100
1000
0001
0001
,
0100
0000
0010
0000
0100
0000
1000
0001
,
1000
0011
1001
1100
,
0010
0100
1000
0001
,
0010
0001
0100
0100
,
0001
0010
0001
0000
2000
0000
0000
0000
,
3000
0010
0001
0000
1001
0000
0100
0000
,
0010
0100
0010
0000
0220
0000
0000
0000
,
0000
0000
0000
0000
,
0330
0000
1000
1000
0001
0000
0010
0000
,
0100
1000
0001
1000
,
0010
0000
0100
0010
0100
0000
0001
0000
,
0010
0000
0001
0000
1000
0100
1000
0000
,
0020
0000
0030
0000
0100
0100
0001
0001
,
1000
0000
1000
0010
0100
0010
0000
0001
,
1000
0000
0001
0100
0001
0000
0010
1000
,
1000
0000
0010
0100
0010
0000
1000
0000
,
1001
0000
1100
0000
0010
0000
0001
1000
,
0001
1000
0100
1000
,
0001
0000
0010
0000
0001
0000
0100
0010
,
0100
0000
0010
0000
0100
0000
1000
0001
,
1000
0002
0000
0003
,
0010
0200
0000
0000
0300
0001
0000
1001
,
0000
2200
0000
3300
0001
0000
0011
0000
,
0110
1001
0000
0000
;

//---------------dance-single - ----------------
#NOTEDATA:;
#CHARTNAME:;
#STEPSTYPE:dance-single;
#DESCRIPTION:;
#CHARTSTYLE:;
#DIFFICULTY:Easy;
#METER:6;
#RADARVALUES:0.408064,0.488993,0.211589,0.065104,0.000000,351.000000,325.000000,26.000000,8.000000,0.000000,0.000000,0.000000,0.000000,0.000000,0.408064,0.488993,0.211589,0.065104,0.000000,351.000000,325.000000,26.000000,8.000000,0.000000,0.000000,0.000000,0.000000,0.000000;
#CREDIT:;
#NOTES:
// measure 0
0000
0000
0000
0000
,  // measure 1
0000
0000
2000
0000
,  // measure 2
3001
0010
0100
0010
,  // measure 3
1000
0001
1000
0100
,  // measure 4
0110
0001
1000
1000
,  // measure 5
0001
0010
0100
0010
,  // measure 6
1001
0000
1000
1000
,  // measure 7
0010
0100
0010
1000
,  // measure 8
1001
0000
0100
0010
,  // measure 9
0100
1000
0001
1000
,  // measure 10
0110
2000
0001
0001
,  // measure 11
0000
0010
0000
0010
,  // measure 12
3100
0001
0100
0100
,  // measure 13
0000
0001
1000
1000
,  // measure 14
0000
0100
0010
0100
,  // measure 15
0000
0010
0001
0000
,  // measure 16
0010
0100
0100
0000
,  // measure 17
1000
0001
0000
1000
,  // measure 18
0000
0001
0001
0100
,  // measure 19
0010
0100
0000
1000
,  // measure 20
1001
0000
0100
0010
,  // measure 21
0000
1000
1000
0001
,  // measure 22
0001
1000
0000
0010
,  // measure 23
0100
0010
0000
0100
,  // measure 24
0110
0000
1000
0001
,  // measure 25
0001
0000
0100
0010
,  // measure 26
1000
1001
0000
0100
,  // measure 27
0010
0100
0010
0000
,  // measure 28
0001
1001
0000
0010
,  // measure 29
0100
0000
0001
0010
,  // measure 30
0100
1000
1000
0100
,  // measure 31
0010
0000
0001
0001
,  // measure 32
0110
0000
0001
0100
,  // measure 33
0100
0000
1000
0001
,  // measure 34
1000
0001
0100
0100
,  // measure 35
0000
0010
1000
0100
,  // measure 36
1000
0001
0001
0000
,  // measure 37
0100
0010
0100
0000
,  // measure 38
1000
1000
0000
0001
,  // measure 39
0001
0100
0100
0000
,  // measure 40
0001
0010
0001
1000
,  // measure 41
1000
0010
0100
0010
,  // measure 42
0000
1000
1001
0000
,  // measure 43
0100
0010
0100
0000
,  // measure 44
0010
0100
0000
0100
,  // measure 45
0001
0001
0000
1000
,  // measure 46
1000
0000
0010
0000
,  // measure 47
0100
0010
0100
0001
,  // measure 48
0000
1000
1000
0001
,  // measure 49
1000
0100
1000
0000
,  // measure 50
0001
0010
0100
0010
,  // measure 51
1000
1000
0001
0010
,  // measure 52
0001
1000
1001
0000
,  // measure 53
0000
0001
0100
0100
,  // measure 54
0010
1000
1000
0000
,  // measure 55
0001
0001
0000
0010
,  // measure 56
0100
0010
0000
0001
,  // measure 57
1000
1000
0000
0001
,  // measure 58
0010
0000
2000
0000
,  // measure 59
0000
0000
0000
0000
,  // measure 60
0000
3000
0001
0010
,  // measure 61
0010
0000
1000
0100
,  // measure 62
1000
0000
0001
0010
,  // measure 63
0001
0000
0100
0100
,  // measure 64
0010
0100
0000
0001
,  // measure 65
0001
0000
1000
1000
,  // measure 66
0110
0000
1000
0001
,  // measure 67
0000
0010
0100
0010
,  // measure 68
0000
1000
1000
0000
,  // measure 69
0001
0001
1000
0010
,  // measure 70
0100
0010
0000
1100
,  // measure 71
1001
0100
0000
0001
,  // measure 72
1000
0001
0001
2000
,  // measure 73
0000
3000
0000
0010
,  // measure 74
0002
2000
0000
3003
,  // measure 75
0000
0010
0100
0110
,  // measure 76
0000
1001
0000
1000
,  // measure 77
0000
1000
0000
0100
,  // measure 78
0010
0100
0000
0010
,  // measure 79
0001
0000
1000
1000
,  // measure 80
0000
0010
0000
0100
,  // measure 81
0100
0000
0001
0010
,  // measure 82
0001
0000
1000
1000
,  // measure 83
0001
0000
0010
0110
,  // measure 84
1001
0000
0001
0000
,  // measure 85
0100
0010
0100
0000
,  // measure 86
0100
0001
1000
0001
,  // measure 87
0000
1000
0010
0100
,  // measure 88
0010
0000
0100
0100
,  // measure 89
0001
0010
0001
0000
,  // measure 90
1000
1001
0000
0010
,  // measure 91
1000
1000
0001
0100
,  // measure 92
0001
0000
0110
0000
,  // measure 93
0001
0100
0010
0100
,  // measure 94
0001
0000
0001
1000
,  // measure 95
0000
1000
0010
0000
,  // measure 96
0100
0100
0000
0010
,  // measure 97
0001
0000
1000
1000
,  // measure 98
0000
0100
0010
0100
,  // measure 99
0001
0000
0001
1000
,  // measure 100
0000
1000
0000
0010
,  // measure 101
0100
0010
0000
0001
,  // measure 102
1001
1001
0000
0001
,  // measure 103
0001
0000
0100
0010
,  // measure 104
0100
0000
0001
0001
,  // measure 105
1000
1000
0000
0110
,  // measure 106
0001
1000
1000
0000
,  // measure 107
0010
0100
0010
0001
,  // measure 108
2002
3003
0100
0110
,  // measure 109
0001
1001
0000
0000
;
