#TITLE:We like to party;
#SUBTITLE:;
#ARTIST:an0nymooose;
#TITLETRANSLIT:;
#SUBTITLETRANSLIT:;
#ARTISTTRANSLIT:;
#GENRE:;
#CREDIT:PaperBox440;
#BANNER:We like to party v2.png;
#BACKGROUND:We like to party v2-bg.png;
#LYRICSPATH:;
#CDTITLE:;
#MUSIC:We like to party v2.ogg;
#OFFSET:0.000000;
#SAMPLESTART:0.000000;
#SAMPLELENGTH:14.117647;
#SELECTABLE:YES;
#BPMS:0.000000=136.000000
,61.000000=300.000000
,68.000000=440.000000
;
#STOPS:
;
#BGCHANGES:0.000=We like to party v2.mp4=1.000=0=0=0=StretchNoLoop====,
99999=-nosongbg-=1.000=0=0=0 // don't automatically add -songbackground-
;
#KEYSOUNDS:;
#ATTACKS:;

//---------------dance-single - ----------------
#NOTES:
     dance-single:
     :
     Hard:
     10:
     0.651151,0.701036,0.446408,0.234951,0.082233,194.000000,175.000000,19.000000,10.000000,0.000000,0.000000,0.651151,0.701036,0.446408,0.234951,0.082233,194.000000,175.000000,19.000000,10.000000,0.000000,0.000000:
// measure 0
0020
0000
0000
0000
0000
0030
1000
0001
,  // measure 1
1000
0000
0001
1000
0001
0000
0100
0010
,  // measure 2
0100
0000
0001
1000
0001
0000
1000
0001
,  // measure 3
1000
0000
0010
0100
0010
0000
0001
0000
,  // measure 4
2001
0010
0010
3100
,  // measure 5
0102
0000
0010
0000
0013
0000
1000
0001
,  // measure 6
1000
0000
0001
1000
0001
0000
0100
0010
,  // measure 7
0100
0000
0010
0100
0010
0000
1000
0000
,  // measure 8
1001
0000
0001
0000
0100
0010
0000
0000
,  // measure 9
0000
1000
0100
0000
0001
1000
0001
0000
,  // measure 10
0010
0000
0000
0000
0000
0100
0000
0000
0000
0100
0010
0000
0000
0000
0000
0000
,  // measure 11
0000
0000
0001
0000
0000
1000
0000
0000
0000
0000
0001
1000
0000
0000
0000
0000
,  // measure 12
1010
0000
0000
0000
1001
0000
0000
0000
0010
0100
0000
0000
0000
0000
0000
0000
,  // measure 13
1000
0000
0000
0000
0001
0000
0000
0000
0000
0000
1000
0001
1000
0000
0000
0000
,  // measure 14
0010
0000
0000
0000
0100
0000
0000
0000
0010
0200
0000
0000
0000
0000
0000
0000
,  // measure 15
0000
0300
0000
0000
1000
0000
0000
0001
,  // measure 16
0000
0000
1000
0000
0000
0001
0000
0000
,  // measure 17
1000
0001
1000
0001
1000
0001
1000
0001
,  // measure 18
1000
0001
1000
0000
0000
0000
1010
0000
,  // measure 19
0000
0000
1010
0000
0000
1010
0000
0000
,  // measure 20
1010
0000
0110
0000
,  // measure 21
1001
0000
0000
1001
0000
0000
1001
0000
,  // measure 22
0000
1001
0000
0000
0010
0100
0000
0100
,  // measure 23
0000
0100
0000
0100
0000
0000
1000
0000
,  // measure 24
0001
0010
0100
0000
0000
0000
0100
0010
,  // measure 25
1000
0000
0001
0010
0001
0000
0000
1000
,  // measure 26
0100
1000
0000
0010
0000
0100
0000
0001
,  // measure 27
0010
1000
0100
1000
0000
0000
0000
0001
,  // measure 28
0000
0000
0001
0000
0010
0100
0010
0000
,  // measure 29
0000
1000
0000
0001
1000
0000
0000
1000
,  // measure 30
0001
0000
0001
0000
1000
0100
1000
0001
,  // measure 31
0000
0010
0100
0000
0100
0000
0010
0000
,  // measure 32
0000
1001
0000
0000
1001
0000
0000
1001
,  // measure 33
0000
0001
2000
0000
,  // measure 34
0000
0000
3000
0000
0010
0100
0000
0001
,  // measure 35
0010
0001
0000
1000
0000
0100
1000
0000
,  // measure 36
0010
0100
0010
0000
0002
0000
0000
0000
,  // measure 37
0000
0003
0020
0000
0000
0000
0000
0030
,  // measure 38
0200
0000
0000
0000
0000
0300
0000
0000
,  // measure 39
2002
0000
0000
0000
3003
0000
0000
0010
,  // measure 40
0001
0010
0001
0010
0001
0000
1000
0100
,  // measure 41
1000
0000
0001
0010
0100
0000
1000
0100
,  // measure 42
0010
0001
0000
0000
0000
1001
0000
0000
;
