#VERSION:0.83;
#TITLE:Valanga;
#SUBTITLE:(polysha Remix);
#ARTIST:polysha;
#TITLETRANSLIT:;
#SUBTITLETRANSLIT:;
#ARTISTTRANSLIT:;
#GENRE:;
#ORIGIN:;
#CREDIT:PaperBox440;
#BANNER:Valanga (polysha Remix).png;
#BACKGROUND:Valanga (polysha Remix)-bg.png;
#PREVIEWVID:;
#JACKET:Valanga (polysha Remix)-jacket.png;
#CDIMAGE:;
#DISCIMAGE:;
#LYRICSPATH:;
#CDTITLE:;
#MUSIC:Valanga (polysha Remix).mp3;
#OFFSET:0.000000;
#SAMPLESTART:73.800003;
#SAMPLELENGTH:22.199997;
#SELECTABLE:YES;
#BPMS:0.000=100.000;
#STOPS:;
#DELAYS:;
#WARPS:;
#TIMESIGNATURES:0.000=4=4;
#TICKCOUNTS:0.000=4;
#COMBOS:0.000=1;
#SPEEDS:0.000=1.000=0.000=0;
#SCROLLS:0.000=1.000;
#FAKES:;
#LABELS:0.000=Song Start;
#BGCHANGES:;
#KEYSOUNDS:;
#ATTACKS:
;

//---------------dance-single - ----------------
#NOTEDATA:;
#CHARTNAME:;
#STEPSTYPE:dance-single;
#DESCRIPTION:;
#CHARTSTYLE:;
#DIFFICULTY:Hard;
#METER:16;
#RADARVALUES:0.715056,0.638023,0.708000,0.164651,0.839720,608.000000,522.000000,86.000000,20.000000,0.000000,0.000000,0.000000,0.000000,0.000000,0.715056,0.638023,0.708000,0.164651,0.839720,608.000000,522.000000,86.000000,20.000000,0.000000,0.000000,0.000000,0.000000,0.000000;
#CREDIT:;
#NOTES:
// measure 0
0000
0000
0000
0000
,  // measure 1
1000
0000
1001
0000
0000
0001
0000
0100
0010
0100
0010
0100
0000
0000
0100
0000
,  // measure 2
0110
0000
0001
0000
0001
0100
0000
0100
0010
1000
0000
1000
0000
0010
0100
0010
,  // measure 3
0100
0010
0000
0000
1001
0000
0100
0000
0010
0100
0010
0001
1000
0000
1000
0001
,  // measure 4
0010
0100
0000
0100
0001
0010
0001
0000
1100
0000
2002
0000
3003
0000
0100
0100
,  // measure 5
0000
0000
0110
0000
0001
0010
1000
0000
1000
0000
0001
0010
1000
0100
0000
0001
,  // measure 6
0001
1000
0100
1000
0010
0000
0010
0100
0000
0100
0001
0010
0001
0000
1000
0000
,  // measure 7
2200
0000
0000
0000
0300
0000
0010
0000
3010
0000
0001
0000
1001
0000
0000
0010
,  // measure 8
1000
0100
0010
0010
0100
0010
0100
0000
1001
0000
0100
0000
0010
0100
0010
0000
,  // measure 9
1001
0000
1100
0000
1010
0000
0000
0000
0001
0000
1001
0000
1000
0000
0010
0100
,  // measure 10
0000
0100
0001
0010
0001
1000
0000
1000
0000
0100
0010
0100
0001
0001
0000
0000
,  // measure 11
1001
0000
1100
0000
0110
0000
0001
0000
0001
0000
1000
0001
0100
0001
0000
0000
,  // measure 12
0001
0010
0001
0000
1000
0100
0010
0010
0100
1000
0000
0000
0001
0010
0001
0000
,  // measure 13
2200
3300
1001
0010
0100
0100
0110
0001
,  // measure 14
1010
0000
1100
0000
1001
0000
0010
0010
0000
0100
0100
0010
1000
1000
0001
0010
,  // measure 15
0001
0100
0100
1000
0000
1000
0001
0010
0001
0100
0000
0100
0010
0000
0010
0000
,  // measure 16
1000
0100
1000
0001
0000
0001
0000
0100
0010
0100
0000
0000
1001
0000
0000
0100
,  // measure 17
0010
0100
0001
0000
0001
1100
0000
1000
0010
0100
0000
0100
0001
0010
0001
1000
,  // measure 18
1000
0000
0022
0000
0033
1100
0000
0000
0010
0000
0001
0000
0001
0000
0010
0100
,  // measure 19
0010
1000
1000
0001
0001
0000
0110
0000
0100
0010
1000
0000
1000
0100
0010
0100
,  // measure 20
0001
0001
1000
0000
1000
0000
0100
0010
0100
0001
1000
0000
0110
0000
1010
0000
,  // measure 21
1100
0000
0100
0010
0001
0000
0001
0000
1100
0000
1000
0010
0100
0000
0100
0001
,  // measure 22
0010
0001
1000
1000
0000
0100
0010
0100
0001
0000
0001
0000
2000
0000
3000
0000
,  // measure 23
1001
0000
0010
0100
0000
0010
0100
0100
0001
0010
0001
1000
0000
1000
0010
0100
,  // measure 24
0010
0001
1000
0000
0110
0000
0000
0001
0100
0000
0100
0001
0010
0001
1000
0000
,  // measure 25
1000
0000
0010
0100
0001
0000
0001
0000
1010
0000
0110
0000
0000
0100
0010
0000
,  // measure 26
0010
1000
0100
1000
0001
0000
0100
0100
0001
0010
0001
1000
0000
1000
0000
0000
,  // measure 27
0010
0100
0001
0000
1100
0000
1010
0000
0001
0001
0100
0010
0100
0000
0000
0000
,  // measure 28
1000
1000
0001
0001
0100
0010
0100
0000
0000
0001
1000
1000
0100
0000
0100
0010
,  // measure 29
0001
0000
1100
0000
1001
0000
0010
1010
0000
0000
0110
0000
0110
0000
0000
1010
,  // measure 30
0000
0011
1100
0000
1100
0000
0000
0000
1000
0000
1001
0000
0001
1000
0001
0000
,  // measure 31
1100
0000
0100
0010
0010
0000
1000
0001
1000
0000
0220
0330
0000
0000
0001
0100
,  // measure 32
0100
1000
1000
0001
0010
0001
0100
0100
1000
0000
1000
0001
0010
0100
0100
0001
,  // measure 33
0010
0001
1000
0000
1000
0000
0010
0100
0001
0001
0100
1000
0100
1000
0000
0000
,  // measure 34
2200
0000
3300
0001
0001
0000
0100
0001
0001
1000
0000
1000
0100
1000
0001
0000
,  // measure 35
0001
1000
0110
0000
0010
0001
1000
1000
0100
0010
0100
0001
0001
1000
0100
1000
,  // measure 36
0010
0000
0100
0100
0000
0001
0010
0001
1000
1000
0000
0000
1001
0010
0000
0010
,  // measure 37
0000
0100
0010
0100
0001
0001
1100
0000
1000
0010
0100
0000
0100
0001
0010
0001
,  // measure 38
1000
1000
0000
0100
0010
0010
0000
1000
0100
1000
0000
0011
0001
0000
1100
0000
,  // measure 39
1100
0000
0000
0000
1001
0000
1100
0000
1100
0000
0000
0010
0100
0000
0010
0001
,  // measure 40
0000
1000
1100
0000
0110
0000
1010
0000
0000
0100
0000
0001
0010
0001
0100
0100
,  // measure 41
1000
0000
1000
0001
0010
0001
0100
0000
0100
0000
0010
0001
1000
0100
0100
0010
,  // measure 42
0100
0010
0001
0000
1000
0000
0011
0000
0100
1000
0000
0110
0010
0001
1100
0000
,  // measure 43
1000
0001
0110
0000
0010
1000
0100
1000
0001
0001
0000
0000
0010
0100
1010
0100
,  // measure 44
1000
0110
0011
0001
0110
0010
1100
1000
,  // measure 45
0011
0000
1001
0000
1000
0110
0000
0010
0000
1100
0000
1000
0001
0000
0001
0000
,  // measure 46
2200
3300
1010
0000
2020
3030
0011
0220
0000
0330
0000
0000
1001
0000
1001
0000
,  // measure 47
0001
1100
0000
1000
0001
0001
0210
0000
0000
0300
1000
0000
1000
0000
0001
0010
,  // measure 48
0101
0010
0100
0000
1001
0000
0010
0000
0100
0100
0001
0000
0001
1000
0100
1000
,  // measure 49
0000
0010
0010
0000
0100
0100
0000
1000
1000
0001
0001
0000
0100
0000
0100
0000
,  // measure 50
1000
0000
0000
0000
;
