#VERSION:0.83;
#TITLE:ULTRiX;
#SUBTITLE:;
#ARTIST:Sky_Delta;
#TITLETRANSLIT:;
#SUBTITLETRANSLIT:;
#ARTISTTRANSLIT:;
#GENRE:;
#ORIGIN:;
#CREDIT:PaperBox440;
#BANNER:ultrix.png;
#BACKGROUND:ultrix-bg.png;
#PREVIEWVID:;
#JACKET:Ultrix-jacket.png;
#CDIMAGE:;
#DISCIMAGE:;
#LYRICSPATH:;
#CDTITLE:;
#MUSIC:ULTRiX.mp3;
#OFFSET:0.000000;
#SAMPLESTART:43.199997;
#SAMPLELENGTH:11.699997;
#SELECTABLE:YES;
#BPMS:0.000=300.000,
3.000=180.000,
298.000=110.000,
306.000=180.000,
308.000=110.000;
#STOPS:130.000=0.100,
151.500=0.100,
152.500=0.100;
#DELAYS:;
#WARPS:;
#TIMESIGNATURES:0.000=4=4;
#TICKCOUNTS:0.000=4;
#COMBOS:0.000=1;
#SPEEDS:0.000=1.000=0.000=0;
#SCROLLS:0.000=1.000;
#FAKES:;
#LABELS:0.000=Song Start;
#BGCHANGES:;
#KEYSOUNDS:;
#ATTACKS:
;

//---------------dance-single - ----------------
#NOTEDATA:;
#CHARTNAME:;
#STEPSTYPE:dance-single;
#DESCRIPTION:;
#CHARTSTYLE:;
#DIFFICULTY:Hard;
#METER:10;
#RADARVALUES:0.781060,0.908781,0.480756,0.311077,0.216811,580.000000,529.000000,51.000000,33.000000,0.000000,0.000000,0.000000,0.000000,0.000000,0.781060,0.908781,0.480756,0.311077,0.216811,580.000000,529.000000,51.000000,33.000000,0.000000,0.000000,0.000000,0.000000,0.000000;
#CREDIT:;
#NOTES:
// measure 0
0000
0000
0000
0110
,  // measure 1
0010
0000
1000
0100
1000
0001
0000
0001
,  // measure 2
0000
0100
0010
0100
0000
0001
1000
0001
,  // measure 3
0000
0100
0010
0100
1000
0001
0010
0001
,  // measure 4
1000
0100
1000
0001
0001
0010
0000
0100
,  // measure 5
0010
1000
0100
1000
0001
0000
0010
0100
,  // measure 6
0010
1000
0001
0100
0000
0010
1000
0100
,  // measure 7
1000
0001
0100
0010
0010
0001
1000
0100
,  // measure 8
1000
0001
0100
0100
0000
0010
0100
1000
,  // measure 9
0001
0011
0020
0000
,  // measure 10
0030
0000
1001
0000
0100
0010
0010
0100
,  // measure 11
0000
0000
0000
0000
2000
3000
2000
3000
,  // measure 12
0010
0010
0100
0001
0100
1000
0110
0000
,  // measure 13
0001
0100
0010
0000
0000
1000
0001
0000
,  // measure 14
0010
0010
1000
0000
0100
0000
0110
0000
,  // measure 15
0000
1001
0000
1010
,  // measure 16
0100
0010
0000
0000
0000
0110
0000
0001
,  // measure 17
1000
0100
0010
0100
0100
1000
0010
0002
,  // measure 18
0003
0001
0100
0100
0000
1000
0010
0100
,  // measure 19
0010
0001
0100
0100
1000
0010
0001
0010
,  // measure 20
0100
0000
0010
0000
0001
0000
1000
0000
1000
0000
0000
0000
0010
0100
0000
0010
,  // measure 21
1000
0000
0001
0000
0100
0000
0000
0010
1000
0000
0100
1000
0000
0001
0010
0000
,  // measure 22
0100
0000
0000
0000
0110
0000
0000
0000
1000
0000
0000
0001
0010
0100
1000
0000
,  // measure 23
0000
1000
0100
0010
1000
0100
0010
1000
,  // measure 24
0001
0100
0100
0000
1001
0220
0000
0330
,  // measure 25
0000
1000
0001
0010
0100
0010
0001
1000
,  // measure 26
0100
1000
0010
0100
0010
0001
1000
0001
,  // measure 27
0100
0010
1000
0100
1000
0010
0001
0001
,  // measure 28
1100
0000
1010
0000
0100
0100
1000
1000
,  // measure 29
0100
0100
0010
0010
0001
0001
1000
1000
,  // measure 30
0010
0010
0001
0001
1000
1000
0100
0100
,  // measure 31
0001
0010
0001
0000
1000
0100
1000
0000
0100
0010
0100
0000
0020
0000
0000
0000
,  // measure 32
0000
0000
0000
0000
0030
0000
0100
0010
,  // measure 33
0100
1000
0001
0001
0100
0010
0100
0000
,  // measure 34
1010
0000
0011
0100
0010
1000
0001
0100
,  // measure 35
0100
0010
0010
1000
0100
1000
0001
0001
,  // measure 36
0100
0010
0010
1000
0100
1000
0001
1000
,  // measure 37
0010
0100
0010
0001
0001
1000
0000
1010
,  // measure 38
0000
1001
0000
0010
0100
0100
1000
0001
,  // measure 39
0100
0010
1000
1000
0022
0033
2200
3300
,  // measure 40
0001
1000
0100
1000
0001
0010
0200
0300
,  // measure 41
0010
1000
0001
0100
0010
0001
1000
0100
,  // measure 42
1000
0010
0010
0100
0100
1000
0001
0001
,  // measure 43
0010
0100
0010
0001
1000
0100
1000
0010
,  // measure 44
0100
0010
0001
1000
0220
0330
1000
0100
,  // measure 45
0001
0001
0001
1000
0100
1000
0010
0001
,  // measure 46
1000
0100
1000
0000
0110
0000
1010
0000
,  // measure 47
0100
0000
0101
0000
0100
0010
1000
0100
,  // measure 48
1000
0001
0001
0100
0010
0100
0000
2002
,  // measure 49
0000
3003
0100
0010
0001
1000
1000
0020
,  // measure 50
0100
0000
0130
0000
0000
0000
1000
0000
0001
1000
0010
0000
0100
0000
0010
0000
,  // measure 51
0001
1000
1000
0000
0120
1000
0130
0001
,  // measure 52
0010
0000
0000
0000
1000
0000
0000
0000
1001
0000
1000
0000
0001
0000
0100
1000
,  // measure 53
0100
0000
0010
0000
0010
0000
1001
0100
0000
0000
1000
0000
0010
0000
0100
0000
,  // measure 54
0011
0000
1000
0000
0100
0010
1000
0000
0001
0000
1000
0000
0010
0000
0100
0000
,  // measure 55
0010
0000
0001
0000
1000
0010
1000
0010
1000
0000
0100
0010
0100
0000
2002
0000
,  // measure 56
3003
0000
0020
0000
0230
0000
0320
0000
0030
0000
0000
0010
0100
0000
1001
0000
,  // measure 57
0010
0000
0001
0010
1000
0000
0100
0000
1000
0000
0010
0100
0010
0000
0001
0000
,  // measure 58
0100
1000
0000
0000
0100
0000
0010
0001
1000
0000
0100
0000
1000
0000
0001
1000
,  // measure 59
0001
1000
0001
0000
0110
0000
0000
0000
1010
0000
0000
0000
1100
0000
0000
0000
,  // measure 60
0020
0000
0130
0200
0300
0010
1010
0100
,  // measure 61
0010
0000
0001
0000
1100
0010
0100
0000
1000
0000
0001
0000
0100
1000
0100
0000
,  // measure 62
0010
0000
0001
0000
1000
0000
0100
1000
0010
0000
0100
0000
0001
0010
0001
0010
,  // measure 63
0001
0000
1000
0000
0100
0001
1000
0000
0010
0000
0100
1000
0011
0000
0001
0000
,  // measure 64
1000
0010
0100
0000
1000
0000
0010
0001
0100
1000
0100
0000
0001
0000
1000
0000
,  // measure 65
0110
0000
0010
1000
0000
1000
0010
0000
0100
1000
0100
0000
0001
0000
0010
0000
,  // measure 66
0001
0010
1000
0000
0100
0000
1000
0010
0001
0000
0100
1000
0010
0000
0100
0001
,  // measure 67
0100
0000
1000
0010
1000
0000
0000
0000
0011
0000
0000
0000
0101
0000
0000
0000
,  // measure 68
0110
0000
0000
0000
0000
0000
1010
0000
0000
0000
0000
0000
2200
0000
0000
0000
0000
0000
3300
0000
0000
0010
0001
0000
,  // measure 69
0100
0010
1000
0100
1000
0010
0001
0010
,  // measure 70
0001
1000
0010
0010
0100
0100
1000
0000
,  // measure 71
0021
0001
1000
1030
,  // measure 72
2010
0000
0100
0000
3020
0000
0030
0200
,  // measure 73
0000
0300
0010
0000
1001
0000
0011
0000
,  // measure 74
0101
0000
0000
0000
0110
0000
0000
0000
1010
0000
0000
1000
0000
0000
0010
0000
,  // measure 75
0000
0000
0100
0000
0000
0000
0001
0000
1010
0000
0000
1000
0000
0000
1000
0000
,  // measure 76
0000
0010
0000
0000
0100
0000
0000
0000
0001
0000
1000
0000
0001
0000
1000
0000
,  // measure 77
0220
0330
0000
0000
0000
0000
0000
0000
;
