#TITLE:TRUE PAIN;
#SUBTITLE:(The Shitty chart);
#ARTIST:Jun feat. Shanita (SilvaGunner);
#TITLETRANSLIT:;
#SUBTITLETRANSLIT:;
#ARTISTTRANSLIT:;
#GENRE:;
#CREDIT:PaperBox440;
#BANNER:TRUE PAIN.png;
#BACKGROUND:TRUE PAIN-bg.png;
#LYRICSPATH:;
#CDTITLE:;
#MUSIC:TRUE PAIN.ogg;
#OFFSET:0.000000;
#SAMPLESTART:0.638298;
#SAMPLELENGTH:8.936170;
#SELECTABLE:YES;
#BPMS:0.000000=188.000000
;
#STOPS:
;
#BGCHANGES:;
#KEYSOUNDS:;
#ATTACKS:;

//---------------dance-single - ----------------
#NOTES:
     dance-single:
     :
     Hard:
     18:
     0.868213,1.250449,0.359213,0.854344,1.165015,626.000000,589.000000,37.000000,88.000000,0.000000,0.000000,0.868213,1.250449,0.359213,0.854344,1.165015,626.000000,589.000000,37.000000,88.000000,0.000000,0.000000:
// measure 0
0000
0000
0000
0000
,  // measure 1
0000
0000
0000
0000
,  // measure 2
0000
0000
0000
0000
,  // measure 3
0000
0000
0000
0000
,  // measure 4
0000
0000
0000
0000
0001
0000
0001
0010
,  // measure 5
0100
0010
1000
0000
1000
0100
0001
1000
,  // measure 6
0001
0000
0010
0000
0100
0000
0010
0100
,  // measure 7
0000
0100
0001
0000
1000
0000
1100
0000
,  // measure 8
0110
0000
0000
0000
1001
0000
0000
1000
0010
0000
0000
0010
0100
0000
0000
0100
,  // measure 9
0001
0000
0000
0001
1000
0000
0000
1000
0000
0100
0000
0000
0110
0000
0000
0010
,  // measure 10
1000
0000
0000
1001
0000
0000
1001
0000
0000
1001
0000
0000
0010
0000
0000
0010
,  // measure 11
0100
0000
0000
0100
1000
0000
0000
1000
0001
0000
0000
0001
0010
0000
0000
0010
,  // measure 12
0100
0000
0000
0100
1000
0000
0000
1000
0010
0000
0100
0010
0000
0010
0001
0000
,  // measure 13
0001
1000
0000
0000
1000
0000
0010
0000
0000
0010
0100
0000
0000
0100
0010
0000
,  // measure 14
0001
0000
1000
0000
0010
0000
0100
0000
0010
1000
0000
0000
1000
0001
0000
0000
,  // measure 15
0001
0000
0010
0100
0000
0000
0100
0000
0000
0010
0010
1000
0000
0000
1000
0000
,  // measure 16
0001
0000
0100
0000
0000
0000
0010
0100
2000
0000
0000
0000
0000
0000
3000
0000
,  // measure 17
0010
0010
0000
0100
1000
0000
1000
0000
0010
0001
0000
0000
0010
0000
0000
0000
,  // measure 18
0110
0000
0000
0000
1000
0000
1000
0001
0000
0001
0000
0000
1000
0000
0000
0000
,  // measure 19
1001
0000
0000
0010
0000
0100
0100
0000
0000
0010
0000
0000
0100
0000
1000
0000
,  // measure 20
0000
1000
0000
0001
0000
0000
0001
0000
1000
0000
0010
0010
0000
0100
0000
0000
,  // measure 21
0010
0000
0001
0000
0000
1000
1000
1000
1000
0000
0000
0000
0110
0000
0000
0000
,  // measure 22
0110
0000
0000
0001
0000
0001
1000
0000
0000
1000
0000
0000
0011
0000
0000
0000
,  // measure 23
1001
0000
0000
0000
0010
1000
1000
0000
0001
0000
0001
0000
0100
0000
0000
0100
,  // measure 24
0010
0000
0010
0000
1000
0001
0000
0000
0010
0000
0100
0000
0010
0000
1000
0000
,  // measure 25
0000
0000
1001
0000
0000
0010
0000
0100
0000
0100
0000
0000
1000
0000
0000
1001
,  // measure 26
0000
0000
0100
0000
0000
0100
0010
0001
1000
0100
0010
0100
0010
1000
0001
0010
,  // measure 27
0100
0010
0100
1000
0000
0001
0001
0000
0000
0001
0000
0000
0100
0010
0100
0001
,  // measure 28
0000
0001
1000
0000
1000
0000
0001
0000
0010
0000
0100
0000
1000
0000
0001
0000
,  // measure 29
0001
1000
0000
0010
0000
0010
0100
0000
0001
0000
0001
0000
1000
0000
0010
0100
,  // measure 30
0010
0100
0010
0100
0001
0000
0000
0001
0000
0000
0100
0010
0100
0000
1000
0000
,  // measure 31
0000
1000
0000
0001
0000
0000
0001
1000
0000
0010
0000
0100
0000
0100
1000
0000
,  // measure 32
0001
0000
0001
0000
0001
0000
0000
0000
0110
0000
0000
0010
0000
1100
0000
0000
,  // measure 33
1000
0000
0011
0000
0000
0010
0100
0000
1100
0000
0000
0000
1001
0000
0000
0010
,  // measure 34
1000
0020
0030
0100
0000
0010
0000
0100
0001
1000
0000
0000
0010
0100
0200
0300
,  // measure 35
0000
0001
0001
1000
0000
1000
0000
0000
0110
0000
0000
0000
0110
0000
0000
0000
,  // measure 36
0001
1000
0010
0000
0000
0010
0000
0100
0000
0001
0000
1000
0001
0000
0001
0000
,  // measure 37
0100
0010
0100
0000
1001
0000
1001
0100
,  // measure 38
0010
0000
0100
0000
0000
0000
0010
0000
1000
0000
0001
0001
0001
0000
0100
0000
,  // measure 39
0010
0010
0000
1000
0001
0000
0001
0100
0000
0010
0100
0000
1000
0001
0000
0001
,  // measure 40
0000
1000
0000
0100
0010
0100
0000
0001
0000
1000
0010
0010
0100
0000
0100
0000
,  // measure 41
0001
1000
0000
0010
0100
0001
0000
0001
0000
1000
0000
0000
1001
0000
0000
0000
,  // measure 42
0100
0000
0000
0000
0000
1000
0000
0000
0010
0000
0000
0001
0000
0100
0000
0000
,  // measure 43
1000
0000
0010
0000
0000
0010
0100
0000
0001
0000
0000
1000
0000
0001
0001
0000
,  // measure 44
0100
0000
0000
0010
0000
0100
0000
0000
0010
0000
1000
0100
0000
0010
0001
0000
,  // measure 45
0100
0000
1000
0010
0000
0010
0000
0000
0001
0100
0000
0010
0000
0100
0010
0000
,  // measure 46
1000
0000
0100
0001
0000
0000
0001
0000
0100
0000
0000
0010
0000
0100
0000
0000
,  // measure 47
0010
0000
0001
1000
0000
0001
0000
0000
1000
0000
0001
0100
0000
0010
0100
0000
,  // measure 48
0001
0000
1000
0000
0000
1000
0000
0000
0110
0000
0000
0000
0110
0000
0000
0000
,  // measure 49
1001
0000
0100
0000
0100
0000
0000
0010
,  // measure 50
0100
0010
0000
1000
0000
1000
0001
0000
,  // measure 51
1000
0010
0100
0000
0001
0000
0001
1000
,  // measure 52
1000
0100
0000
0000
0010
0100
0010
0010
,  // measure 53
0000
1000
0000
1000
0001
0010
0100
0000
,  // measure 54
0000
1000
0100
0010
0100
0000
0001
0001
,  // measure 55
1000
0000
1000
0010
0000
0100
0010
0100
,  // measure 56
0000
0001
0000
0001
1000
0010
0100
0000
,  // measure 57
0010
0000
0000
1000
0000
0000
1001
0000
0100
0000
0100
0010
,  // measure 58
1000
0000
0000
1001
0000
0001
0100
0000
0100
0100
0000
0010
,  // measure 59
1000
0000
0100
0000
0000
0100
0000
0010
1000
0000
1000
0000
,  // measure 60
0000
0100
0001
0000
0000
0001
0000
0100
0000
0000
0100
0010
,  // measure 61
0000
1000
0000
1000
0001
0000
0010
0100
0000
0100
0000
0000
,  // measure 62
1001
0000
0000
1001
0000
0000
0100
0000
1000
0001
0000
0001
,  // measure 63
0000
0010
0000
0100
0010
1000
0001
0000
0001
1000
0000
1000
,  // measure 64
0010
0000
0010
0000
0100
0000
0001
0001
1000
0000
1000
0001
,  // measure 65
0000
0010
0000
0010
0100
0000
0100
0000
0000
1001
0000
0000
,  // measure 66
0010
0000
0100
0000
0100
0010
0010
0000
0001
0100
0000
0010
0000
1000
0000
0000
,  // measure 67
1000
0000
0001
0000
0000
0001
0000
1000
0000
0010
0000
0010
0000
0100
0000
0000
,  // measure 68
1000
0021
0030
0100
0010
1000
0001
0000
0010
0100
0000
0010
2000
3000
0000
0001
,  // measure 69
0002
0003
0000
0001
0000
1000
0000
0010
0000
0001
0200
0300
0010
0100
0000
0000
,  // measure 70
1000
0000
0001
0001
0000
0100
0000
0010
0000
0100
0010
0000
1000
0001
0000
0000
,  // measure 71
0100
0100
0020
0030
1000
1000
0001
0000
,  // measure 72
0001
0000
1000
0000
0100
0000
0010
0000
0100
0000
0000
0000
0000
0000
0000
0200
,  // measure 73
0302
2003
3020
0230
0302
0203
0320
2030
3002
0203
0320
0030
0002
0203
0300
0020
,  // measure 74
2030
0000
3002
0000
0003
2000
3000
0000
0020
0030
0200
0320
0030
0020
2030
3002
,  // measure 75
0023
0000
0030
0200
0300
2000
3002
0023
0230
0300
0020
2030
3002
0023
0230
0300
,  // measure 76
0020
0030
2000
3000
0001
0001
0001
1000
0210
0300
0010
0000
1002
0003
0000
0100
,  // measure 77
0010
2000
3000
0001
0020
0230
0320
0030
1000
0001
0010
0100
0020
2030
3002
0023
,  // measure 78
0230
0000
0000
0320
2030
3000
0002
0023
0230
0320
2030
3002
0203
0320
2030
3002
,  // measure 79
0023
0230
0320
2030
3002
0023
0230
0300
0000
2000
3020
0032
2003
3010
0210
0320
,  // measure 80
0032
2003
3020
0230
0320
2030
3002
0003
1000
0000
0000
0000
0000
0000
0000
0000
;
