#VERSION:0.83;
#TITLE:THE SAFARI;
#SUBTITLE:- NEETs ver. -;
#ARTIST:Neets;
#TITLETRANSLIT:;
#SUBTITLETRANSLIT:;
#ARTISTTRANSLIT:;
#GENRE:;
#ORIGIN:;
#CREDIT:PaperBox440;
#BANNER:THE SAFARI - NEETs ver. -.png;
#BACKGROUND:THE SAFARI - NEETs ver. --bg.png;
#PREVIEWVID:;
#JACKET:THE SAFARI - NEETs ver. --jacket.png;
#CDIMAGE:;
#DISCIMAGE:;
#LYRICSPATH:;
#CDTITLE:;
#MUSIC:THE SAFARI - NEETs ver. -.mp3;
#OFFSET:0.000000;
#SAMPLESTART:23.600000;
#SAMPLELENGTH:19.199999;
#SELECTABLE:YES;
#BPMS:0.000=150.000;
#STOPS:;
#DELAYS:;
#WARPS:;
#TIMESIGNATURES:0.000=4=4;
#TICKCOUNTS:0.000=4;
#COMBOS:0.000=1;
#SPEEDS:0.000=1.000=0.000=0;
#SCROLLS:0.000=1.000;
#FAKES:;
#LABELS:0.000=Song Start;
#BGCHANGES:;
#KEYSOUNDS:;
#ATTACKS:
;

//---------------dance-single - ----------------
#NOTEDATA:;
#CHARTNAME:;
#STEPSTYPE:dance-single;
#DESCRIPTION:;
#CHARTSTYLE:;
#DIFFICULTY:Hard;
#METER:14;
#RADARVALUES:0.557320,0.680167,1.002932,0.841443,0.165739,459.000000,341.000000,118.000000,99.000000,0.000000,0.000000,0.000000,0.000000,0.000000,0.557320,0.680167,1.002932,0.841443,0.165739,459.000000,341.000000,118.000000,99.000000,0.000000,0.000000,0.000000,0.000000,0.000000;
#CREDIT:;
#NOTES:
// measure 0
0000
0000
0011
1000
,  // measure 1
1100
0010
1001
0100
,  // measure 2
0011
0000
0000
0000
1000
0000
0000
0000
1100
0000
0000
0000
1001
0000
0000
0010
,  // measure 3
0100
0010
1000
0001
1000
0000
0010
0000
1001
0000
0000
0000
1000
0000
0000
0000
,  // measure 4
1100
0010
1010
1100
,  // measure 5
0001
0011
1001
0110
,  // measure 6
2000
3000
0002
0000
0103
1000
2000
0000
,  // measure 7
0000
0000
0000
0000
,  // measure 8
0000
3000
0001
0001
0010
0100
0020
0000
,  // measure 9
0000
0000
0000
0000
0000
0000
0000
0000
0030
0000
1000
0001
0000
0000
1100
0000
,  // measure 10
0000
1010
0000
0001
0100
0000
0210
0000
,  // measure 11
0000
0000
0000
0000
,  // measure 12
0300
0000
0000
0000
0001
0000
0001
0000
0010
0100
0010
0000
2000
0000
0000
0000
,  // measure 13
0000
0000
0000
0000
0000
3000
0001
0000
,  // measure 14
1100
0000
0000
0000
0001
0010
0001
0000
1000
0000
1000
0000
0220
0000
0000
0000
,  // measure 15
0000
0330
0000
0001
0011
1010
0220
0000
,  // measure 16
0330
0000
1000
1100
1001
0022
0000
0033
,  // measure 17
0000
0000
0100
0110
1010
2002
0000
3003
,  // measure 18
0000
0000
0100
1010
1001
0011
0220
0000
,  // measure 19
0330
0000
0000
1000
1001
0011
2002
0000
,  // measure 20
0000
3003
0000
0100
0110
1010
2002
0000
,  // measure 21
0000
0000
3003
0000
0000
0001
2000
0000
,  // measure 22
3002
0203
0320
2030
,  // measure 23
0000
3000
0001
0011
0110
1100
2002
0000
,  // measure 24
0000
0000
3003
0010
0100
0110
2020
0000
,  // measure 25
0000
3030
0000
1001
1100
0011
0002
0000
,  // measure 26
0003
0000
0000
0110
1001
1100
1010
0220
,  // measure 27
0000
0330
0000
0100
0011
1001
1100
2002
,  // measure 28
0000
3003
0000
1001
1100
1010
0220
0000
,  // measure 29
0000
0000
0330
0000
0000
0000
2000
0002
,  // measure 30
3000
0000
0003
0000
0100
0010
0100
0000
0001
0010
1000
0001
1000
0000
0100
0000
,  // measure 31
0010
0000
0100
0010
0100
0000
1000
0000
2002
0000
0000
3003
0000
0000
0100
0000
,  // measure 32
0110
0000
1000
0000
1001
0000
0000
0000
0001
0010
1000
0000
0000
0000
0100
0000
,  // measure 33
0110
0000
1010
0000
0000
0000
0001
0010
2000
0000
3000
0000
0000
0000
0110
0000
,  // measure 34
1010
0000
1001
0000
0000
0000
0010
0100
0010
0100
0000
0000
0001
0000
1001
0000
,  // measure 35
1100
0000
0100
0000
0001
0010
1000
0000
0200
0000
0300
0000
0000
0000
0010
0000
,  // measure 36
1010
0000
1000
0001
1000
0000
0010
0100
0010
0000
0000
0000
0110
0000
1010
0000
,  // measure 37
1001
0000
0001
0000
0000
0000
1000
0001
1000
0001
2000
0000
0000
0000
0000
3000
,  // measure 38
0002
0000
0003
1000
,  // measure 39
2002
0000
0000
3003
,  // measure 40
0000
0000
0100
0000
0010
0100
0010
0000
0001
0000
0002
0000
0000
0000
0000
0000
,  // measure 41
0000
0000
0000
0000
0003
0000
1000
0000
1000
0000
0001
0010
0001
0000
1000
0000
,  // measure 42
0200
0000
0000
0000
0300
0000
0010
0020
,  // measure 43
0000
0000
2030
0000
0000
0000
3001
0000
0010
0001
0000
0000
0100
0010
0100
0000
,  // measure 44
1000
2000
0000
0000
0000
0000
3000
0000
,  // measure 45
0001
1000
0001
0000
0100
0010
0100
0000
0000
0001
0000
0000
0200
0000
0320
0000
,  // measure 46
0030
0000
1000
0001
2000
0000
0000
0000
0000
0000
3000
0000
0000
0000
0001
0010
,  // measure 47
0002
0000
0000
0000
0000
0003
0000
0000
1000
0000
1100
0000
0001
0000
1001
0000
,  // measure 48
0000
0000
0010
0000
0000
0000
0100
0010
0100
0000
0000
0000
0100
0010
0200
0000
,  // measure 49
0000
0000
0300
0000
0000
0000
0002
0000
0000
0003
1000
0000
1000
0100
0010
0000
,  // measure 50
0001
0010
0100
0000
1000
0000
1000
0000
1001
0000
0000
0000
0100
0010
0100
0000
,  // measure 51
0000
0001
0010
0100
0000
0000
2000
0000
0000
0000
0000
0000
0000
0000
0000
0000
,  // measure 52
3000
0001
1001
0000
0220
0000
0330
0000
,  // measure 53
0001
0000
1001
0000
1000
0000
0010
0100
0010
0000
0000
0000
1001
0000
0000
0000
,  // measure 54
1000
0100
0010
0100
0000
0000
0001
0000
1001
0000
0000
0000
1000
0000
0000
0000
,  // measure 55
0220
0000
0000
0000
0330
0000
0000
0000
0001
0010
0000
0000
1000
0000
0000
0000
,  // measure 56
2002
0000
0000
0000
0000
0000
0000
0000
0000
3003
0000
0000
0220
0000
0000
0000
,  // measure 57
0330
0000
1000
1001
0011
0100
2002
0000
,  // measure 58
3003
0000
0100
0110
1010
1001
0220
0000
,  // measure 59
0330
0000
0001
1001
1000
1100
0022
0000
,  // measure 60
0033
0000
0100
0110
1001
0001
2002
0000
,  // measure 61
3003
0000
0100
0110
1010
0001
0220
0000
,  // measure 62
0330
0000
1000
1001
0011
0100
2200
0000
,  // measure 63
0000
3300
0000
0002
,  // measure 64
2003
3020
0230
0302
,  // measure 65
0000
0003
1000
1100
0100
0110
2002
0000
,  // measure 66
3003
0000
0001
1001
1000
0110
0220
0000
,  // measure 67
0330
0000
0001
0011
1000
0100
2200
0000
,  // measure 68
3300
0000
0001
1001
1000
0100
0022
0000
,  // measure 69
0033
0000
0010
0110
1000
0001
0220
0000
,  // measure 70
0330
0000
0001
1001
1000
0010
2002
0000
,  // measure 71
0000
3003
0000
0200
,  // measure 72
0020
0300
2030
0000
3002
0000
0003
0000
;
