#VERSION:0.83;
#TITLE:Symphonic Tear;
#SUBTITLE:;
#ARTIST:BEMANI Sound Team "TAG";
#TITLETRANSLIT:;
#SUBTITLETRANSLIT:;
#ARTISTTRANSLIT:;
#GENRE:;
#ORIGIN:;
#CREDIT:;
#BANNER:Symphonic Tear.png;
#BACKGROUND:;
#PREVIEWVID:;
#JACKET:Symphonic Tear-jacket.png;
#CDIMAGE:;
#DISCIMAGE:;
#LYRICSPATH:;
#CDTITLE:cdtitle.png;
#MUSIC:Symphonic Tear.mp3;
#OFFSET:0.000000;
#SAMPLESTART:0.800000;
#SAMPLELENGTH:12.800000;
#SELECTABLE:YES;
#BPMS:0.000=150.000;
#STOPS:;
#DELAYS:;
#WARPS:;
#TIMESIGNATURES:0.000=4=4;
#TICKCOUNTS:0.000=4;
#COMBOS:0.000=1;
#SPEEDS:0.000=1.000=0.000=0;
#SCROLLS:0.000=1.000;
#FAKES:;
#LABELS:0.000=Song Start;
#BGCHANGES:;
#KEYSOUNDS:;
#ATTACKS:
;

//---------------dance-single - ----------------
#NOTEDATA:;
#CHARTNAME:;
#STEPSTYPE:dance-single;
#DESCRIPTION:;
#CHARTSTYLE:;
#DIFFICULTY:Hard;
#METER:15;
#RADARVALUES:0.686431,0.720753,0.460646,0.222381,0.444762,605.000000,547.000000,58.000000,28.000000,0.000000,0.000000,0.000000,0.000000,0.000000,0.686431,0.720753,0.460646,0.222381,0.444762,605.000000,547.000000,58.000000,28.000000,0.000000,0.000000,0.000000,0.000000,0.000000;
#CREDIT:;
#NOTES:
0000
0000
0000
0000
,
0000
0000
0000
0000
,
0000
0000
0000
0000
,
0000
0000
0000
0000
,
0000
0000
0000
0000
1100
1000
0010
0100
,
0010
0001
1001
0010
0000
0010
0110
0000
,
0010
1000
0100
1000
0001
0010
0000
0010
,
0100
1000
0100
0000
1000
0000
1100
0000
,
1010
0000
0110
0100
0101
0000
0001
0001
,
0010
0100
0010
1000
1000
0100
0010
0100
,
0100
0001
0001
0010
0110
1000
1000
0100
,
0010
0100
0001
0001
0010
0100
0001
1000
,
1000
0010
0100
0010
0110
0000
1000
1000
,
0100
0010
0100
0100
0001
0010
0001
0001
,
0010
0010
0100
1000
1000
0010
0100
0010
,
0100
0001
0001
0100
1000
1010
0010
0110
,
0000
0000
0101
0000
0001
0000
0011
0000
0000
0000
1001
0000
0000
0000
1000
0100
,
0010
0002
0000
0000
0003
0000
1000
0001
1000
0001
1000
0001
1000
0001
0010
0000
,
0100
0100
1000
1001
0001
0010
0100
0010
,
1000
1000
0200
0310
0010
0001
1000
1000
,
0020
0000
0000
0030
1000
1000
0100
0010
,
1000
0001
1100
0000
0010
0100
0110
0001
,
0010
0020
0000
0000
0030
0100
0100
0010
,
0010
0100
1001
1001
0010
0100
0010
0001
,
0000
1001
1001
1001
0010
0100
0010
0001
,
0010
1000
1000
0100
0110
0000
1010
0000
,
1100
0000
1000
1100
0001
0010
0010
0000
,
0100
0000
0010
0000
1000
0000
1000
0000
0001
0000
0010
0000
0001
0010
0000
0000
,
0001
0000
0010
0000
0100
1000
0000
0000
0100
0000
0010
0000
1000
0000
0000
0000
,
1000
1000
0001
0001
0010
0100
0100
0000
,
1001
0000
1001
0000
0010
0100
0001
1000
,
1001
0000
1100
0010
0100
0100
0010
0010
,
1000
0000
1001
0000
0011
0100
0100
0010
,
1000
0100
0001
0010
1100
0010
0001
0001
,
1000
1000
1010
0000
0110
0100
0101
0000
,
0001
0010
0100
0000
0000
0000
1000
0100
0010
0000
0100
0010
0000
0001
0000
0000
,
0001
0000
0010
0100
0010
0100
0010
0000
1000
0001
1000
0001
1000
0010
1000
0010
,
1000
0010
1000
0000
0000
0000
0001
0000
0100
0000
0100
0000
0100
0000
0010
0000
,
0001
0010
0000
0100
0000
0000
0100
1000
0100
0001
0000
0010
0000
0010
0001
1000
,
0000
1000
0000
1000
0000
0100
0010
0000
0010
0000
0010
0000
1000
0001
1000
0001
,
1000
0001
0010
0000
0010
0100
0010
0100
0010
0000
0010
0000
0101
0000
0000
0000
,
0011
0100
0100
0010
0100
0010
1000
0000
,
1000
0001
1000
0001
1000
0001
0000
0000
0010
0000
0100
0000
0010
0000
0100
0000
,
1000
0000
0001
0000
0001
0000
0010
0000
0100
0000
0000
0010
0000
0010
1000
0000
,
2000
0000
3000
0000
0001
0010
0100
1000
0000
0000
1000
0010
1000
0000
0001
1000
,
0001
0100
0100
0010
0020
0000
0000
0000
,
0130
0000
0000
0000
1000
0100
0010
0001
0000
0000
0010
0100
0010
0100
0010
0100
,
0000
0000
0200
0000
0000
0000
0300
0000
1000
0001
1000
0001
1000
0001
0000
0000
,
2000
0000
3002
0000
0000
0013
0000
0000
2020
0000
0000
0000
3030
0000
0000
0100
,
0010
0100
0000
0000
0100
0000
0010
0000
1000
0100
1000
0000
0001
0010
0001
0000
,
0100
0000
0200
0000
0000
0000
0300
0000
0010
0000
0010
0100
0010
0100
0010
0000
,
1000
0000
2000
0000
0000
0000
3000
0010
0000
0010
0000
0000
1000
0001
1000
0001
,
1000
0100
0200
0000
0320
0000
0030
0000
,
0001
0010
0000
0000
1000
0000
2020
0000
0000
0000
0000
0000
0000
0000
3030
0000
,
0000
0000
0100
0000
0110
0000
0010
0000
0011
0000
1000
0001
1000
0001
1000
0001
,
0000
0000
0020
0000
0000
0000
0030
0000
0000
1000
0000
0000
1000
0001
0000
0001
,
0010
0000
1000
0000
1001
0000
0001
0000
0022
0000
0000
0000
0033
0000
1000
0100
,
0000
0000
0010
0000
0010
0000
0100
0000
0001
1000
0001
0000
0010
0000
0020
0000
,
0000
0000
0130
2000
0000
0000
3000
0000
0010
0100
0010
0100
0010
0000
0000
0000
,
1000
0000
1100
0000
0010
0000
0010
0000
1000
0001
1000
0000
0100
0000
0100
0000
,
0001
0011
0011
0000
2000
0000
0000
3000
,
0010
0100
0000
0000
0001
0000
2002
0000
0000
0000
0000
0000
3003
0000
0000
0000
,
1000
0000
0000
0000
1100
0000
0100
0000
0010
0000
1010
0000
0000
0100
0000
0100
,
0000
0000
1001
0000
0001
0000
0011
0000
0200
0000
0000
0000
0300
0020
0000
0000
,
0000
0000
0000
0000
0000
0000
0000
0000
0130
0000
0000
0000
0001
1000
0001
1000
,
0001
1000
0001
0000
0010
0000
0010
0000
0100
0000
1000
0000
0001
0000
0000
0000
,
0100
0010
0100
0010
0100
0010
0100
0000
0001
0000
0010
0000
1000
0001
1000
0001
,
1000
0001
1000
0000
0010
0000
0100
0000
0100
0000
0000
0000
1000
0010
1000
0010
,
1000
0000
0001
0000
0011
0000
1000
0000
1100
0000
0000
0010
0100
0010
0001
0000
,
0001
0000
0010
0100
1000
0000
0000
0000
1001
0000
0000
0000
1000
0001
1000
0010
,
0100
0010
0000
1000
0001
0000
0010
0000
0100
0000
0010
0000
0001
0000
0001
1000
,
0000
1000
0100
0000
0010
0000
0010
0000
0100
0000
1000
0000
1100
0000
0000
0000
,
1000
0001
0011
0100
0020
0000
0000
0030
,
1000
0100
0010
1001
0100
0010
0001
0000
0000
1000
0001
1000
0001
1000
0001
0000
,
0010
0000
0010
0000
0100
0000
0000
0000
1000
0001
1000
0001
1000
0000
0000
1000
,
0001
1000
0001
1000
0000
0000
1000
0001
1000
0001
1000
0000
0000
0000
0000
0000
;

//---------------dance-single - ----------------
#NOTEDATA:;
#CHARTNAME:;
#STEPSTYPE:dance-single;
#DESCRIPTION:;
#CHARTSTYLE:;
#DIFFICULTY:Medium;
#METER:13;
#RADARVALUES:0.489011,0.539671,0.206497,0.198555,0.007942,431.000000,405.000000,26.000000,25.000000,0.000000,1.000000,0.000000,0.000000,0.000000,0.489011,0.539671,0.206497,0.198555,0.007942,431.000000,405.000000,26.000000,25.000000,0.000000,1.000000,0.000000,0.000000,0.000000;
#CREDIT:;
#NOTES:
0000
0000
0000
0000
,
0000
0000
0000
0000
,
0000
0000
0000
0000
,
0000
0000
0000
0000
,
0000
0000
0010
0010
,
1000
0100
1000
0000
0011
0000
1001
0000
,
0010
0100
0010
0000
1100
0000
1010
0000
,
0100
0001
0100
0000
1000
0001
1000
0000
,
1001
0000
0010
0110
0000
1000
0000
1000
,
0010
0000
0010
0001
0000
1000
0100
0001
,
0000
0001
0000
1000
1000
0000
0001
0010
,
1000
0100
0000
0001
0000
0001
1000
0010
,
0010
0100
0100
0001
0000
0001
1000
0100
,
0100
0010
0000
0010
1000
0000
1000
0100
,
0001
0000
0001
1000
1000
0000
0010
0001
,
0000
0010
0010
0000
0100
0100
0001
0010
,
0011
0000
1000
0100
0110
0000
0000
0001
,
1000
0001
1000
0001
1000
0010
0010
0010
,
0010
0010
0100
1000
0010
0000
0001
1000
,
0000
1000
0010
0000
0010
0100
0000
0100
,
0001
0000
0001
1000
0100
1000
0010
0000
,
0010
0100
0001
0000
0001
1000
0100
1000
,
0010
0001
0000
0001
0010
0100
0000
0100
,
0000
1000
0001
1000
0010
0000
0010
0100
,
0000
0100
0001
0000
0001
0000
1000
0100
,
1000
0010
0000
0010
0200
0000
0001
0001
,
2301
0000
0010
0010
3010
0000
0001
0000
,
0011
0000
1000
0100
0000
0100
0010
0000
,
1000
0100
1000
0001
0000
0001
0010
0100
,
0000
0100
0010
1000
0000
1000
0100
0001
,
0000
0001
0010
0000
0010
0000
0100
1000
,
0000
1000
0001
0000
0010
0000
0010
0100
,
1000
0000
1000
0001
0000
0010
0000
0010
,
0100
0000
1000
0000
2000
0000
0000
3000
,
0001
0000
1001
0000
1000
0000
1000
0001
,
1000
0001
1000
0001
1000
0001
1000
0000
,
0010
0100
0100
0001
0010
0010
1000
0100
,
0001
0001
1000
0100
1000
0010
0010
0100
,
0001
1000
0000
1000
0010
0100
0001
0001
,
0000
0010
0100
1000
1000
0000
0010
0010
,
0010
0000
0100
0100
0100
0001
1000
0100
,
1000
0000
0010
1000
0100
1000
0000
0010
,
0000
0110
0000
1000
2002
0000
0000
0000
,
3003
0000
0010
0100
0200
0000
0000
0000
,
0300
0000
0001
0010
1000
0000
0200
0000
0000
0000
0000
0000
0000
0000
0000
0000
,
0000
0300
0010
0020
0000
0000
0000
0000
,
0030
0000
0010
0000
1000
0100
0010
0000
0000
0000
0001
0000
0001
0000
1000
0000
,
1000
0010
0100
0010
0001
0001
1000
1000
,
0010
0100
0010
1000
0001
0000
0001
0000
,
0110
0000
1100
0000
0010
0010
0200
0000
,
0300
0010
0001
1000
1000
0010
0100
0010
,
1000
0000
1000
0001
0010
0001
0010
0100
,
0100
0010
1000
0000
1000
0001
0010
0100
,
0100
0010
2020
3030
,
0100
0000
1100
0000
0001
0010
0001
0100
,
0010
0200
0000
0300
1000
1000
0001
0010
,
0001
0100
0000
0010
0020
0000
0030
0000
,
0100
0100
1000
0002
0003
0010
0000
1000
,
0100
0020
0000
0030
0000
0001
0001
1000
,
1000
0020
0000
0030
0000
0100
0100
0001
,
1000
0100
1000
0000
2020
0000
3030
0000
,
0100
0001
0001
0000
0020
0000
0030
0000
,
0100
0000
1100
0001
2002
0000
3003
0000
,
1010
0100
0100
0000
2000
3000
0020
0000
,
0000
0000
0030
0000
1000
0001
1000
0001
,
1000
0001
1000
0000
0010
0100
0010
1000
,
0100
1000
0001
0010
0010
0000
0100
1000
,
0100
0001
0010
1000
0100
0010
0100
0000
,
0001
1000
1100
0000
0010
0001
1000
0100
,
0001
0000
0010
1000
0100
0000
0010
0001
,
1000
0100
1000
0000
0100
0010
0100
0001
,
0001
1000
0100
1000
0000
1000
1001
0000
,
0011
0000
0000
0000
0101
0000
0010
0000
0220
0000
0000
0000
0000
0330
0000
0000
,
1000
0100
1000
0000
0010
0010
0010
0010
,
0010
0010
0010
0100
1000
0001
0001
0000
,
0010
0010
0000
1000
1000
0000
0000
0000
;

//---------------dance-single - ----------------
#NOTEDATA:;
#CHARTNAME:;
#STEPSTYPE:dance-single;
#DESCRIPTION:;
#CHARTSTYLE:;
#DIFFICULTY:Easy;
#METER:7;
#RADARVALUES:0.381225,0.419744,0.246208,0.190612,0.000000,336.000000,305.000000,31.000000,24.000000,0.000000,0.000000,0.000000,0.000000,0.000000,0.381225,0.419744,0.246208,0.190612,0.000000,336.000000,305.000000,31.000000,24.000000,0.000000,0.000000,0.000000,0.000000,0.000000;
#CREDIT:;
#NOTES:
0000
0000
0000
0000
,
0000
0000
0000
0000
,
0000
0000
0000
0000
,
0000
0000
0000
0000
,
0000
0000
0010
1010
,
0100
0101
0001
1001
,
1000
1100
0010
1010
,
0100
0101
0010
0010
,
0010
0000
0110
0000
1000
0001
1000
0000
,
0010
0100
0010
0000
1000
0000
1000
0000
,
0001
0000
0001
0000
0010
0100
0010
0000
,
1000
0001
1000
0000
0010
0000
0010
0000
,
0100
0100
0001
0000
0001
0000
0100
0010
,
0100
0000
0001
1000
0001
0000
0100
0000
,
0100
0000
0010
0000
0010
1000
1000
0001
,
0001
0100
0010
1010
,
1000
1100
0010
0110
,
0001
1000
0001
0000
0010
0000
0010
0000
,
0010
0100
0110
0001
,
0010
0000
1000
0001
1000
0000
0001
0000
,
0100
0100
0010
1000
,
1000
0001
0001
0010
,
0010
0000
0100
0000
1000
0000
0010
0100
,
0010
0000
0000
1000
1000
0000
0010
0000
,
1000
0001
1000
0000
0010
0000
0000
0000
,
0100
0100
0001
0001
,
0100
0000
0100
0000
0001
1000
0001
0000
,
0100
0100
0010
0010
,
1000
0100
1000
0000
0001
0000
0001
0000
,
0100
0010
0100
0000
1000
0000
1000
0000
,
1001
0000
0000
0000
0010
0100
0010
0000
,
0001
0000
1000
1000
,
0100
0010
0100
0000
0001
0000
0001
0000
,
0010
0000
0010
0000
0100
0000
0000
0000
0200
0000
0000
0000
0000
0300
0000
0000
,
0001
1001
1001
1001
,
0010
0000
0100
0001
0010
0000
1000
0000
,
0100
0000
1000
0100
0001
0000
0010
0000
,
0001
0000
0100
1000
0010
0000
1000
0000
,
0100
0000
0001
0010
0100
0000
0010
0000
,
1000
0100
1000
0000
0001
0010
0001
0000
,
1000
0000
0100
0000
1000
0000
0010
0100
,
0010
0000
0100
0000
0001
0001
0010
0000
,
0100
0010
2020
3030
,
0100
0202
0000
0000
,
0303
0000
0020
0030
2000
0000
0000
0000
,
0000
3100
0200
0000
0000
0000
0000
0000
,
0300
0002
0000
0020
0033
0000
1000
0100
,
1000
0001
0001
0100
,
1000
0100
1000
0000
0001
0000
0001
0000
,
0100
0000
0001
0000
0100
0000
0010
0100
,
0010
0000
0001
0000
0001
1000
0001
0000
,
0020
0000
0030
0000
0010
0100
1000
0000
,
1000
0000
0001
0010
0010
0000
1000
0000
,
1000
0010
2020
3030
,
0100
0101
0011
1001
,
0010
0100
0020
0000
0030
0000
1000
0000
,
1000
0000
0001
0010
0001
0000
0100
0000
,
0010
0010
1000
0001
,
0010
0000
0010
0000
0100
0000
0001
1000
,
0001
0000
0002
0000
0003
0000
0010
0100
,
0010
1000
2000
3000
,
0010
0010
0100
0000
0110
0000
0000
0000
,
0010
0000
0110
1000
2002
0000
3003
0000
,
0010
0000
0110
0000
0202
0000
0303
2020
,
0000
3030
0000
0000
0100
0000
0010
0000
,
0010
0010
0010
0010
,
1000
0000
1000
0001
1000
0000
1000
0000
,
1000
0001
0010
0001
,
1010
1010
0100
0100
,
0100
0100
0100
0010
,
0001
0100
0010
0001
,
1000
0100
1000
0001
,
0011
0000
0000
0000
0010
0000
0000
0000
2002
0000
0000
0000
0000
0000
0000
3003
,
0000
0100
0100
0000
0010
0000
0010
0000
,
0010
0100
0010
0000
0000
0001
0001
0000
,
1000
1000
0000
0010
0010
0000
0000
0000
;

//---------------dance-single - ----------------
#NOTEDATA:;
#CHARTNAME:;
#STEPSTYPE:dance-single;
#DESCRIPTION:;
#CHARTSTYLE:;
#DIFFICULTY:Beginner;
#METER:3;
#RADARVALUES:0.276842,0.359781,0.158844,0.214439,0.000000,244.000000,224.000000,20.000000,27.000000,0.000000,0.000000,0.000000,0.000000,0.000000,0.276842,0.359781,0.158844,0.214439,0.000000,244.000000,224.000000,20.000000,27.000000,0.000000,0.000000,0.000000,0.000000,0.000000;
#CREDIT:;
#NOTES:
// measure 0
0000
0000
0000
0000
,  // measure 1
0000
0000
0000
0000
,  // measure 2
0000
0000
0000
0000
,  // measure 3
0000
0000
0000
0000
,  // measure 4
0000
0000
1000
1000
,  // measure 5
0100
0010
0001
0001
,  // measure 6
0010
0100
1000
1000
,  // measure 7
0100
0010
0001
0001
,  // measure 8
1001
1001
0000
0010
,  // measure 9
0100
1000
0000
1000
,  // measure 10
0100
0010
0000
0100
,  // measure 11
0010
0100
0000
0001
,  // measure 12
0001
1000
0000
0010
,  // measure 13
0010
0100
0000
0001
,  // measure 14
1000
0010
0010
0100
,  // measure 15
0100
0000
0100
0001
,  // measure 16
0001
0010
0000
1000
,  // measure 17
0001
1000
0010
0010
,  // measure 18
0010
0100
0110
0000
,  // measure 19
0010
0100
0001
0001
,  // measure 20
2000
0000
3000
0010
,  // measure 21
0100
0000
0001
0001
,  // measure 22
2000
0000
3000
0010
,  // measure 23
0200
0300
0010
0001
,  // measure 24
1001
0110
0010
0000
,  // measure 25
0100
0010
0100
1000
,  // measure 26
1000
0001
0001
0010
,  // measure 27
0100
0010
1000
1000
,  // measure 28
0020
0030
0100
0010
,  // measure 29
0110
0100
0001
0001
,  // measure 30
0020
0000
0030
1000
,  // measure 31
1000
0000
0010
0100
,  // measure 32
0000
0100
0001
0001
,  // measure 33
0010
1000
2002
0000
,  // measure 34
3003
0010
0010
0100
,  // measure 35
0000
0100
0000
0010
,  // measure 36
0001
0000
1000
1000
,  // measure 37
1000
0000
0010
0000
,  // measure 38
0001
0001
0001
0010
,  // measure 39
0010
0010
0100
0100
,  // measure 40
1000
1000
1000
0010
,  // measure 41
0010
0010
0100
0010
,  // measure 42
0000
0001
1001
0000
,  // measure 43
0000
0100
0220
0000
,  // measure 44
0000
0330
2000
0000
,  // measure 45
0000
3001
0002
0000
,  // measure 46
0000
0013
0100
0100
,  // measure 47
1000
2000
3000
0010
,  // measure 48
0010
0100
0110
0000
,  // measure 49
0001
1000
1000
0100
,  // measure 50
0010
0002
0003
0100
,  // measure 51
0100
2000
3000
0010
,  // measure 52
0100
0110
2000
3000
,  // measure 53
0001
0010
0200
0300
,  // measure 54
1001
1001
1000
0010
,  // measure 55
0010
0200
0300
1000
,  // measure 56
0010
0110
2002
3003
,  // measure 57
1000
1000
0010
0110
,  // measure 58
0000
0000
0001
0001
,  // measure 59
1000
1001
0100
0010
,  // measure 60
1001
1001
0002
0003
,  // measure 61
0010
0100
0200
0000
,  // measure 62
0301
0001
0002
0000
,  // measure 63
1003
1000
2000
3020
,  // measure 64
0000
0030
0100
0100
,  // measure 65
0100
0001
0000
0001
,  // measure 66
0001
0010
0000
1000
,  // measure 67
1000
0100
0000
0010
,  // measure 68
0100
0010
0000
0001
,  // measure 69
0001
1000
0000
0010
,  // measure 70
0010
0000
0100
0100
,  // measure 71
1000
0000
0001
1000
,  // measure 72
0001
1000
0002
0000
,  // measure 73
0103
0010
0010
0100
,  // measure 74
1000
1001
0200
0310
,  // measure 75
0002
1003
0010
0000
;
