#TITLE:Sweet Rain 2018;
#SUBTITLE:;
#ARTIST:Y&Co. feat. Cherry;
#TITLETRANSLIT:;
#SUBTITLETRANSLIT:;
#ARTISTTRANSLIT:;
#GENRE:;
#CREDIT:;
#BANNER:Sweet Rain banner.jpg;
#BACKGROUND:Sweet Rain_bg.jpg;
#LYRICSPATH:;
#CDTITLE:;
#MUSIC:music_cut.ogg;
#OFFSET:-0.034254;
#SAMPLESTART:47.970371;
#SAMPLELENGTH:22.600004;
#SELECTABLE:YES;
#DISPLAYBPM:160.000000;
#BPMS:0.000000=160.000000
;
#STOPS:
;
#BGCHANGES:0.000=bg_video.mp4=1.000=1=0=1===CrossFade==,
309.000=Sweet Rain_bg.jpg=1.000=1=0=1===CrossFade==,
99999=-nosongbg-=1.000=0=0=0 // don't automatically add -songbackground-
;
#KEYSOUNDS:;
#ATTACKS:;

//---------------dance-single - ----------------
#NOTES:
     dance-single:
     :
     Challenge:
     15:
     0.587102,0.859567,0.388645,0.066152,0.355569,497.000000,450.000000,47.000000,8.000000,0.000000,0.000000,0.587102,0.859567,0.388645,0.066152,0.355569,497.000000,450.000000,47.000000,8.000000,0.000000,0.000000:
0000
0000
0000
0000
,
0000
0000
0000
0000
,
0000
0000
0000
0000
,
0000
0000
0000
0000
,
0001
0000
1000
0000
,
0001
0000
1000
0000
,
0001
0000
1000
0000
,
1001
0000
0000
0000
0000
0000
0001
0010
0100
0000
0000
0000
1000
0000
0000
0000
,
0110
0000
0000
0000
1000
0000
0100
0010
0000
0100
1000
0000
0010
0000
0100
0000
,
0010
1000
0000
0100
1000
0000
0010
1000
0000
0100
1000
0000
0010
0000
0100
0000
,
0011
0000
0000
0100
0010
0000
0100
1000
0000
0010
0100
0000
0010
0000
1000
0000
,
0100
1000
0010
1000
0100
1000
0010
1000
0100
0010
0001
0100
0010
1000
0100
0000
,
1000
0000
0000
0000
0010
0000
0100
0010
0000
1000
0010
0000
1000
0000
0100
0000
,
1000
0100
0000
1000
0010
0000
1000
0100
1000
0010
0100
0001
1000
0010
0100
1000
,
0100
1000
0000
0010
1000
0000
0100
0010
0000
0001
0100
0000
0010
0000
1000
0000
,
1100
0000
0000
0011
0000
0000
1100
0000
0000
0110
0000
0000
1100
0000
1000
0000
,
0010
0000
0100
0001
0000
0000
1000
0000
,
0010
0100
0000
0001
0000
0010
0000
0100
,
0000
0000
1000
0010
0000
1000
0000
0100
,
0000
0010
0000
0001
0010
0000
1001
0000
,
0000
0000
0100
0010
1000
0100
1000
0010
,
0000
0100
0010
0000
1000
0001
0100
0010
,
1000
0000
0100
1000
0000
0010
0100
0010
,
0001
0000
0001
0000
0000
0000
0010
0000
0000
0000
1000
0000
0000
0000
1000
0100
,
1000
0000
0010
0100
0001
0010
0000
0100
,
0000
1000
0000
0010
0000
0100
0001
1000
,
0000
0100
1000
0010
0000
0100
0001
0010
,
0100
0000
0010
0000
0001
0000
1000
0000
0000
0000
0110
0000
0000
0000
0001
0010
,
0001
0000
0010
0100
0001
0010
0000
1100
,
0000
0110
0000
0011
0000
0110
0000
1000
,
0010
1000
0100
0000
1000
0001
0100
0010
,
1100
1100
1100
0011
0000
0110
0000
0000
,
1000
0010
1000
0010
0100
0001
0000
0010
,
0000
0100
0000
1000
0000
0010
1000
0100
,
0010
0100
0010
0001
1000
0010
0000
1000
,
0000
0100
0000
0010
0000
0001
0010
0100
,
1000
0000
0010
0100
0010
1000
0000
0100
,
0000
1000
0010
0100
,
0002
0000
0000
0013
0200
0000
0000
0000
,
0000
0300
1000
0000
0000
0000
1000
0000
0000
0000
1000
0000
0010
0100
0010
1000
,
0001
0000
0100
0000
0010
1000
0000
0100
,
0000
0010
0000
0001
0000
0010
0100
0000
,
1000
0010
1000
0000
1000
0100
0000
0010
,
0000
0100
0000
0001
0000
0010
0100
0000
,
1001
0000
0110
0000
1000
0100
1000
0010
,
0000
1000
0010
0100
,
0002
0000
0000
0000
0000
0003
0010
0000
0200
0000
0000
0000
0000
0000
0000
0300
,
0000
1001
0000
0110
0000
0101
0000
0000
,
1000
0000
0100
1000
0000
1000
0010
0000
0010
0100
0001
0000
1000
0000
0001
0000
,
0100
0010
0000
1000
0100
0000
1000
0010
0000
0100
0010
0000
0100
0000
0001
0000
,
0010
0100
0000
1000
0010
0000
0100
0010
0000
1000
0100
0000
0100
0000
0010
0000
,
0001
0001
0010
0100
0000
1001
0000
0000
,
1010
0000
1100
0000
0010
0001
0000
0010
,
0000
0100
0000
1000
0000
0010
0100
0000
,
0001
0000
0010
0000
0100
1000
0000
0010
,
0000
0100
0000
0001
0000
0010
0200
0000
,
1000
1000
1000
1000
,
0010
0010
0010
0001
,
0010
0000
0000
0000
0000
0000
1000
0000
2000
0000
0000
0000
0000
0000
0000
3300
,
0000
1001
0000
1001
0000
1001
0000
0000
,
0110
0000
1100
0000
1000
0100
0000
0010
,
0000
0001
0000
0010
0000
0100
0010
0000
,
0001
0100
0010
0000
1000
0100
0000
1010
,
0000
0101
0000
0110
0000
0100
1000
0010
,
1000
0000
0010
0000
0100
0010
0000
1100
,
0000
0000
0011
0000
0010
0100
1000
0010
,
0100
0000
0000
0001
1000
0000
0000
0000
,
0000
0011
0000
0110
0000
1100
0000
0000
,
1000
0000
0000
0010
1000
0000
0100
1000
0000
0010
0100
0000
0001
0000
0010
0000
,
0100
0010
0100
1000
0010
0100
0010
1000
0010
0100
0010
1000
0100
0010
0100
0000
,
1000
0001
0000
0100
0010
0000
1000
0100
0000
1000
0010
0000
0100
0000
0001
0000
,
0010
0100
0010
0100
1000
0010
0100
0001
1000
0010
0100
0010
1000
0100
1000
0010
,
0001
0010
0000
1000
0001
0000
0100
0010
0000
1000
0001
0000
0010
0000
0100
0000
,
0010
0001
0010
0100
1000
0010
0100
0010
1000
0100
1000
0010
0100
0001
1000
0000
,
0010
0100
0000
0010
1000
0000
0100
1000
0000
0010
0100
0000
0001
0000
0010
0000
,
1001
0000
0000
1100
0000
0000
1010
0000
0000
0101
0000
0000
1010
0000
0101
0000
,
2002
0000
0000
0000
,
3003
0000
0000
0000
;

//---------------dance-single - Para Para----------------
#NOTES:
     dance-single:
     :
     Edit:
     5:
     0.165381,0.158662,0.000000,0.057883,0.020673,140.000000,140.000000,0.000000,7.000000,0.000000,0.000000,0.165381,0.158662,0.000000,0.057883,0.020673,140.000000,140.000000,0.000000,7.000000,0.000000,0.000000:
0000
0000
0000
0000
,
0000
0000
0000
0000
,
0000
0000
0000
0000
,
0000
0000
0000
0000
,
0001
0000
1000
0000
,
0001
0000
1000
0000
,
0001
0000
1000
0000
,
0001
0000
1000
0000
,
0002
0000
0000
0000
0000
0000
0000
0000
L000
0003
0000
0000
,
0000
0000
0001
0000
,
1000
0000
0001
0000
,
1000
0000
0001
0000
,
2000
0000
0000
0000
0000
0000
0000
0000
000L
3000
0000
0000
,
0000
0000
1000
0000
,
0001
0000
1000
0000
,
0001
0000
1000
0000
,
0001
0000
1000
0000
,
0001
0000
1000
0000
,
0001
0000
1000
0000
,
0001
0000
1000
0000
,
0001
0000
1000
0000
,
0001
0000
1000
0000
,
0001
0000
1000
0000
,
0002
0000
0000
0003
,
0001
0000
1000
0000
,
0001
0000
1000
0000
,
0001
0000
1000
0000
,
0001
0000
1000
0000
,
0001
0000
1000
0000
,
0001
0000
1000
0000
,
0001
0000
1000
0000
,
0001
0000
1000
0000
,
0001
0000
1000
0000
,
0001
0000
1000
0000
,
0001
0000
1000
0000
,
0001
0000
1000
0000
,
0001
0000
1000
0000
,
0001
0000
1000
0000
,
0001
0000
1000
0000
,
0001
0000
1000
0000
,
0001
0000
1000
0000
,
0001
0000
1000
0000
,
0001
0000
1000
0000
,
0001
0000
1000
0000
,
0001
0000
1000
0000
,
0001
0000
1000
0000
,
0001
0000
1000
0000
,
0001
0000
1000
0000
,
0002
0000
0000
0000
0000
0000
0000
0000
L000
0003
0000
0000
,
1000
0000
0001
0000
,
1000
0000
0001
0000
,
1000
0000
0001
0000
,
0001
0000
1000
0000
,
0001
0000
1000
0000
,
0001
0000
1000
0000
,
0001
0000
1000
0000
,
0001
0000
1000
0000
,
0001
0000
1000
0000
,
0001
0000
1000
0000
,
0001
0000
1000
0000
,
0001
0000
1000
0000
,
0001
0000
1000
0000
,
0001
0000
1000
0000
,
0001
0000
1000
0000
,
0001
0000
1000
0000
,
0001
0000
1000
0000
,
0001
0000
1000
0000
,
0001
0000
1000
0000
,
0002
0000
0000
0000
0000
0000
0000
0000
L000
0003
0000
0000
,
0000
0000
0001
0000
,
1000
0000
0001
0000
,
1000
0000
0001
0000
,
2000
0000
0000
0000
0000
0000
0000
0000
000L
3000
0000
0000
,
0000
0000
1000
0000
,
0001
0000
1000
0000
,
0001
0000
1000
0000
,
0020
0000
0000
0030
;

//---------------para-single - ----------------
#NOTES:
     para-single:
     :
     Medium:
     3:
     0.202001,0.384510,0.066152,0.157112,0.095094,171.000000,163.000000,8.000000,19.000000,0.000000,0.000000,0.202001,0.384510,0.066152,0.157112,0.095094,171.000000,163.000000,8.000000,19.000000,0.000000,0.000000:
00000
00000
00000
00000
,
00000
00000
00000
00000
,
00000
00000
00000
00000
,
00000
00000
00000
00000
,
00000
00100
00000
00100
,
00000
00100
00000
00100
,
00000
00100
00000
00100
,
00000
00100
00000
00100
,
00000
00000
00000
00010
,
00020
00000
00000
00030
,
00000
00010
00000
01000
,
00001
10000
00002
00000
,
00003
00000
00000
01000
,
02000
00000
00000
03000
,
00000
00010
00000
01000
,
00001
10000
00001
10000
,
00010
01000
00000
00000
,
00010
01000
00000
00000
,
00100
00010
00001
00000
00000
00000
00100
01000
10000
00000
00000
00000
,
00000
00010
00000
01000
,
00010
01000
00000
00000
,
00010
01000
00000
00000
,
00100
00010
00001
00000
00000
00000
00100
01000
10000
00000
00000
00000
,
00200
00000
00000
00300
00010
00000
00000
00000
,
01000
00000
00000
00000
00000
00000
00000
00000
00000
00000
00000
00000
00000
00000
00000
00000
00000
00000
00000
00000
00000
00000
00000
00000
00000
00000
00000
00000
00000
00000
00100
00000
00000
00000
00000
00000
00000
00000
00000
00000
00000
00000
00000
00000
00000
00000
00000
00000
00000
00000
00000
00000
00000
00000
00000
00000
00000
00000
00000
00000
00010
00000
00000
00000
00000
00000
00000
00000
00000
00000
00000
00000
00000
00000
00000
00000
00000
00000
00000
00000
00000
00000
00000
00000
00000
00000
00000
00000
00001
00000
00000
00000
00000
00000
00000
00000
00000
00000
00000
00000
00000
00000
00000
00000
00000
00000
00000
00000
00000
00000
00000
00000
00000
00000
00000
00000
00000
00000
00000
00000
00000
00000
00000
00000
00000
00000
00000
00000
00000
00000
00000
00000
00000
00000
00000
00000
00000
00000
00000
00000
00000
00000
00000
00000
00000
00000
00000
00000
00000
00000
00000
00000
00000
00000
00000
00000
00000
00000
00000
00000
00000
00000
00000
00000
00000
00000
00000
00000
00000
00000
00000
00000
00000
00000
00000
00000
00000
00000
00000
00000
00000
00000
00000
00000
00000
00000
00000
00000
00000
00000
00000
00000
,
00010
00100
01000
10000
00000
00000
00000
00000
,
01000
00100
00010
00001
00000
00000
00010
00100
01000
10000
00000
00000
,
00000
00000
00000
00000
,
01000
00000
00100
00000
00010
00000
00001
00000
00000
00000
00000
00000
,
00010
00000
00100
00000
01000
00000
10000
00000
00000
00000
00000
00000
,
01000
00100
00010
00001
00000
00000
00010
00100
01000
10000
00000
00000
,
00000
00000
00000
00000
,
01000
00010
00000
00000
,
00000
00001
00000
00000
01000
00000
00010
00000
,
00010
01000
00000
00000
,
00000
10000
00000
00000
00010
00000
01000
00000
,
00010
01000
00000
00000
,
00000
00000
00000
00000
,
00000
00000
00000
00000
00100
01010
20002
00000
,
00000
00000
00000
00000
00000
00000
00000
30003
,
01000
00010
00000
00000
,
00000
00001
00000
00000
01000
00000
00010
00000
,
00010
01000
00000
00000
,
00000
10000
00000
00000
00010
00000
01000
00000
,
00010
01000
00000
00000
,
00000
00000
00000
00000
,
00000
00000
00000
00000
00100
01010
20002
00000
,
00000
00000
00000
00000
00000
00000
00000
30003
,
00000
00000
00000
00010
,
00020
00000
00000
00030
,
00000
00010
00000
01000
,
00001
00000
10000
00000
00002
00000
00000
00003
,
01000
00010
00000
00000
,
00000
00001
00000
00000
01000
00000
00010
00000
,
00010
01000
00000
00000
,
00000
10000
00000
00000
00010
00000
01000
00000
,
00010
01000
00000
00000
,
00000
00000
00000
00000
,
00000
00000
00000
00000
00100
01010
20002
00000
,
00000
00000
00000
00000
00000
00000
00000
30003
,
01000
00010
00000
00000
,
00000
00001
00000
00000
01000
00000
00010
00000
,
00010
01000
00000
00000
,
00000
10000
00000
00000
00010
00000
01000
00000
,
00010
01000
00000
00000
,
00000
00000
00000
00000
,
00000
00000
00000
00000
00100
01010
20002
00000
,
00000
00000
00000
00000
00000
00000
00000
30003
,
00000
00000
00000
00010
,
00020
00000
00000
00030
,
00000
00010
00000
01000
,
00001
10000
00002
00000
,
00003
00000
00000
01000
,
02000
00000
00000
03000
,
00000
00010
00000
01000
,
00001
10000
00001
10000
,
20000
00200
00000
00000
00000
00000
00000
00000
,
00000
00000
30300
00000
;

//---------------dance-single - ----------------
#NOTES:
     dance-single:
     :
     Hard:
     13:
     0.489055,0.636716,0.330762,0.066152,0.053749,414.000000,374.000000,40.000000,8.000000,0.000000,0.000000,0.489055,0.636716,0.330762,0.066152,0.053749,414.000000,374.000000,40.000000,8.000000,0.000000,0.000000:
0000
0000
0000
0000
,
0000
0000
0000
0000
,
0000
0000
0000
0000
,
0000
0000
0000
0000
,
0001
0000
1000
0000
,
0001
0000
1000
0000
,
0001
0000
1000
0000
,
1001
0000
0000
0000
0000
0000
0100
0010
0100
0000
0000
0000
1000
0000
0000
0000
,
1000
0000
0010
0000
0100
0010
0100
0000
,
0001
0010
0100
0010
1000
0010
0100
0000
,
1000
0100
1000
0000
0010
0100
0001
0000
,
0010
0100
1000
0010
0100
0001
1000
0000
,
0100
0000
1000
0000
0010
1000
0100
0000
,
0010
0001
0010
0100
1000
0010
0100
0010
,
1000
0000
0100
0000
1000
0010
0100
0000
,
0011
0000
0000
1100
0000
0000
0110
0000
0000
1100
0000
0000
1000
0000
0001
0000
,
1000
0000
0010
0100
0000
0000
0001
0000
,
0010
0100
0000
0001
0000
0010
0000
0100
,
0000
0000
1000
0010
0000
1000
0000
0100
,
0000
0010
0000
0001
0010
0000
1001
0000
,
0000
0000
0100
0010
1000
0100
1000
0010
,
0000
0100
0010
0000
1000
0001
0100
0010
,
1000
0000
0100
1000
0000
0010
0100
0010
,
0001
0000
0001
0000
0000
0000
0010
0000
0000
0000
1000
0000
0000
0000
1000
0100
,
1000
0000
0010
0100
0001
0010
0000
0100
,
0000
1000
0000
0010
0000
0100
0001
1000
,
0000
0100
1000
0010
0000
0100
0001
0010
,
0100
0000
0010
0000
0001
0000
1000
0000
0000
0000
0110
0000
0000
0000
0001
0010
,
0001
0000
0010
0100
0001
0010
0000
1100
,
0000
0110
0000
0011
0000
0110
0000
1000
,
0010
1000
0100
0000
1000
0001
0100
0010
,
1000
0100
1000
0001
0000
0110
0000
0000
,
1000
0010
1000
0010
0100
0001
0000
0010
,
0000
0100
0000
1000
0000
0010
1000
0100
,
0010
0100
0010
0001
1000
0010
0000
1000
,
0000
0100
0000
0010
0000
0001
0010
0100
,
1000
0000
0010
0100
0010
1000
0000
0100
,
0000
1000
0010
0100
,
0002
0000
0000
0013
0200
0000
0000
0000
,
0000
0300
1000
0000
0000
0000
1000
0000
0000
0000
1000
0000
0000
0000
0010
0000
,
0001
0000
0100
0000
0010
1000
0000
0100
,
0000
0010
0000
0001
0000
0010
0100
0000
,
1000
0010
1000
0000
1000
0100
0000
0010
,
0000
0100
0000
0001
0000
0010
0100
0000
,
1001
0000
0110
0000
1000
0100
1000
0010
,
0000
1000
0010
0100
,
0002
0000
0000
0000
0000
0003
0010
0000
0200
0000
0000
0000
0000
0000
0000
0300
,
0000
1001
0000
0110
0000
0101
0000
0000
,
1000
0100
1000
0010
0010
0001
1000
0001
,
0100
0010
0100
1000
0010
0010
0100
0001
,
0010
0100
0010
0100
0010
0100
0100
0010
,
0001
0001
0010
0100
0000
1001
0000
0000
,
1010
0000
1100
0000
0010
0001
0000
0010
,
0000
0100
0000
1000
0000
0010
0100
0000
,
0001
0000
0010
0000
0100
1000
0000
0010
,
0000
0100
0000
0001
0000
0010
0200
0000
,
1000
1000
1000
1000
,
0010
0010
0010
0001
,
0010
0000
0000
0000
0000
0000
1000
0000
2000
0000
0000
0000
0000
0000
0000
3300
,
0000
1001
0000
1001
0000
1001
0000
0000
,
0110
0000
1100
0000
1000
0100
0000
0010
,
0000
0001
0000
0010
0000
0100
0010
0000
,
0001
0100
0010
0000
1000
0100
0000
1010
,
0000
0101
0000
0110
0000
0100
1000
0010
,
1000
0000
0010
0000
0100
0010
0000
1100
,
0000
0000
0011
0000
0010
0100
1000
0010
,
0100
0000
0000
0001
1000
0000
0000
0000
,
0000
0011
0000
0110
0000
1100
0000
0000
,
1000
0000
0001
0000
0100
0010
1000
0000
,
1000
0100
0010
0001
0010
0100
1000
0010
,
0100
0010
1000
0000
1000
0100
1000
0000
,
0010
0100
0001
0010
0100
1000
0001
0000
,
0100
0000
0000
0000
0010
0000
0100
1000
0000
0000
1000
0000
0010
0000
0100
0000
,
0001
0010
0000
0100
1000
0000
0010
0100
0000
0010
0100
0000
0001
0000
1000
0000
,
0010
0000
0000
0000
0100
0000
0000
0001
0000
0000
1000
0000
0100
0000
0010
0000
,
0110
0000
0000
0110
0000
0000
0110
0000
0000
1001
0000
0000
0110
0000
1001
0000
,
2002
0000
0000
0000
,
3003
0000
0000
0000
;

//---------------dance-single - ----------------
#NOTES:
     dance-single:
     :
     Medium:
     11:
     0.378013,0.501931,0.099229,0.041345,0.008269,320.000000,308.000000,12.000000,5.000000,0.000000,0.000000,0.378013,0.501931,0.099229,0.041345,0.008269,320.000000,308.000000,12.000000,5.000000,0.000000,0.000000:
0000
0000
0000
0000
,
0000
0000
0000
0000
,
0000
0000
0000
0000
,
0000
0000
0000
0000
,
0001
0000
1000
0000
,
0001
0000
1000
0000
,
0001
0000
1000
0000
,
0001
0000
0000
1000
0001
0000
0010
0000
,
0110
0000
1100
0000
1000
0100
1000
0000
,
0010
0100
0010
0000
0010
0001
0010
0000
,
0110
0000
0110
0000
1000
0010
1000
0000
,
0010
1000
0010
1000
0100
1000
0010
0000
,
1001
0000
1100
0000
1000
0010
1000
0000
,
1000
0000
0100
0000
0100
0010
0100
0000
,
0001
0000
0010
0000
0010
0100
1000
0000
,
1000
0000
0000
0001
0000
0000
1000
0000
,
0010
0100
0001
0000
,
1000
0100
1000
0000
0010
0000
0000
0000
,
0100
0001
0010
0000
0010
0100
0010
0000
,
1000
0100
1000
0000
1000
0000
0010
0000
,
0100
0000
0001
0000
0100
0001
0100
0000
,
0010
0000
1000
0000
0100
1000
0100
0000
,
0010
0100
0001
0010
,
0110
0000
0000
0000
,
1001
1000
0100
1000
,
0010
0100
0010
0000
0100
0000
0001
0000
,
0010
0100
0010
0000
1000
0100
1000
0000
,
0010
1000
0100
0000
1000
0000
0001
0000
,
0101
0000
0100
0000
0010
1000
0100
0000
,
1100
0000
1000
0000
0010
1000
0100
0000
,
0100
0010
0100
0001
,
0010
0100
0010
0100
0000
1000
0000
0000
,
0110
0000
1100
0000
1000
0010
0000
0100
,
0000
0001
0000
0010
0000
0100
1000
0000
,
0010
0000
0100
0000
0001
0010
0000
0100
,
0000
1000
0000
0010
0000
0100
0010
0000
,
1000
0000
0100
0000
1000
0010
0000
1000
,
0000
0001
0010
0100
,
2000
0000
0002
0000
,
0000
0000
0000
3003
,
0010
0000
0100
0000
1000
0100
0000
1000
,
0000
0010
0000
0100
0000
0001
0010
0000
,
0010
0100
1000
0000
1000
0010
0000
0100
,
0000
0001
0000
0010
0000
0100
0010
0001
,
0100
0000
0010
0000
1000
0100
0000
1000
,
0000
0010
0100
0001
,
0010
0100
1000
0000
,
0000
0010
0000
0010
0000
0010
0000
0000
,
1000
0000
0001
0000
0100
0010
0100
0000
,
1000
0000
0100
0000
1000
0100
1000
0000
,
0010
0000
0100
0000
0001
0010
0001
0000
,
0100
0010
1000
0000
,
1000
1000
1000
1000
,
0100
0100
0100
0100
,
0010
0000
0010
0000
0100
0001
0000
0010
,
0000
0100
0000
1000
0000
0010
0100
0000
,
0002
0000
0000
0000
0000
0000
0000
0000
0000
0000
0000
0000
0000
0000
0000
0003
,
0020
0000
0000
0000
0000
0000
0000
0000
0000
0000
0000
0000
0000
0030
0000
0000
,
0200
0000
0000
0000
0000
0000
0000
0000
0000
0000
0000
0000
0000
0300
0000
0000
,
0000
1000
0000
1000
0000
1000
0000
0000
,
0010
0000
0100
0000
0001
0010
0100
0000
,
1000
0000
0010
0000
0100
1000
0100
0000
,
1000
0000
0010
0000
0100
0010
0100
0000
,
0001
0000
0010
0000
0100
1000
0010
0000
,
1000
0000
0100
0000
0010
0100
0000
1000
,
0000
0010
0100
0001
,
0010
0000
0000
0100
1000
0000
0000
0000
,
0000
0010
0000
0010
0000
0010
0000
0000
,
1000
0000
0100
0000
1000
0010
0100
0000
,
0100
0001
0010
0100
0010
0100
1000
0000
,
0010
0100
0001
0000
0010
0100
1000
0000
,
0010
1000
0100
1000
0010
0100
0001
0000
,
0010
0000
0100
0000
1000
0010
0100
0000
,
1000
0100
1000
0010
1000
0100
0010
0000
,
0001
0000
1000
0000
0010
0100
0001
0000
,
0010
0000
0000
0100
0000
0000
1000
0000
0000
0010
0000
0000
0100
0000
0010
0000
;

//---------------dance-single - ----------------
#NOTES:
     dance-single:
     :
     Easy:
     5:
     0.256340,0.282801,0.008269,0.057883,0.000000,217.000000,216.000000,1.000000,7.000000,0.000000,0.000000,0.256340,0.282801,0.008269,0.057883,0.000000,217.000000,216.000000,1.000000,7.000000,0.000000,0.000000:
0000
0000
0000
0000
,
0000
0000
0000
0000
,
0000
0000
0000
0000
,
0000
0000
0000
0000
,
0001
0000
1000
0000
,
0001
0000
1000
0000
,
0001
0000
1000
0000
,
0001
0000
0000
0010
,
1000
1000
0010
0010
,
0100
0001
0010
0100
,
1000
1000
0001
0001
,
0010
0100
0010
0100
,
1000
1000
0100
0010
,
0001
0010
0100
1000
,
0010
0010
1000
1000
,
0001
0000
0000
1000
0000
0000
0001
0000
,
0010
0010
0010
0000
,
0100
0100
0100
0000
,
0001
0000
1000
0000
,
0010
0100
1000
0001
,
0100
0010
1000
0000
,
0100
0010
0001
0000
,
0100
0000
0010
0000
,
2002
0000
0000
3003
,
0010
0000
0100
0000
,
1000
0000
0100
0000
,
0010
0000
1000
0000
,
0010
0100
0001
0000
,
1000
0000
1000
0000
,
0010
0000
0010
0000
,
0100
0001
0010
0100
,
1000
1000
0010
0100
,
0001
0001
0010
0100
,
1000
1000
0010
0100
,
0001
0001
0010
0001
,
0010
0001
0001
0010
,
1000
0100
1000
0100
,
0010
0100
0010
0100
,
0002
0000
0000
0000
,
0000
0000
0000
0003
,
1000
1000
0010
0010
,
0100
0100
0100
0010
,
1000
1000
0010
0100
,
0001
0001
0010
0100
,
1000
1000
0010
0100
,
0010
1000
0001
1000
,
1000
0000
0020
0000
,
0000
0000
0000
0030
,
1000
1000
1000
1000
,
0001
0001
0001
0001
,
0010
0100
0010
0001
,
0010
0001
1000
0000
,
2000
0000
0000
0000
,
0000
0000
0000
0000
,
0000
0000
0000
0000
,
0000
0000
0000
0000
,
3001
0001
0010
0010
,
0001
0001
0010
0010
,
1000
0000
0002
0000
,
0000
0000
0000
0003
,
0010
0010
0100
0100
,
1000
0100
1000
0100
,
0010
0010
0100
0100
,
0001
0001
0010
0100
,
1000
1000
0010
0010
,
0100
0100
0001
0010
,
0100
0000
2000
0000
,
0000
0000
0000
3000
,
0010
0100
0001
0010
,
0100
1000
0010
1000
,
0100
0100
1000
1000
,
0010
0100
0010
0100
,
0001
0001
0010
0010
,
1000
0100
1000
0010
,
0100
0100
0001
0001
,
0010
0000
0000
1000
0000
0000
0010
0000
,
1000
0000
0000
0000
;

//---------------dance-single - ----------------
#NOTES:
     dance-single:
     :
     Beginner:
     3:
     0.179556,0.219957,0.000000,0.024807,0.000000,152.000000,152.000000,0.000000,3.000000,0.000000,0.000000,0.179556,0.219957,0.000000,0.024807,0.000000,152.000000,152.000000,0.000000,3.000000,0.000000,0.000000:
0000
0000
0000
0000
,
0000
0000
0000
0000
,
0000
0000
0000
0000
,
0000
0000
0000
0000
,
0001
0000
1000
0000
,
0001
0000
1000
0000
,
0001
0000
1000
0000
,
0001
0000
0000
0000
,
0001
0000
0001
0000
,
1000
0000
1000
0000
,
0010
0000
0010
0000
,
0001
0001
0001
0000
,
1000
0000
0100
0000
,
1000
0000
0010
0000
,
1000
0000
0001
0000
,
0001
0000
0000
0001
0000
0000
0001
0000
,
0001
0000
0000
0000
,
0010
0000
0000
0000
,
1000
0000
1000
0000
,
0010
0000
0010
0000
,
0100
0000
0000
0000
,
0010
0000
0000
0000
,
1000
0000
1000
0000
,
0001
0000
0001
0000
,
0010
0000
0010
0000
,
1000
0000
1000
0000
,
0001
0001
0001
0000
,
0010
0010
0010
0000
,
1000
0000
1000
0000
,
0100
0000
0100
0000
,
0010
0000
0010
0000
,
0001
0000
0000
0000
0000
0001
0000
0000
,
0010
0010
0010
0000
,
1000
1000
1000
0000
,
0100
0100
0100
0000
,
0010
0010
0010
0000
,
0001
0000
0001
0000
,
1000
0000
1000
0000
,
0010
0000
0010
0000
,
0000
0000
0000
0000
,
1000
1000
1000
0000
,
0001
0001
0001
0000
,
0010
0010
0010
0000
,
0100
0100
0100
0000
,
1000
1000
1000
0000
,
0001
0001
0001
0000
,
0010
0000
0100
0000
,
0000
0000
0000
0000
,
1000
1000
1000
0000
,
0010
0010
0010
0000
,
0100
0100
0100
0000
,
0001
0000
0000
0000
0000
0001
0000
0000
,
0002
0000
0000
0000
,
0000
0000
0000
0000
,
0000
0000
0000
0000
,
0000
0000
0003
0000
,
0010
0000
0010
0000
,
0010
0000
0010
0000
,
0100
0000
0200
0000
,
0000
0000
0000
0000
0000
0300
0000
0000
,
0100
0100
0100
0000
,
1000
1000
1000
0000
,
0001
0001
0001
0000
,
0010
0010
0010
0000
,
1000
0000
1000
0000
,
0100
0000
0100
0000
,
0010
0000
2000
0000
,
0000
0000
3000
0000
,
0010
0010
0010
0010
,
0010
0000
0001
0000
,
1000
1000
1000
0000
,
0001
0000
0001
0000
,
0010
0000
0100
0000
,
0010
0010
0010
0010
,
0010
0000
0100
0000
,
1000
0000
0000
1000
0000
0000
1000
0000
,
1000
0000
0000
0000
;

//---------------dance-double - ----------------
#NOTES:
     dance-double:
     :
     Challenge:
     15:
     0.584739,0.859567,0.347300,0.066152,0.355569,495.000000,453.000000,42.000000,8.000000,0.000000,0.000000,0.584739,0.859567,0.347300,0.066152,0.355569,495.000000,453.000000,42.000000,8.000000,0.000000,0.000000:
00000000
00000000
00000000
00000000
,
00000000
00000000
00000000
00000000
,
00000000
00000000
00000000
00000000
,
00000000
00000000
00000000
00000000
,
00001000
00010000
00000000
00010000
,
00001000
00010000
00000000
00010000
,
00001000
00010000
00000000
00010000
,
00011000
00000000
00000000
00000000
00000000
00000000
00001000
00010000
00000100
00000000
00000000
00000000
01000000
00000000
00000000
00000000
,
00110000
00000000
00000000
00000000
01000000
00000000
00100000
00010000
00000000
00100000
01000000
00000000
00010000
00000000
00100000
00000000
,
00010000
01000000
00000000
00100000
01000000
00000000
00010000
01000000
00000000
00100000
01000000
00000000
00010000
00000000
00100000
00000000
,
00011000
00000000
00000000
00100000
00010000
00000000
00100000
01000000
00000000
00010000
00100000
00000000
00010000
00000000
01000000
00000000
,
00010000
00100000
00001000
00100000
00010000
00100000
00001000
00100000
00010000
01000000
00001000
00010000
00001000
00100000
00010000
00000000
,
00100000
00000000
00000000
00000000
00001000
00000000
00010000
00001000
00000000
00100000
00001000
00000000
00100000
00000000
00010000
00000000
,
00100000
00010000
00000000
00100000
00001000
00000000
00100000
00010000
00100000
00001000
00010000
00000100
00100000
00001000
00010000
00000010
,
00010000
00001000
00000000
00001000
00100000
00000000
00010000
00001000
00000000
00001000
00010000
00000000
00001000
00000000
00100000
00000000
,
00011000
00000000
00000000
00000110
00000000
00000000
00011000
00000000
00000000
00001100
00000000
00000000
00011000
00000000
00010000
00000000
,
00000100
00000000
00001000
00000010
00000000
00000000
00010000
00000000
,
00000100
00001000
00000000
00000010
00000000
00000100
00000000
00001000
,
00000000
00000000
00010000
00000100
00000000
00010000
00000000
00001000
,
00000000
00000010
00000000
00000001
00000010
00000000
00001001
00000000
,
00000000
00000000
00000100
00000010
00001000
00000100
00001000
00000010
,
00000000
00000100
00000010
00000000
00001000
00000001
00000100
00000010
,
00001000
00000000
00000100
00001000
00000000
00000010
00000100
00000010
,
00000010
00000000
00000010
00000000
00000000
00000000
00000100
00000000
00000000
00000000
00010000
00000000
00000000
00000000
00010000
00001000
,
00010000
00000000
00000100
00001000
00000010
00000100
00000000
00001000
,
00000000
00010000
00000000
00000100
00000000
00001000
00000010
00010000
,
00000000
00001000
00010000
00000100
00000000
00001000
00000010
00000100
,
00000001
00000000
00001000
00000000
00000100
00000000
00100000
00000000
00000000
00000000
00011000
00000000
00000000
00000000
00000100
00001000
,
00000100
00000000
00001000
00010000
00000100
00001000
00000000
00110000
,
00000000
00011000
00000000
00001100
00000000
00011000
00000000
00100000
,
00001000
00100000
00010000
00000000
00100000
00000100
00010000
00001000
,
01100000
01100000
01100000
00011000
00000000
00110000
00000000
00000000
,
01000000
00010000
01000000
00010000
00100000
00001000
00000000
00010000
,
00000000
00100000
00000000
01000000
00000000
00010000
01000000
00100000
,
00010000
00100000
00010000
00001000
01000000
00010000
00000000
01000000
,
00000000
01000000
00000000
00100000
00000000
00010000
00100000
01000000
,
10000000
00000000
00100000
01000000
00100000
10000000
00000000
01000000
,
00000000
10000000
00100000
01000000
,
00020000
00000000
00000000
00130000
02000000
00000000
00000000
00000000
,
00000000
03000000
01000000
00000000
00000000
00000000
01000000
00000000
00000000
00000000
01000000
00000000
00010000
00100000
00010000
01000000
,
00001000
00000000
00100000
00000000
00010000
01000000
00000000
00100000
,
00000000
00010000
00000000
00001000
00000000
00010000
00100000
00000000
,
01000000
00010000
01000000
00000000
01000000
00100000
00000000
00010000
,
00000000
00010000
00000000
00000100
00000000
00001000
00010000
00000000
,
00100000
00000000
00011000
00000000
00100000
00010000
00100000
00001000
,
00000000
00100000
00001000
00010000
,
00000200
00000000
00000000
00000000
00000000
00000300
00001000
00000000
00020000
00000000
00000000
00000000
00000000
00000000
00000000
00030000
,
00000000
00010010
00000000
00001100
00000000
00001010
00000000
00000000
,
00010000
00000000
00001000
00010000
00000000
00010000
00000100
00000000
00000100
00001000
00000010
00000000
00010000
00000000
00000010
00000000
,
00001000
00000100
00000000
00010000
00001000
00000000
00010000
00000100
00000000
00001000
00000100
00000000
00001000
00000000
00000010
00000000
,
00000100
00001000
00000000
00010000
00000100
00000000
00001000
00000100
00000000
00010000
00001000
00000000
00001000
00000000
00000100
00000000
,
00000001
00000001
00000010
00000100
00000000
00001001
00000000
00000000
,
00001010
00000000
00001100
00000000
00000010
00000001
00000000
00000010
,
00000000
00000100
00000000
00001000
00000000
00000010
00000100
00000000
,
00000001
00000000
00000010
00000000
00000100
00001000
00000000
00000010
,
00000000
00001000
00000000
00000010
00000000
00000100
00002000
00000000
,
00010000
00010000
00010000
00010000
,
00000100
00000100
00000100
00000100
,
00100000
00000000
00000000
00000000
00000000
00000000
00010000
00000000
00020000
00000000
00000000
00000000
00000000
00000000
00000000
00033000
,
00000000
00100000
00000000
00100000
00000000
00100000
00000000
00000000
,
00011000
00000000
00110000
00000000
00100000
00010000
00000000
00001000
,
00000000
00000100
00000000
00001000
00000000
00010000
00001000
00000000
,
00000100
00010000
00001000
00000000
00100000
00010000
00000000
00101000
,
00000000
00101000
00000000
00110000
00000000
00100000
01000000
00010000
,
01000000
00000000
00010000
00000000
00100000
00010000
00000000
01100000
,
00000000
00000000
00011000
00000000
00010000
00100000
01000000
00010000
,
00100000
00000000
00000000
00001000
01000000
00000000
00000000
00000000
,
00000000
00110000
00000000
01100000
00000000
11000000
00000000
00000000
,
10000000
00000000
00000000
00100000
10000000
00000000
01000000
10000000
00000000
00100000
01000000
00000000
00010000
00000000
00100000
00000000
,
01000000
00100000
01000000
10000000
00100000
01000000
00100000
10000000
00100000
01000000
00100000
10000000
01000000
00100000
01000000
00000000
,
10000000
00010000
00000000
01000000
00100000
00000000
10000000
01000000
00000000
10000000
00100000
00000000
01000000
00000000
00010000
00000000
,
00010000
00100000
00010000
00100000
00001000
00010000
00000010
00001000
00000001
00000100
00000010
00000100
00000001
00000010
00000100
00001000
,
00000100
00000010
00000000
00010000
00001000
00000000
00100000
00010000
00000000
01000000
00010000
00000000
10000000
00000000
00100000
00000000
,
10000000
01000000
00100000
00010000
01000000
00010000
00100000
00010000
01000000
00100000
01000000
00010000
00100000
00001000
01000000
00000000
,
00010000
00100000
00000000
00010000
01000000
00000000
00100000
01000000
00000000
00010000
00100000
00000000
00001000
00000000
00010000
00000000
,
00100000
00000000
00000000
00110000
00000000
00000000
00101000
00000000
00000000
00010100
00000000
00000000
00101000
00000000
00010100
00000000
,
00022000
00000000
00000000
00000000
,
00033000
00000000
00000000
00000000
;

//---------------dance-double - ----------------
#NOTES:
     dance-double:
     :
     Hard:
     13:
     0.492599,0.636716,0.330762,0.066152,0.053749,417.000000,377.000000,40.000000,8.000000,0.000000,0.000000,0.492599,0.636716,0.330762,0.066152,0.053749,417.000000,377.000000,40.000000,8.000000,0.000000,0.000000:
00000000
00000000
00000000
00000000
,
00000000
00000000
00000000
00000000
,
00000000
00000000
00000000
00000000
,
00000000
00000000
00000000
00000000
,
00001000
00010000
00000000
00010000
,
00001000
00010000
00000000
00010000
,
00001000
00010000
00000000
00010000
,
00011000
00000000
00000000
00000000
00000000
00000000
01000000
00100000
01000000
00000000
00000000
00000000
10000000
00000000
00000000
00000000
,
10000000
00000000
00100000
00000000
01000000
00100000
01000000
00000000
,
00010000
00100000
01000000
00100000
10000000
00100000
01000000
00000000
,
10000000
01000000
10000000
00000000
00100000
01000000
00010000
00000000
,
00100000
01000000
01000000
00010000
00100000
00001000
01000000
00000000
,
00100000
00000000
01000000
00000000
00010000
01000000
00100000
00000000
,
00010000
00001000
00010000
00100000
01000000
00010000
00100000
00010000
,
01000000
00000000
00100000
00000000
01000000
00010000
00100000
00000000
,
00011000
00000000
00000000
01100000
00000000
00000000
00011000
00000000
00000000
00110000
00000000
00000000
00100000
00000000
00001000
00000000
,
00100000
00000000
00001000
00010000
00000000
00000000
00000100
00000000
,
00001000
00010000
00000000
00000100
00000000
00001000
00000000
00010000
,
00000000
00000000
00100000
00001000
00000000
00100000
00000000
00010000
,
00000000
00001000
00000000
00000010
00000100
00000000
00010010
00000000
,
00000000
00000000
00001000
00000100
00010000
00001000
00010000
00000100
,
00000000
00001000
00000100
00000000
00010000
00000010
00001000
00000100
,
00010000
00000000
00001000
00010000
00000000
00000100
00001000
00000100
,
00000010
00000000
00000010
00000000
00000000
00000000
00000010
00000000
00000000
00000000
00001000
00000000
00000000
00000000
00001000
00000100
,
00001000
00000000
00000010
00000100
00000001
00000010
00000000
00000100
,
00000000
00001000
00000000
00000010
00000000
00000100
00000001
00001000
,
00000000
00000100
00001000
00000010
00000000
00000100
00000001
00000010
,
00000100
00000000
00000010
00000000
00000010
00000000
00010000
00000000
00000000
00000000
00001100
00000000
00000000
00000000
00000010
00000100
,
00000010
00000000
00000100
00001000
00000010
00000100
00000000
00011000
,
00000000
00001100
00000000
00000110
00000000
00001100
00000000
00010000
,
00000100
00010000
00001000
00000000
00010000
00000010
00001000
00000100
,
00010000
00001000
00100000
00000100
00000000
00011000
00000000
00000000
,
00100000
00001000
00100000
00001000
00010000
00000100
00000000
00001000
,
00000000
00010000
00000000
00100000
00000000
00001000
00100000
00010000
,
00001000
00010000
00001000
00000100
00100000
00001000
00000000
00100000
,
00000000
00010000
00000000
00010000
00000000
00001000
00010000
00100000
,
01000000
00000000
00010000
00100000
00010000
01000000
00000000
00100000
,
00000000
01000000
00010000
00100000
,
00002000
00000000
00000000
00013000
00200000
00000000
00000000
00000000
,
00000000
00300000
01000000
00000000
00000000
00000000
10000000
00000000
00000000
00000000
10000000
00000000
00000000
00000000
00100000
00000000
,
00010000
00000000
01000000
00000000
00100000
10000000
00000000
01000000
,
00000000
00100000
00000000
00010000
00000000
00100000
01000000
00000000
,
10000000
00100000
10000000
00000000
10000000
01000000
00000000
00100000
,
00000000
01000000
00000000
00001000
00000000
00010000
00100000
00000000
,
01001000
00000000
00110000
00000000
01000000
00100000
01000000
00010000
,
00000000
01000000
00010000
00100000
,
00002000
00000000
00000000
00000000
00000000
00003000
00010000
00000000
00200000
00000000
00000000
00000000
00000000
00000000
00000000
00300000
,
00000000
01001000
00000000
00011000
00000000
00010100
00000000
00000000
,
00100000
00010000
00100000
00001000
00001000
00000100
00100000
00000100
,
00010000
00001000
00010000
00100000
00001000
00001000
00010000
00000100
,
00001000
00010000
00001000
00010000
00001000
00010000
00010000
00001000
,
00000100
00000100
00000100
00001000
00000000
00010010
00000000
00000000
,
00010100
00000000
00011000
00000000
00000100
00000010
00000000
00000100
,
00000000
00001000
00000000
00010000
00000000
00000100
00001000
00000000
,
00000010
00000000
00000100
00000000
00001000
00010000
00000000
00000100
,
00000000
00001000
00000000
00000001
00000000
00000010
00000200
00000000
,
00001000
00001000
00001000
00001000
,
00000010
00000010
00000010
00000001
,
00000010
00000000
00000000
00000000
00000000
00000000
00001000
00000000
00002000
00000000
00000000
00000000
00000000
00000000
00000000
00003300
,
00000000
00001001
00000000
00010010
00000000
00010010
00000000
00000000
,
00001100
00000000
00011000
00000000
00010000
00001000
00000000
00000100
,
00000000
00000010
00000000
00000100
00000000
00001000
00000100
00000000
,
00000010
00001000
00000100
00000000
00010000
00001000
00000000
00010100
,
00000000
00001010
00000000
00011000
00000000
00010000
00100000
00001000
,
00100000
00000000
00001000
00000000
00010000
00001000
00000000
00110000
,
00000000
00000000
00001100
00000000
00001000
00010000
00100000
00001000
,
00010000
00000000
00000000
00000100
00100000
00000000
00000000
00000000
,
00000000
00001100
00000000
00110000
00000000
01100000
00000000
00000000
,
01000000
00000000
00001000
00000000
00100000
00010000
01000000
00000000
,
01000000
00100000
00010000
00001000
00010000
00100000
01000000
00010000
,
00100000
00010000
01000000
00000000
01000000
00100000
01000000
00000000
,
00010000
00100000
00010000
00100000
01000000
10000000
00010000
00000000
,
01000000
00000000
00000000
00000000
00100000
00000000
01000000
10000000
00000000
00000000
10000000
00000000
00100000
00000000
01000000
00000000
,
00010000
00100000
00000000
01000000
10000000
00000000
00100000
01000000
00000000
00100000
01000000
00000000
00010000
00000000
10000000
00000000
,
00100000
00000000
00000000
00000000
01000000
00000000
00000000
00010000
00000000
00000000
10000000
00000000
01000000
00000000
00100000
00000000
,
01100000
00000000
00000000
10010000
00000000
00000000
00110000
00000000
00000000
01001000
00000000
00000000
00011000
00000000
00001100
00000000
,
00000220
00000000
00000000
00000000
,
00000330
00000000
00000000
00000000
;

//---------------dance-double - ----------------
#NOTES:
     dance-double:
     :
     Medium:
     11:
     0.381557,0.501931,0.099229,0.041345,0.008269,323.000000,311.000000,12.000000,5.000000,0.000000,0.000000,0.381557,0.501931,0.099229,0.041345,0.008269,323.000000,311.000000,12.000000,5.000000,0.000000,0.000000:
00000000
00000000
00000000
00000000
,
00000000
00000000
00000000
00000000
,
00000000
00000000
00000000
00000000
,
00000000
00000000
00000000
00000000
,
00001000
00010000
00000000
00010000
,
00001000
00010000
00000000
00010000
,
00001000
00010000
00000000
00010000
,
00001000
00000000
00000000
00001000
00010000
00000000
00100000
00000000
,
01100000
00000000
11000000
00000000
10000000
01000000
10000000
00000000
,
00100000
01000000
00100000
00000000
00100000
00010000
00100000
00000000
,
01100000
00000000
01100000
00000000
10000000
00100000
10000000
00000000
,
00100000
10000000
00100000
10000000
01000000
10000000
00010000
00000000
,
01001000
00000000
01100000
00000000
01000000
00010000
01000000
00000000
,
01000000
00000000
00100000
00000000
00100000
00010000
00100000
00000000
,
00001000
00000000
00010000
00000000
00010000
00100000
01000000
00000000
,
01000000
00000000
00000000
00001000
00000000
00000000
00100000
00000000
,
00001000
00010000
00000100
00000000
,
00100000
00010000
00100000
00000000
00001000
00000000
00000000
00000000
,
00010000
00000100
00001000
00000000
00001000
00010000
00001000
00000000
,
00100000
00010000
00100000
00000000
00100000
00000000
00000100
00000000
,
00001000
00000000
00000010
00000000
00001000
00000010
00001000
00000000
,
00000100
00000000
00010000
00000000
00001000
00010000
00001000
00000000
,
00000100
00001000
00000010
00000100
,
00001100
00000000
00000000
00000000
,
00001001
00001000
00000100
00001000
,
00000010
00000100
00000010
00000000
00000100
00000000
00000001
00000000
,
00000010
00000100
00000010
00000000
00001000
00000100
00001000
00000000
,
00000010
00001000
00000100
00000000
00001000
00000000
00000010
00000000
,
00001010
00000000
00001000
00000000
00000100
00010000
00001000
00000000
,
00011000
00000000
00010000
00000000
00000100
00010000
00001000
00000000
,
00001000
00000100
00001000
00000010
,
00000100
00001000
00000100
00001000
00000000
00010000
00000000
00000000
,
00011000
00000000
00110000
00000000
00100000
00001000
00000000
00010000
,
00000000
00000100
00000000
00001000
00000000
00010000
00001000
00000000
,
00001000
00000000
00010000
00000000
00000100
00001000
00000000
00010000
,
00000000
00001000
00000000
00001000
00000000
00010000
00010000
00000000
,
01000000
00000000
00100000
00000000
01000000
00010000
00000000
01000000
,
00000000
00001000
00010000
00100000
,
02000000
00000000
20000000
00000000
,
00000000
00000000
00000000
33000000
,
00010000
00000000
00100000
00000000
01000000
00100000
00000000
10000000
,
00000000
00100000
00000000
01000000
00000000
00010000
00100000
00000000
,
00100000
01000000
10000000
00000000
10000000
00100000
00000000
01000000
,
00000000
00010000
00000000
00100000
00000000
01000000
00100000
00010000
,
01000000
00000000
00100000
00000000
10000000
01000000
00000000
01000000
,
00000000
00010000
00100000
00001000
,
00010000
00100000
01000000
00000000
,
00000000
00010000
00000000
00010000
00000000
00010000
00000000
00000000
,
01000000
00000000
00001000
00000000
00100000
00010000
00010000
00000000
,
00100000
00000000
00010000
00000000
00100000
00010000
00100000
00000000
,
00001000
00000000
00010000
00000000
00000100
00001000
00000100
00000000
,
00010000
00001000
00100000
00000000
,
00100000
00100000
00100000
00010000
,
00001000
00001000
00001000
00001000
,
00000100
00000000
00000100
00000000
00001000
00000010
00000000
00000100
,
00000000
00001000
00000000
00010000
00000000
00000100
00001000
00000000
,
00000020
00000000
00000000
00000000
00000000
00000000
00000000
00000000
00000000
00000000
00000000
00000000
00000000
00000000
00000000
00000030
,
00000020
00000000
00000000
00000000
00000000
00000000
00000000
00000000
00000000
00000000
00000000
00000000
00000000
00000030
00000000
00000000
,
00000200
00000000
00000000
00000000
00000000
00000000
00000000
00000000
00000000
00000000
00000000
00000000
00000000
00000300
00000000
00000000
,
00000000
00001000
00000000
00001000
00000000
00001000
00000000
00000000
,
00000010
00000000
00000100
00000000
00000001
00000010
00000100
00000000
,
00010000
00000000
00000100
00000000
00010000
00001000
00010000
00000000
,
00010000
00000000
00000100
00000000
00001000
00000100
00001000
00000000
,
00000010
00000000
00000100
00000000
00000001
00001000
00000100
00000000
,
00010000
00000000
00001000
00000000
00010000
00001000
00000000
00100000
,
00000000
00001000
00010000
00000100
,
00001000
00000000
00000000
00010000
00001000
00000000
00000000
00000000
,
00000000
00001000
00000000
00001000
00000000
00001000
00000000
00000000
,
00100000
00000000
00010000
00000000
00100000
00001000
00100000
00000000
,
00100000
00001000
00010000
00100000
00010000
00100000
01000000
00000000
,
00010000
00100000
00001000
00000000
00010000
00001000
01000000
00000000
,
00010000
01000000
00100000
01000000
00010000
00100000
00001000
00000000
,
00010000
00000000
00100000
00000000
01000000
00010000
01000000
00000000
,
10000000
01000000
10000000
00100000
10000000
01000000
00100000
00000000
,
00010000
00000000
10000000
00000000
00100000
01000000
00010000
00000000
,
00100000
00000000
00000000
01000000
00000000
00000000
10000000
00000000
00000000
00100000
00000000
00000000
01000000
00000000
00100000
00000000
;

//---------------dance-double - ----------------
#NOTES:
     dance-double:
     :
     Easy:
     5:
     0.261065,0.282801,0.008269,0.057883,0.000000,221.000000,220.000000,1.000000,7.000000,0.000000,0.000000,0.261065,0.282801,0.008269,0.057883,0.000000,221.000000,220.000000,1.000000,7.000000,0.000000,0.000000:
// measure 0
00000000
00000000
00000000
00000000
,  // measure 1
00000000
00000000
00000000
00000000
,  // measure 2
00000000
00000000
00000000
00000000
,  // measure 3
00000000
00000000
00000000
00000000
,  // measure 4
00001000
00010000
00000000
00010000
,  // measure 5
00001000
00010000
00000000
00010000
,  // measure 6
00001000
00010000
00000000
00010000
,  // measure 7
00001000
00010000
00000000
00100000
,  // measure 8
10000000
10000000
00100000
00100000
,  // measure 9
01000000
00010000
00100000
01000000
,  // measure 10
10000000
10000000
00010000
00010000
,  // measure 11
00100000
01000000
00100000
00100000
,  // measure 12
01000000
01000000
00100000
00010000
,  // measure 13
00001000
00010000
00100000
01000000
,  // measure 14
00010000
00010000
01000000
01000000
,  // measure 15
00001000
00000000
00000000
01000000
00000000
00000000
00000100
00000000
,  // measure 16
00001000
00001000
00001000
00000000
,  // measure 17
00010000
00010000
00010000
00000000
,  // measure 18
00000100
00000000
00100000
00000000
,  // measure 19
00001000
00010000
00100000
00000010
,  // measure 20
00001000
00000100
00010000
00000000
,  // measure 21
00001000
00000100
00000010
00000000
,  // measure 22
00001000
00000000
00000100
00000000
,  // measure 23
00020020
00000000
00000000
00030030
,  // measure 24
00000010
00000000
00000100
00000000
,  // measure 25
00001000
00000000
00000100
00000000
,  // measure 26
00000010
00000000
00001000
00000000
,  // measure 27
00000010
00000100
00000001
00000000
,  // measure 28
00010000
00000000
00010000
00000000
,  // measure 29
00000100
00000000
00000100
00000000
,  // measure 30
00001000
00000010
00000100
00001000
,  // measure 31
00010000
00010000
00000100
00010000
,  // measure 32
00000100
00000100
00001000
00010000
,  // measure 33
00100000
00100000
00001000
00010000
,  // measure 34
00000100
00000100
00001000
00000100
,  // measure 35
00001000
00000100
00000100
00010000
,  // measure 36
01000000
00100000
01000000
00100000
,  // measure 37
00010000
00100000
00010000
00100000
,  // measure 38
00002000
00000000
00000000
00000000
,  // measure 39
00000000
00000000
00000000
00003000
,  // measure 40
01000000
01000000
00010000
00100000
,  // measure 41
01000000
01000000
01000000
00100000
,  // measure 42
10000000
10000000
00100000
01000000
,  // measure 43
00010000
00010000
00100000
01000000
,  // measure 44
10000000
10000000
00100000
00100000
,  // measure 45
00010000
01000000
00001000
01000000
,  // measure 46
01000000
00000000
00020000
00000000
,  // measure 47
00000000
00000000
00000000
00030000
,  // measure 48
01000000
01000000
01000000
01000000
,  // measure 49
00001000
00001000
00001000
00000100
,  // measure 50
00001000
00010000
00001000
00000100
,  // measure 51
00001000
00000100
00100000
00000000
,  // measure 52
00200000
00000000
00000000
00000000
,  // measure 53
00000000
00000000
00000000
00000000
,  // measure 54
00000000
00000000
00000000
00000000
,  // measure 55
00000000
00000000
00000000
00000000
,  // measure 56
00300100
00000100
00001000
00000100
,  // measure 57
00000010
00000010
00000100
00000100
,  // measure 58
00010000
00000000
00000020
00000000
,  // measure 59
00000000
00000000
00000000
00000030
,  // measure 60
00000100
00000100
00001000
00001000
,  // measure 61
00010000
00001000
00010000
00000100
,  // measure 62
00000010
00000010
00000100
00000100
,  // measure 63
00000001
00000001
00000010
00000100
,  // measure 64
00001000
00001000
00000010
00000010
,  // measure 65
00000100
00000100
00000001
00000100
,  // measure 66
00001000
00000000
00020000
00000000
,  // measure 67
00000000
00000000
00000000
00030000
,  // measure 68
00000100
00001000
00000010
00000100
,  // measure 69
00001000
00010000
00000100
00010000
,  // measure 70
00001000
00001000
00010000
00100000
,  // measure 71
00001000
00010000
00001000
00010000
,  // measure 72
00000100
00000100
00001000
00001000
,  // measure 73
00100000
00010000
00100000
00001000
,  // measure 74
00010000
00010000
00000100
00001000
,  // measure 75
00010000
00000000
00000000
01000000
00000000
00000000
00010000
00000000
,  // measure 76
01000000
00000000
00000000
00000000
;
