#TITLE:Souhi no fragment;
#SUBTITLE:;
#ARTIST:BEMANI Sound Team "JYUNN";
#TITLETRANSLIT:;
#SUBTITLETRANSLIT:;
#ARTISTTRANSLIT:;
#GENRE:;
#CREDIT:PaperBox440;
#BANNER:Souhi no fragment.png;
#BACKGROUND:Souhi no fragment-bg.png;
#LYRICSPATH:;
#CDTITLE:;
#MUSIC:Souhi no fragment.mp3;
#OFFSET:0.000000;
#SAMPLESTART:81.923073;
#SAMPLELENGTH:17.076927;
#SELECTABLE:YES;
#BPMS:0.000000=130.000000
;
#STOPS:
;
#BGCHANGES:;
#KEYSOUNDS:;
#ATTACKS:;

//---------------dance-single - ----------------
#NOTES:
     dance-single:
     :
     Hard:
     12:
     0.517056,0.641728,0.531797,0.031749,0.257961,456.000000,389.000000,67.000000,4.000000,0.000000,0.000000,0.517056,0.641728,0.531797,0.031749,0.257961,456.000000,389.000000,67.000000,4.000000,0.000000,0.000000:
0000
0010
0100
0010
,
1000
0000
1001
0000
0001
0001
0110
0000
,
0000
1000
0001
1001
,
0100
0000
0110
0000
1000
1000
1001
0000
,
0100
0110
0000
1001
,
0000
0110
0000
1000
,
0000
1001
0000
0210
,
0000
0000
0000
0000
,
0000
0000
1300
0000
0100
0000
0100
0010
,
0000
1001
0010
1100
,
0000
1001
0000
0000
,
0000
0110
0000
1001
,
0000
0100
0000
0000
,
0000
0010
0000
1001
,
1000
0001
0000
0110
,
1000
0001
1000
0000
0100
0000
0110
0000
0000
1000
0000
0000
1001
0000
0100
0000
,
0010
0000
0000
0000
0110
0000
0000
0000
0001
0000
1000
0000
1000
0000
0000
0010
,
0100
0010
0000
0000
1001
0000
0000
0010
0100
1000
0000
0000
1100
0000
0001
0000
,
0010
0100
0010
0000
1001
0000
0000
0000
0010
0100
0001
0000
0000
0001
1000
0000
,
0000
1000
0000
0000
0110
0000
0000
0000
0100
0010
0100
0000
0000
0001
0010
0100
,
2000
3000
0000
0000
1001
0000
0000
0000
0000
0000
0000
0000
0110
0000
0000
0000
,
0000
0000
0000
1001
,
0000
0002
0000
0000
,
0000
0000
0000
0000
,
0000
0000
1003
0000
1000
0001
1000
0100
,
0001
0001
1000
0010
0001
0100
0100
1000
,
0001
0000
1000
0000
0001
0010
0100
0000
0000
0000
0100
0000
1000
0000
0001
0000
,
0001
0000
0000
0000
1000
0001
1000
0000
0100
0000
0010
0000
0100
0000
0001
0000
,
0001
0000
0000
0010
0100
0000
1000
0001
1000
0000
0100
0010
0000
1000
0100
0001
,
0000
0001
0010
0100
0010
0000
0000
1000
0001
0000
0001
0100
0010
0100
0000
1000
,
0001
1000
0000
0000
1001
0000
0000
0100
0000
0000
0010
0100
0010
0000
1000
0000
,
1001
0000
0000
0000
0100
0010
0001
0000
1000
0000
0100
0010
0100
0000
1000
0000
,
1001
0000
0100
0000
0001
0010
0001
0000
1000
0000
0000
0000
0100
0000
0010
0000
,
1000
0100
1000
0000
0001
0000
0001
0000
1100
0000
0010
0000
0110
0000
0000
0000
,
1000
1000
0011
0100
0110
0000
0001
0100
,
1000
1001
0000
0001
0100
0100
0001
1000
,
1000
0100
0001
1000
0001
1000
0000
0000
0000
1000
0000
0000
1000
0000
0010
0000
,
0000
0010
0001
0000
0100
0000
0000
0100
1000
0000
0001
0000
0011
0000
1000
0000
,
1001
0000
0000
0000
0000
0000
1000
0000
1000
0100
0010
0001
0010
0100
1000
0000
,
0000
0001
0100
0000
1000
0000
1000
0000
0000
0000
1000
0000
1001
0000
0000
0000
,
0001
0100
0000
0000
1001
0000
0000
0000
0000
0000
0000
0000
0100
0000
0100
0000
,
0010
0000
0010
0000
0001
0100
0001
0000
1000
0000
1000
0000
0001
0100
0001
0000
,
0010
0000
0010
0000
0100
1000
0100
0000
0001
0000
0001
0000
1000
0100
1000
0000
,
0010
0000
0010
0000
0100
0000
0100
0000
0001
0010
0001
0000
1000
0000
1000
0000
,
0002
0000
0003
1000
1000
0000
0110
0000
,
0000
1000
1000
0001
0000
0110
0000
1001
,
0000
0000
1000
0000
1000
0000
0001
0000
0001
0000
0010
0100
0000
0000
1001
0000
,
0000
0100
0010
0100
0100
0000
1001
0000
,
0110
0000
1000
0010
0000
0010
1000
0100
,
1000
0001
0001
0000
1100
0000
1001
0000
,
0110
0000
1100
0000
0001
0010
0010
0000
,
1001
0000
0000
0000
1100
0000
0000
0000
0001
0000
0000
0000
0001
1000
0001
0000
,
0000
0000
1000
0001
1000
0000
0100
0010
0100
0000
1000
0000
0001
0000
0000
0000
,
1000
0000
0100
0010
0100
0000
0001
0000
0000
0000
1001
0000
0000
0000
1000
0000
,
0001
0010
0100
0000
0000
0000
1000
0000
1000
0100
0010
0000
0001
0000
0001
0000
,
0000
0010
0100
0000
0110
0000
0000
0000
1001
0000
0000
0000
0000
0000
0000
0000
,
1000
0100
0010
0000
1000
0000
1000
0000
0001
0010
0001
0000
0100
0000
0000
0000
,
1000
0001
0000
0010
0100
0000
1000
0000
1000
0000
0010
0000
0100
0000
0001
0010
,
0001
0000
0100
0000
0010
0000
1000
0000
1000
0000
0001
0010
0001
0000
0000
0000
,
1001
0000
1000
0000
0100
0010
0100
0000
,
1001
0000
1100
0000
0010
0001
1001
0000
,
0100
0000
0110
0000
0001
1000
1001
0000
,
0110
0000
1100
0000
0001
0001
0110
0000
,
1100
0001
0000
1000
,
0000
0110
0000
0001
,
0000
0000
1001
1000
0100
0100
0001
0001
,
1000
0000
1000
0000
0010
0100
0010
0000
0001
0000
0001
0000
1000
0100
1000
0000
,
0010
0000
0100
0110
0000
0000
0000
0000
;

//---------------dance-single - ----------------
#NOTES:
     dance-single:
     :
     Medium:
     10:
     0.380989,0.454557,0.246055,0.007937,0.000000,336.000000,305.000000,31.000000,1.000000,0.000000,0.000000,0.380989,0.454557,0.246055,0.007937,0.000000,336.000000,305.000000,31.000000,1.000000,0.000000,0.000000:
0000
0010
0100
0010
,
1000
0000
1001
0000
0100
0010
0100
0000
,
0000
1000
0001
1000
,
0001
0100
1000
1000
,
0001
1001
0000
0110
,
0000
1001
0000
0100
,
0000
0010
0000
1000
,
0000
0000
0000
0000
,
0000
0001
0000
0000
,
0000
1000
0000
0110
,
0000
0001
0000
0000
,
0000
1000
0000
0001
,
0000
0100
0000
0000
,
0000
0010
0000
1000
,
0001
0000
0110
0000
0000
0000
1000
0001
,
1000
0100
0010
0110
,
0000
0000
1001
0000
0000
1000
0001
1000
,
0100
0110
1000
1001
,
0000
0000
0110
0000
1000
0010
0100
0000
,
0001
0000
1001
0000
0000
0001
0001
0000
,
1000
1001
0000
0110
,
0000
0000
0000
0000
0000
0000
0000
1000
,
0000
0001
0000
0000
,
0000
0000
0000
0000
,
0000
0000
0000
0100
0010
0100
0000
0001
,
1000
0001
0000
0100
0100
0001
1000
0001
,
1000
0001
0001
0000
0010
0100
0000
0001
,
0010
0000
1000
1000
0001
0000
0010
0100
,
0100
0000
1000
0001
1000
0100
0100
0001
,
0010
1000
1000
0001
0010
0100
0100
0010
,
1000
1000
0001
0001
0010
0100
0010
1000
,
1000
0000
0001
1000
0100
1000
0001
0010
,
0100
0010
1000
1000
0001
0001
0010
0100
,
1000
0000
0001
0010
0100
0010
1000
0001
,
1000
0000
1001
0000
1000
1000
0001
0000
,
0110
0000
1000
0000
0001
0001
0000
0010
,
0100
0100
0001
0001
1000
0000
0000
0010
,
0100
0000
0000
1001
0000
1000
1000
0001
,
0000
1001
0000
0100
0000
0010
0100
0010
,
0100
0010
1000
0000
0010
0100
0001
0001
,
0100
0000
1001
0000
0000
0000
0100
0100
,
0010
0010
0001
0001
1000
1000
0100
0010
,
0001
0001
1000
0000
0010
0100
0001
0001
,
1000
0000
0100
0010
0100
0001
0001
1000
,
0002
0000
0003
0000
0000
0010
0100
0010
,
1000
0000
1000
0001
0000
0110
0000
1000
,
0000
0001
0000
0100
0010
0100
0000
0001
,
1000
1000
0100
0000
0010
0000
1001
0000
,
0110
0000
1000
0000
0001
1000
0001
0000
,
0010
0100
0010
0000
1000
0000
1001
0000
,
0001
0000
0110
0000
1000
0000
0001
0001
,
0010
1000
0000
0110
0000
1001
0000
0010
,
0100
1000
0001
0100
0010
0000
0001
1000
,
0000
1000
0001
1000
0000
0110
0000
0000
,
0001
0010
0100
1000
0000
1000
0100
0010
,
0001
0000
0100
0010
0000
1000
0000
0001
,
0000
0100
1000
0000
1000
0000
0001
0000
,
0100
0100
0010
0000
0001
0000
1000
0000
,
0001
0000
0100
0010
0100
0000
1000
1000
,
0001
0000
0010
0100
0000
1000
1000
0000
,
0001
0000
0110
0000
1000
1000
0000
0001
,
0000
0110
0000
1000
0000
0001
0000
0100
,
0000
0010
0100
1001
0000
0100
0100
0010
,
0000
0001
0000
1000
0000
0000
0001
0000
,
0000
0100
0000
0010
,
0000
0000
1001
0000
0100
0100
0001
0001
,
1000
1000
0010
0100
0001
1000
1000
0010
,
0000
0001
0100
0100
0000
0000
0000
0000
;

//---------------dance-single - ----------------
#NOTES:
     dance-single:
     :
     Easy:
     5:
     0.277804,0.320269,0.412738,0.000000,0.000000,245.000000,193.000000,52.000000,0.000000,0.000000,0.000000,0.277804,0.320269,0.412738,0.000000,0.000000,245.000000,193.000000,52.000000,0.000000,0.000000,0.000000:
0000
0010
0100
0010
,
1000
1001
0100
0100
,
0000
1000
0001
1000
,
0001
0100
1000
1000
,
0001
1001
0000
0110
,
0000
1001
0000
0100
,
0000
0010
0000
1000
,
0000
0000
0000
0000
,
0000
0001
0000
0000
,
0000
0000
0000
1000
0000
0000
0110
0000
,
0000
0000
0000
0001
0000
0000
0000
0000
,
0000
1000
0000
0001
,
0000
0000
0000
0100
0000
0000
0000
0000
,
0000
0010
0000
1000
,
0001
0110
0000
1000
,
0001
0000
0000
0110
0000
1001
0000
0000
,
0000
1000
0000
0000
,
0000
0000
0100
0000
0000
0110
0000
0000
,
0000
1000
0000
0000
,
0000
0001
0000
0000
,
0100
0000
0110
0000
0000
1000
0000
0000
,
0000
0000
0000
0001
,
0000
1001
0000
0000
,
0000
0000
0000
0000
,
0000
0100
0010
1100
,
0000
0001
1000
0110
,
0001
1001
0010
0110
,
0000
1000
0001
1001
,
0000
0100
1000
1001
,
0000
0110
0001
1001
,
0000
0100
0010
0110
,
0000
1000
0001
1001
,
0000
0110
1000
1001
,
0000
0100
0001
1001
,
1000
0100
0010
0110
,
0001
1000
0001
1001
,
0000
0100
0010
1001
,
0010
1100
0001
1000
,
0100
0010
0000
0110
,
0000
1001
0000
0110
,
0000
1001
0000
1000
,
1000
1000
1000
1000
,
0001
0001
0001
0001
,
0010
0100
1000
0100
,
0010
1001
0000
0110
,
0000
1000
0001
1001
,
0100
0010
1000
0110
,
0001
1000
0001
1001
,
1000
0010
0100
0110
,
1000
0001
1000
1001
,
0100
0110
0000
1001
,
0100
0001
1000
1001
,
0110
1000
0001
1000
,
0010
0100
0110
0000
,
0100
0010
0001
0001
,
1000
1000
0000
0100
,
0010
0100
0100
1000
,
0001
1001
0000
0010
,
0100
0100
0010
1000
,
1001
0000
0010
0100
,
0010
1001
0100
0100
,
0000
1001
0001
1000
,
0001
1001
1000
0100
,
0010
1001
0000
0110
,
0000
1000
0000
0001
,
0000
0100
0010
0100
,
0010
1000
1000
0001
,
0001
1001
0000
0000
;

//---------------dance-single - ----------------
#NOTES:
     dance-single:
     :
     Beginner:
     3:
     0.166683,0.266890,0.142871,0.007937,0.000000,147.000000,129.000000,18.000000,1.000000,0.000000,0.000000,0.166683,0.266890,0.142871,0.007937,0.000000,147.000000,129.000000,18.000000,1.000000,0.000000,0.000000:
// measure 0
0000
0010
0000
0001
,  // measure 1
0000
1000
0000
1001
,  // measure 2
0000
0100
0000
1000
,  // measure 3
0000
1001
0000
0100
,  // measure 4
0010
1001
0000
0100
,  // measure 5
0000
0010
0000
1000
,  // measure 6
0000
0000
0001
0000
0000
1001
0000
0000
,  // measure 7
0000
0000
0000
0000
,  // measure 8
0000
0110
0000
0000
,  // measure 9
0000
1000
0000
1001
,  // measure 10
0000
0110
0000
0000
,  // measure 11
0000
1000
0000
0001
,  // measure 12
0000
0110
0000
0000
,  // measure 13
0000
1000
0000
0001
,  // measure 14
0110
1000
0000
0010
,  // measure 15
0000
1001
0000
0100
,  // measure 16
0000
0010
0000
0000
,  // measure 17
0000
1000
0000
0001
,  // measure 18
0000
0100
0000
0000
,  // measure 19
0000
0010
0000
0000
,  // measure 20
0100
0000
0000
1001
0000
1000
0000
0000
,  // measure 21
0000
0000
0000
0010
,  // measure 22
0000
1001
0000
0000
,  // measure 23
0000
0000
0000
0000
,  // measure 24
0000
0100
0000
0001
,  // measure 25
0000
1000
0000
0001
,  // measure 26
0000
0100
0000
0010
,  // measure 27
0000
1000
0000
0001
,  // measure 28
0000
0100
0000
0010
,  // measure 29
0000
1000
0000
0001
,  // measure 30
0000
1000
0000
0001
,  // measure 31
0000
0100
0000
0010
,  // measure 32
0000
1000
0000
0001
,  // measure 33
0000
1000
0000
0001
,  // measure 34
0000
0100
0000
0010
,  // measure 35
0000
1000
0000
0001
,  // measure 36
0000
0100
0000
0010
,  // measure 37
0000
1000
0000
0001
,  // measure 38
0000
1000
0000
0001
,  // measure 39
0000
0100
0000
0010
,  // measure 40
0000
1001
0000
0000
,  // measure 41
0000
0000
0000
0000
,  // measure 42
0100
0010
0000
0000
,  // measure 43
0000
1000
0000
0000
,  // measure 44
0002
0003
0000
1000
,  // measure 45
0000
0001
0000
1000
,  // measure 46
0000
0100
0000
0010
,  // measure 47
0000
0100
0000
0001
,  // measure 48
0000
1000
0000
0001
,  // measure 49
0000
1000
0000
0001
,  // measure 50
0000
1000
0000
0100
,  // measure 51
0000
0010
0000
0100
,  // measure 52
0000
1000
0000
0001
,  // measure 53
0100
0100
0100
0000
,  // measure 54
1000
0000
0010
0000
,  // measure 55
1000
0000
0001
0001
,  // measure 56
0000
0100
0100
0000
,  // measure 57
1000
0000
0001
1000
,  // measure 58
0000
0001
1000
0000
,  // measure 59
1001
0000
0000
0100
,  // measure 60
0000
0001
0000
1000
,  // measure 61
0000
0100
0000
0010
,  // measure 62
0000
0100
0000
0001
,  // measure 63
0000
1001
0000
0110
,  // measure 64
0000
1001
0000
1000
,  // measure 65
0000
1000
0001
1000
,  // measure 66
0001
0010
0100
0010
,  // measure 67
0100
1001
0000
0000
;
