#VERSION:0.83;
#TITLE:So deep;
#SUBTITLE:(Twilight Flaw Sphere Mix);
#ARTIST:KaW vs SILVERTEAR;
#TITLETRANSLIT:;
#SUBTITLETRANSLIT:;
#ARTISTTRANSLIT:;
#GENRE:;
#ORIGIN:;
#CREDIT:PaperBox440;
#BANNER:So deep (Twilight Flaw Sphere Mix)-bn.png;
#BACKGROUND:So deep (Twilight Flaw Sphere Mix)-bg.png;
#PREVIEWVID:;
#JACKET:So deep (Twilight Flaw Sphere Mix)-jacket.png;
#CDIMAGE:;
#DISCIMAGE:;
#LYRICSPATH:;
#CDTITLE:cdtitle.png;
#MUSIC:So deep (Twilight Flaw Sphere Mix).ogg;
#OFFSET:0.000000;
#SAMPLESTART:43.285717;
#SAMPLELENGTH:12.000000;
#SELECTABLE:YES;
#BPMS:0.000=140.000;
#STOPS:;
#DELAYS:;
#WARPS:;
#TIMESIGNATURES:0.000=4=4;
#TICKCOUNTS:0.000=4;
#COMBOS:0.000=1;
#SPEEDS:0.000=1.000=0.000=0;
#SCROLLS:0.000=1.000;
#FAKES:;
#LABELS:0.000=Song Start;
#BGCHANGES:;
#KEYSOUNDS:;
#ATTACKS:
;

//---------------dance-single - ----------------
#NOTEDATA:;
#CHARTNAME:;
#STEPSTYPE:dance-single;
#DESCRIPTION:;
#CHARTSTYLE:;
#DIFFICULTY:Hard;
#METER:16;
#RADARVALUES:0.767347,0.735357,0.295238,0.304762,1.028571,564.000000,533.000000,31.000000,32.000000,0.000000,0.000000,0.000000,0.000000,0.000000,0.767347,0.735357,0.295238,0.304762,1.028571,564.000000,533.000000,31.000000,32.000000,0.000000,0.000000,0.000000,0.000000,0.000000;
#CREDIT:;
#NOTES:
0000
0000
0000
0000
,
0000
0000
0000
0000
,
0000
0000
0000
0000
,
0000
0000
0000
0000
,
0000
0000
0000
0000
,
0010
0000
0010
0010
0000
0001
0100
0000
0100
1000
0010
0000
0000
0010
0001
0100
,
0000
0100
0010
1000
0000
2000
3000
2000
3000
0010
0100
0000
0100
0010
0000
0000
,
0010
0001
1000
0000
1000
0000
0010
0100
0010
0000
0001
1000
0000
0100
1000
0100
,
1000
0000
0001
0000
0010
0000
0010
0001
0100
0000
0000
0100
0010
1000
0000
0000
,
1000
0001
0000
0000
0001
0010
0000
0100
0000
0010
1000
0000
1000
0001
0001
0000
,
0010
0100
0000
0010
0100
1000
0000
0000
1000
0011
0000
0000
0001
0100
0000
0010
,
0100
1000
0000
0000
1000
0000
0010
0100
0001
0010
0000
0010
0001
0000
0100
1000
,
0000
1000
0010
0100
0010
0100
0000
0010
0001
1000
0000
1000
0100
0000
0100
0000
,
0011
0000
0100
1000
0001
0000
0001
0100
0200
0300
0010
0001
1000
1000
0000
1002
,
0003
0010
0100
0000
0100
0010
0001
2100
3000
0000
1000
0010
0010
0000
0201
0000
,
0300
0010
1000
0100
1000
0001
0000
0001
0100
0100
0010
0000
2100
3000
1000
0010
,
0100
0010
0001
0002
0000
0003
0010
0001
0100
0000
0100
1000
1020
0000
0030
0010
,
0100
0000
0100
0000
1000
0001
1000
0001
1000
0000
0001
0000
1000
0100
0010
0100
,
0010
0100
0010
0000
0001
0000
0010
0100
0010
0001
1000
0000
1000
0010
0010
0100
,
0000
0100
0010
0001
0000
0001
0100
0000
0010
0100
1000
0000
1000
0001
0000
0001
,
0100
0100
0010
0000
1000
1000
0001
0000
0001
0000
0100
0010
0100
0010
0001
1000
,
0000
1000
0010
0100
0010
0000
1002
0000
0013
1002
0000
0003
0102
0003
0012
0003
,
1000
0010
0100
0000
0001
2010
0010
3000
2100
0000
3000
2010
0100
3000
2001
3000
,
0000
2100
3000
0000
2010
3001
0100
0000
0010
0001
1000
0000
0010
0100
0020
0000
,
1030
0000
0000
0000
0000
0000
0001
0000
0000
0100
0000
0000
0000
0000
0000
0010
1000
0000
0100
0000
0000
0000
0000
0000
1000
0000
0000
0001
0000
0000
0000
0000
0000
0010
0000
0000
0100
0000
0000
0010
0000
0000
1000
0000
0000
0001
0000
0000
,
0100
0100
0000
0010
0001
2100
0000
3100
0000
1000
0000
0010
0100
0020
0000
0030
,
0001
1000
0000
1000
0000
0010
0100
0000
0020
0030
0001
1000
0100
1000
0001
0000
,
0100
0000
0120
0000
0030
1000
0001
0100
0100
0000
0010
0100
0000
1002
0000
0003
,
0100
0010
0001
0000
2100
3000
0010
0100
0001
0000
2100
0000
3010
0000
2001
0000
,
3010
0000
0010
0100
0000
0100
0012
0003
0100
2000
0000
3000
0010
0000
0010
0100
,
0010
0001
1000
0100
1000
0010
0000
0010
0100
0000
0010
0001
1000
0000
1000
0010
,
0000
0100
0010
0000
0001
0100
1000
0000
0000
1000
0010
0000
0100
0010
0001
0000
,
0001
0100
1000
0000
0100
1000
0000
0000
1000
0010
0000
0100
0010
0001
0000
0100
,
1000
0000
0000
1000
0010
0001
0000
0000
0001
0100
0000
1010
0000
0000
1000
0010
,
0100
0000
0010
0001
0000
0100
0100
1000
0000
0010
0010
0000
0100
0010
0001
0001
,
1000
0000
1000
0010
0100
0000
0010
0001
0100
1000
0001
0000
1000
0001
0010
0000
,
0100
0010
0001
1000
0100
1000
0001
0000
0010
0000
0100
0010
0100
0001
1000
0001
,
1000
0000
0100
0000
0010
0000
0001
1000
0001
0000
0100
0000
1000
0001
1000
0000
,
0010
0000
0001
1000
0001
0000
0100
0000
1000
0010
1000
0000
0001
0000
0100
1000
,
0100
0000
0010
0000
0001
0010
0001
0000
0100
0000
1000
0100
1000
0000
0100
0000
,
0010
0001
0010
0000
0001
0100
0001
0000
1010
0000
1000
0000
0110
0000
0000
0000
,
1000
0010
1000
0000
0001
0100
0001
0000
0010
0000
0100
1000
0100
0000
0001
0010
,
0001
0000
1000
0000
0100
1000
0100
0000
0010
0000
0001
0010
0001
0100
1000
0000
,
0100
0001
0100
0010
0001
0000
0010
1000
0010
0000
0100
0000
1000
0010
1000
0100
,
0001
0010
0001
0000
1000
0100
0000
0000
0110
0000
0000
0010
0100
0000
1001
0000
,
0010
0100
0010
0000
0001
0000
1000
0010
1000
0000
0100
0000
0010
1000
0010
1000
,
0010
0000
0001
0010
0100
0000
1000
0010
1000
0100
1000
0000
0010
0001
0010
0000
,
0100
1000
0100
0000
0010
0000
0001
1000
0001
1000
0001
0000
0100
0001
0100
0000
,
0010
0000
1000
0100
1000
0100
1000
0000
0001
0010
0001
1000
0100
0010
0100
0000
,
1001
0000
0010
0100
0010
0000
0001
0000
0100
1000
0100
1000
0100
0000
0010
0001
,
0010
0000
0100
0000
1000
0010
1000
0000
0001
0100
0001
0000
0100
0000
0010
0001
,
0010
0001
0010
0000
0100
0000
1000
0010
0001
0100
0001
0100
0001
0000
0000
0100
,
1000
0100
1000
0000
0010
0100
0010
0100
0010
0100
0010
0100
0010
0100
0000
0000
,
2002
3003
0000
0000
;

//---------------dance-single - ----------------
#NOTEDATA:;
#CHARTNAME:;
#STEPSTYPE:dance-single;
#DESCRIPTION:;
#CHARTSTYLE:;
#DIFFICULTY:Challenge;
#METER:18;
#RADARVALUES:0.971429,0.942619,0.514286,0.742857,1.552381,714.000000,660.000000,54.000000,78.000000,15.000000,0.000000,0.000000,0.000000,0.000000,0.971429,0.942619,0.514286,0.742857,1.552381,714.000000,660.000000,54.000000,78.000000,15.000000,0.000000,0.000000,0.000000,0.000000;
#CREDIT:;
#NOTES:
0000
0000
0000
0000
,
0000
0000
0000
0000
,
0000
0000
0000
0000
,
0000
0000
0000
0000
,
0000
0000
0000
0000
,
0110
0000
0001
0001
1000
0100
1000
0010
0100
0001
0011
1000
0100
1000
1000
0010
,
0100
0000
0000
0100
0000
0000
0001
0000
0000
1000
0000
0000
1000
0000
0000
0010
0000
0000
0100
0000
0001
0000
0000
0000
0100
0000
0000
0001
0000
0000
1000
0000
0000
0100
0000
0000
1000
0000
0000
0010
0000
0000
0000
0000
0000
0010
0000
0000
,
0100
0000
0000
0002
0000
0000
0003
0000
0010
1000
0000
0000
0100
0000
0000
1000
0000
0000
0010
0000
0000
0010
0000
0000
1000
0000
0000
0001
0100
0000
0010
0000
0000
0100
0000
0000
0001
0000
0000
1000
0000
0000
1000
0000
0000
0010
0000
0000
,
0100
0000
0000
0000
1000
0000
0010
0000
0000
0001
0000
0000
0100
0000
0000
0000
0000
0000
1000
0000
0100
0010
0000
0000
0001
0000
0000
1000
0000
0000
0100
0000
0000
1000
0000
0000
0010
0000
0000
0100
0001
0000
0100
0000
0000
0000
0000
0000
,
1001
0000
0000
0000
0000
0000
MM10
0000
0000
0000
0000
0000
0010
0000
0000
0100
0000
0000
0001
0000
0000
1000
0000
0000
0100
0000
0000
1000
0000
0000
0001
0000
0000
0001
0000
0000
0100
0000
0000
0000
0000
0000
1000
0000
0001
0000
0000
0000
,
0010
0000
0000
0100
0000
0000
0100
0000
0000
1000
0000
0000
0001
0000
0000
0001
1000
0000
0010
0000
0000
0001
0000
0000
0100
0000
0000
0001
0000
0000
1000
0000
0010
0100
0000
0000
1000
0000
0000
0001
0000
0000
0001
0000
0000
0000
0000
0000
,
1000
0000
0000
0000
01MM
0000
0000
0000
0000
1100
0000
0000
0000
0000
0000
0010
0000
0000
0001
0000
0000
1000
0000
0000
0100
0000
0000
1000
0000
0000
0010
0000
0000
0100
0000
0000
0010
0000
0000
0001
0000
0000
0001
0000
0000
1000
0000
0000
,
0100
0000
0000
1000
0000
0000
0000
0000
0000
1000
0000
0000
0010
0000
0000
0100
0000
0000
0001
0000
0000
0000
0000
0000
0001
0000
0000
1000
0000
0000
0100
0000
0000
1000
0000
0000
0001
0000
0000
0000
0000
0000
0001
0000
0010
0000
0000
0000
,
0010
0000
0000
0000
0100
0000
1001
0000
0000
0000
0000
0000
0010
0000
0000
0010
0001
0000
1000
0000
0000
0100
0000
0000
1000
0000
0000
0001
0010
0000
0100
0000
0000
0100
0000
0000
1001
0000
0000
0000
0000
0000
1100
0000
0000
0000
0000
0000
,
1010
0000
0000
0010
0000
0000
0100
0000
0000
0001
0000
0000
0001
0000
0000
0100
1000
0000
0010
0000
0000
1000
0000
0000
0010
0000
0000
1000
0000
0000
0001
0000
0000
0001
0000
0000
0100
0000
0000
0000
0000
0000
1010
0000
0000
0000
0000
0000
,
1100
0000
0000
0000
0000
0000
1001
0000
0010
0000
0000
0000
0000
0000
0000
0100
0000
0000
0000
0000
0010
1000
0000
0000
0001
0000
0000
0100
0000
0000
0010
0000
0000
0010
0000
0000
1000
0000
0000
0100
0000
0000
1000
0000
0010
0001
0000
0000
,
0001
0000
0000
0100
0000
0000
0010
0000
0000
0001
0000
0000
1000
0000
0000
1000
0000
0000
0110
0000
0000
0000
0000
0000
0010
0000
0000
0001
0000
0000
1000
0000
0000
0100
00M0
0000
1000
0000
0000
1000
0000
0000
0001
0000
0000
0010
0000
0000
,
0110
0000
0000
0000
1000
0000
0000
0000
1000
0010
0000
0000
0100
0000
0000
0001
0000
0000
1000
0000
0000
0100
0000
0000
1000
0000
0000
0010
0000
0000
0010
0000
0000
0100
0000
0000
0000
0000
0000
0000
0000
0000
1100
0000
0000
0011
0000
0000
,
1100
0000
0000
0000
0000
0000
0010
0000
0100
0000
0000
0000
0000
0000
0000
0010
0000
0000
1000
0000
0000
0001
0000
0000
0100
0000
0000
0100
0000
0000
0010
0000
0001
1000
0000
0000
0100
0000
0000
1000
00M0
0000
0001
0000
0000
0000
0000
0000
,
0001
0000
0000
0010
0100
0000
1000
0000
0000
1000
0000
0000
0001
0000
0000
0100
0000
0000
0010
0000
0000
0010
0000
0000
1000
0000
0000
0100
0001
0000
1000
0000
0000
0011
0000
0000
0000
0000
0000
0001
1000
0000
0100
0000
0000
0010
0000
0000
,
1100
0000
0000
0000
0000
0000
1000
0000
0010
0001
0000
0000
0000
0000
0000
0100
0000
0000
0010
0000
0000
001M
0000
0000
1000
0000
0000
0100
0000
0000
1000
0000
0000
0001
0000
0000
0100
0000
0000
0100
0010
0000
0000
0000
0000
0000
0000
0000
,
1001
0000
0002
0103
0010
1100
0010
0100
0010
1000
0010
0100
0010
0001
0000
0001
,
2000
3001
0200
0300
0010
0001
0010
0100
0010
0100
0010
1000
0010
0001
1000
0001
,
1000
0021
0230
0300
0001
0000
1001
0010
0001
0010
0100
0010
0100
0010
0001
1000
,
0010
0001
0100
0001
M100
0001
0010
0001
0M10
0001
0010
1000
0001
1000
0001
0000
,
0110
0000
0002
0000
1003
0010
1000
0100
1000
0010
0001
0010
0001
0010
0200
0310
,
2000
3001
0100
0001
0010
0001
1000
0100
1000
0100
1000
0010
0001
0010
0200
0320
,
0030
0000
1000
0001
1000
0100
0000
0100
0010
0002
0003
1000
0002
0003
0010
0100
,
0000
0000
0000
0100
0000
0000
0010
0000
0000
1100
0000
0000
0010
0000
0000
0001
0000
0000
0010
0000
0000
1000
0000
0000
0100
0000
0000
1000
0000
0000
0100
0000
0000
1000
0000
0000
0001
0000
0000
0000
0001
0000
0000
0000
0000
0010
0000
0000
,
0100
0000
0000
0000
1001
0000
0000
0000
0000
0010
0000
0000
1000
0000
0000
0000
0000
0000
0210
0000
0000
0300
0000
0000
0001
0000
0000
0001
0000
0000
0001
0000
0000
0001
0000
0000
1000
0000
0000
0100
0000
0000
1000
0000
0000
0010
0000
0000
,
0010
0010
0100
0001
1100
1000
1000
0001
0010
0100
0100
1000
0010
0102
0003
0001
,
1000
0100
1000
0010
0010
0010
0100
1000
0001
0100
0100
1000
0010
0100
0001
0001
,
0001
1000
0100
0010
0100
0001
1100
0000
1000
0010
0100
0001
0020
0031
1000
0100
,
1001
0000
1000
0000
0110
0000
1001
0000
0100
0001
1000
0010
0100
0100
0010
0001
,
1000
0100
1000
0000
0011
1000
0000
0010
0100
0010
0100
0010
1000
0100
1000
0001
,
0010
0001
0100
1010
0000
0010
1000
0100
1000
0001
0010
0001
0100
1010
0000
0010
,
0100
0010
0001
2100
3000
0100
0010
0100
0010
0001
1000
1000
0010
0100
0100
0000
,
1001
0000
0000
0000
0000
0000
0020
0000
0000
0130
0000
0000
0020
0000
0000
0130
0000
0000
0020
0000
0000
0030
0000
0000
0000
0000
0000
0200
0000
0000
0310
0000
0000
0200
0000
0000
1300
0000
0000
0200
0000
0000
0300
0000
0010
0000
0000
0000
,
0002
0000
0000
0003
0000
0000
1002
0000
0000
0003
0000
0000
0102
0000
0000
0003
0000
0000
0000
0000
1000
0200
0000
0000
0310
0000
0000
0200
0000
0000
0301
0000
0000
0200
0000
0000
0300
0000
0000
0000
0000
0000
0010
0000
0000
0000
0000
0000
,
0002
1003
0002
0013
0002
0003
0000
0100
2000
3000
2001
3000
2000
3000
0010
0200
,
0300
0200
0301
0200
0310
0000
1001
0000
0200
0320
0030
0200
2300
3000
0110
0000
,
0002
0000
0003
0010
2000
3100
2000
3100
2000
3000
0201
0300
0201
0300
0201
0300
,
0000
0020
0130
0020
0130
0020
0030
1000
0002
0013
0102
0003
1002
0003
0010
0100
,
0000
2000
3010
2000
3100
2000
3000
0010
0010
0200
1300
0200
0300
0201
0300
0000
,
0000
0020
1030
0020
0130
0020
0030
0000
1001
0000
0000
0000
0010
0100
0001
0000
,
1001
0000
0000
0000
0000
0000
0100
0000
0000
1000
0000
0000
0100
0000
0000
0001
0000
0000
0010
0000
0000
0000
0000
0000
1000
0000
0000
0000
0002
0000
0100
0000
0003
0010
0000
0000
1000
0000
0000
0000
0020
0000
0001
0000
0030
0100
0000
0000
,
0001
0000
0000
0000
2000
0000
0010
0000
3000
0000
0000
0000
0100
0000
0000
1000
0002
0000
0100
0000
0003
0000
0000
0000
0010
0000
0000
0000
0000
0000
1000
0000
0000
0001
0000
0000
0100
0000
0000
0000
0020
0000
1000
0000
0030
0000
0000
0000
,
0001
0000
0000
0010
0200
0000
0001
0000
0300
0000
0000
0000
1000
0000
0000
0000
0000
0000
010M
0000
0000
0000
0000
0000
0110
0000
0000
0000
0000
0000
0001
0000
0000
0010
0000
0000
1000
0000
0000
0100
0000
0000
1000
0000
0002
0000
0000
0000
,
0013
0000
0100
1000
0101
0010
1000
0000
0100
0010
1000
0001
0010
0000
0MM0
0000
,
1001
0000
0000
0000
0000
0000
0100
0000
0000
0000
0000
0000
0100
0000
0000
0010
0000
0000
1000
0000
0200
0000
0000
0000
1300
0000
0000
0001
0020
0000
0000
0000
0030
0001
0000
0000
0100
0000
0000
0010
0000
0000
0000
0000
0002
0010
0000
0000
,
1003
0000
0000
0100
0000
0000
1000
0000
0020
0001
0000
0000
0030
0000
0000
0001
0000
0000
0100
0000
0000
0010
0000
0000
1000
0000
0000
1000
000M
0000
0010
0000
0000
0100
0000
0000
0010
0000
0000
0001
0000
0000
0001
0000
0000
1000
0000
0000
,
0100
0000
0000
1000
0000
0000
000M
0000
0000
0010
0000
0000
0010
0000
0000
0100
0000
0000
0001
0000
0000
0000
00M0
0000
0001
0000
0000
1000
0000
0000
0100
0000
0020
0000
0000
0000
1030
0000
0000
0001
0000
0000
0100
0000
0000
0000
0000
0000
,
0100
0000
0010
0010
1000
0001
1000
0001
1000
0001
1000
0001
1000
0001
1000
0000
,
2002
0000
3003
0000
;

//---------------dance-single - ----------------
#NOTEDATA:;
#CHARTNAME:;
#STEPSTYPE:dance-single;
#DESCRIPTION:;
#CHARTSTYLE:;
#DIFFICULTY:Medium;
#METER:14;
#RADARVALUES:0.546939,0.581845,0.123810,0.114286,0.357143,402.000000,389.000000,13.000000,12.000000,0.000000,0.000000,0.000000,0.000000,0.000000,0.546939,0.581845,0.123810,0.114286,0.357143,402.000000,389.000000,13.000000,12.000000,0.000000,0.000000,0.000000,0.000000,0.000000;
#CREDIT:;
#NOTES:
0000
0000
0000
0000
,
0000
0000
0000
0000
,
0000
0000
0000
0000
,
0000
0000
0000
0000
,
0000
0000
0000
0000
,
1001
0000
0010
0100
0001
1000
0100
0000
,
0010
0001
0010
0000
1000
0000
0100
0010
,
1000
0000
0001
0001
0001
1000
0100
0000
,
0010
0001
0100
0000
1000
0100
1000
0001
,
0010
0000
0110
1000
0100
1000
0100
0100
,
0001
0010
0100
0010
0010
1000
0001
0010
,
0100
0010
1000
1000
1000
0000
0100
0010
,
0000
0001
0010
0100
0000
0100
1000
0000
,
0110
0000
0010
0010
0001
0001
1000
1000
,
1000
0010
0100
0010
1000
0100
1000
0010
,
0001
0001
0100
0000
0100
0010
1000
0100
,
1000
0001
0001
0100
0010
0100
0010
1000
,
1001
0010
0010
1000
0000
1000
0100
0010
,
0100
0010
1000
1000
1000
0000
0100
0010
,
0001
0100
0100
0010
1000
0100
1000
0001
,
0010
0010
0100
0010
0001
1000
0100
1000
,
0110
0000
0001
0000
0000
0001
0000
0000
0001
0000
0000
0001
0000
0000
0001
0000
,
0100
0010
1000
0000
0001
0000
0001
0000
0000
0001
0000
0000
0010
1000
0100
0000
,
0001
0000
0001
0000
0000
0001
0100
0000
0001
0000
0001
0000
0000
0001
1000
0000
,
0001
0000
0001
0000
0000
0000
0001
0100
0001
0000
0100
0000
0001
0000
0000
0001
,
0010
0000
0001
0000
0001
0000
0000
0001
1000
0000
0001
0000
0001
0000
0000
0001
,
1000
0001
0001
0010
0001
0010
0001
0001
,
0000
0001
1000
0000
0001
0000
0001
0000
0000
0001
0100
0000
0001
0000
0001
0000
,
0100
0001
0000
0000
0001
0000
0001
0000
0001
0000
0000
0000
0010
0000
0010
0000
,
0001
1000
0100
1000
0010
0010
0010
0100
,
1000
0100
0100
0100
0010
0010
0100
0100
,
0010
0001
1000
1000
1000
0100
1000
0010
,
0100
0100
0100
0010
0100
0001
0001
0001
,
2200
3300
0010
0100
0010
0100
0001
0001
,
1000
0100
1000
0010
0010
0010
0100
0001
,
1000
0100
1000
0100
0010
0010
0010
0100
,
0001
0010
0001
1000
0100
0100
0000
0000
,
0010
0100
0010
0100
0010
0000
0000
0001
0000
0010
0100
0000
0010
0100
0000
0000
,
0001
0000
0000
0001
1100
0000
0010
0000
0000
0001
0010
0000
0000
0110
0000
0000
,
1000
0001
1000
0001
1000
0000
0000
0000
0100
0010
0100
0010
0100
0000
0000
0001
,
0010
0000
1000
0100
0000
1000
0000
0000
2200
0000
3300
0000
0022
0000
0033
0000
,
0000
0100
0010
0100
0010
0100
0000
0000
0010
0000
1000
0001
1000
0001
1000
0000
,
0000
0010
0000
0010
0000
0010
0000
0000
0100
1000
0100
1000
0100
0000
0000
0000
,
0001
0010
0001
0010
0001
0000
0100
0000
1000
0010
1000
0010
1000
0000
0000
0000
,
0100
0001
0100
0001
0100
0000
0000
0000
2200
0000
3300
0000
0022
0000
0033
0000
,
0000
0100
0000
1000
0001
0000
0010
0100
0000
0010
1000
0000
0001
0100
0000
0010
,
1000
0000
0100
1000
0000
0010
0001
0100
0000
0000
0100
0000
0010
1000
0000
0100
,
1000
0001
0000
0000
0100
0001
1000
0010
0000
0000
0001
1000
0010
0001
0100
0000
,
0010
0000
0001
0100
0000
0010
1000
0000
0100
1000
0001
0000
0100
0010
1000
0000
,
0000
0100
0010
0000
1000
0000
0001
0010
0001
0000
1000
0000
1000
0000
0010
0000
,
0100
0000
0100
0010
0100
0000
0100
0000
0001
0010
0001
0010
0001
0000
0100
0000
,
1000
0000
0010
0001
0010
0000
0010
0000
0100
0000
0001
0000
0001
0100
0001
0000
,
1000
0000
1000
0010
1000
0000
1000
0000
0010
0100
0010
0100
0010
0000
0000
0000
,
2002
3003
0000
0000
0000
0000
0000
0000
;

//---------------dance-single - ----------------
#NOTEDATA:;
#CHARTNAME:;
#STEPSTYPE:dance-single;
#DESCRIPTION:;
#CHARTSTYLE:;
#DIFFICULTY:Easy;
#METER:8;
#RADARVALUES:0.323810,0.404762,0.133333,0.019048,0.000000,238.000000,224.000000,14.000000,2.000000,0.000000,0.000000,0.000000,0.000000,0.000000,0.323810,0.404762,0.133333,0.019048,0.000000,238.000000,224.000000,14.000000,2.000000,0.000000,0.000000,0.000000,0.000000,0.000000;
#CREDIT:;
#NOTES:
// measure 0
0000
0000
0000
0000
,  // measure 1
0000
0000
0000
0000
,  // measure 2
0000
0000
0000
0000
,  // measure 3
0000
0000
0000
0000
,  // measure 4
0000
0000
0000
0000
,  // measure 5
0001
0100
1000
0010
,  // measure 6
0010
0001
0100
1000
,  // measure 7
0100
0100
0010
0010
,  // measure 8
0001
0001
1000
0010
,  // measure 9
0110
1000
1000
0001
,  // measure 10
0010
0100
0010
0100
,  // measure 11
0010
1000
1000
0001
,  // measure 12
1000
0010
0100
0001
,  // measure 13
1001
0100
0100
0010
,  // measure 14
0010
0001
0001
1000
,  // measure 15
1000
0100
0100
0010
,  // measure 16
0001
1000
0010
0100
,  // measure 17
1001
0100
0100
0010
,  // measure 18
1000
1000
0001
0100
,  // measure 19
0010
1000
0100
0100
,  // measure 20
0001
0010
1000
0100
,  // measure 21
0011
1000
1000
0010
,  // measure 22
0001
0010
0010
1000
,  // measure 23
1000
1000
0100
0100
,  // measure 24
0100
0010
0010
0001
,  // measure 25
0001
1001
0010
0100
,  // measure 26
1000
0100
0010
0001
,  // measure 27
0010
0001
0010
0100
,  // measure 28
0010
0100
1000
0001
,  // measure 29
1001
0100
0100
0010
,  // measure 30
0010
1000
1000
0001
,  // measure 31
0001
0010
0100
0010
,  // measure 32
1000
0100
0001
1000
,  // measure 33
0110
1000
0010
0001
,  // measure 34
0100
0100
0010
0001
,  // measure 35
1000
0100
1000
0010
,  // measure 36
0010
0001
0100
1000
,  // measure 37
0110
0000
0001
0010
0001
1000
0100
1000
,  // measure 38
0000
0010
0100
0010
0000
0001
1000
0001
,  // measure 39
0100
0010
0100
0000
0001
1000
0001
0000
,  // measure 40
0100
1000
0100
0000
0011
0000
1100
0000
,  // measure 41
0010
0001
0100
1000
0001
0000
0010
0100
,  // measure 42
0010
1000
0100
1000
0010
0001
0010
0000
,  // measure 43
0100
1000
0001
0000
0010
0100
0010
0000
,  // measure 44
0100
1000
0100
0000
0011
0000
1100
0000
,  // measure 45
0001
0000
0001
0100
0001
0010
0001
0000
,  // measure 46
0010
0000
0010
0100
0010
1000
0010
0000
,  // measure 47
0100
0000
0100
0010
0100
1000
0100
0000
,  // measure 48
1000
0001
1000
0010
1000
0000
1000
0000
,  // measure 49
0110
0000
0010
1000
0001
0000
1000
0010
,  // measure 50
0100
1000
0010
0100
,  // measure 51
0010
1000
0001
0100
,  // measure 52
0001
0001
1000
0010
0100
0100
1000
0010
,  // measure 53
2002
3003
0000
0000
0000
0000
0000
0000
;

//---------------dance-single - ----------------
#NOTEDATA:;
#CHARTNAME:;
#STEPSTYPE:dance-single;
#DESCRIPTION:;
#CHARTSTYLE:;
#DIFFICULTY:Beginner;
#METER:4;
#RADARVALUES:0.258503,0.252976,0.095238,0.019048,0.000000,190.000000,180.000000,10.000000,2.000000,0.000000,0.000000,0.000000,0.000000,0.000000,0.258503,0.252976,0.095238,0.019048,0.000000,190.000000,180.000000,10.000000,2.000000,0.000000,0.000000,0.000000,0.000000,0.000000;
#CREDIT:;
#NOTES:
0000
0000
0000
0000
,
0000
0000
0000
0000
,
0000
0000
0000
0000
,
0000
0000
0000
0000
,
0000
0000
0000
0000
,
1001
0000
0010
0001
,
0000
0100
1000
0000
,
0010
0010
0010
0100
,
0100
0100
0010
0000
,
1001
0010
0010
0000
,
0100
0100
0010
0001
,
0001
0000
0100
0010
,
0000
0100
1000
0001
,
1001
0100
0000
0001
,
1000
0010
0010
0100
,
0010
0100
0001
1000
,
1000
0010
0100
0000
,
1001
0010
0010
0100
,
0100
0001
0100
1000
,
0010
0001
0100
0100
,
1000
0010
0100
0001
,
1000
1000
1000
0010
,
0001
0001
0001
0001
,
0010
0100
0001
1000
,
1000
0100
0100
0000
,
0110
0001
0001
1000
,
1000
0010
0100
0010
,
0001
0001
1000
1000
,
0010
0000
1000
0001
,
1001
0010
0100
0010
,
1000
0100
1000
0001
,
0010
0001
0100
0100
,
0100
0010
0100
0010
,
1001
0000
0100
0010
,
1000
1000
0001
0100
,
0010
0001
1000
1000
,
0010
0100
0010
0000
,
1000
1000
0001
0001
,
0100
0100
0010
0010
,
1000
1000
0001
0001
,
0100
0100
0001
1001
,
0010
0100
1000
0100
,
0010
0001
0010
0100
,
1000
0100
0010
0001
,
0010
0100
1000
1001
,
0010
0100
0010
1000
,
1000
0001
0010
0001
,
0100
0100
0010
1000
,
0100
0001
0001
0010
,
0100
0010
1000
1000
,
0010
0001
1000
0010
,
0010
1000
0001
0100
,
1000
0010
0010
0100
,
2002
3003
0000
0000
0000
0000
0000
0000
;
