#TITLE:Silver Platform;
#SUBTITLE:- I wanna get your heart - (Full Version);
#ARTIST:U1 Reincarnates w/Leah;
#TITLETRANSLIT:;
#SUBTITLETRANSLIT:;
#ARTISTTRANSLIT:;
#GENRE:;
#CREDIT:PaperBox440;
#BANNER:Silver Platform - I wanna get your heart - (Full Version).png;
#BACKGROUND:Silver Platform - I wanna get your heart - (Full Version)-bg.png;
#LYRICSPATH:;
#CDTITLE:;
#MUSIC:Silver Platform - I wanna get your heart - (Full Version).mp3;
#OFFSET:0.000000;
#SAMPLESTART:17.571428;
#SAMPLELENGTH:19.285715;
#SELECTABLE:YES;
#BPMS:0.000000=140.000000
;
#STOPS:
;
#BGCHANGES:;
#KEYSOUNDS:;
#ATTACKS:;

//---------------dance-single - ----------------
#NOTES:
     dance-single:
     :
     Hard:
     12:
     0.543308,0.661027,0.576081,0.361962,0.025490,746.000000,633.000000,113.000000,71.000000,0.000000,0.000000,0.543308,0.661027,0.576081,0.361962,0.025490,746.000000,633.000000,113.000000,71.000000,0.000000,0.000000:
// measure 0
0000
0000
0000
0000
,  // measure 1
0000
0000
0000
0000
,  // measure 2
0000
0000
0010
0010
0100
0010
1000
1000
,  // measure 3
0001
0000
0010
0100
0010
0100
0001
1000
,  // measure 4
0001
0000
1000
1000
0010
0100
0000
0100
,  // measure 5
0010
0010
1000
0001
1000
0100
0002
0023
,  // measure 6
0230
2300
3000
0000
0010
0001
1000
1000
,  // measure 7
0010
0100
0010
0001
0001
1000
1000
0000
,  // measure 8
0001
1000
0001
0100
1000
0010
0001
0000
,  // measure 9
0001
0000
0010
0100
0010
1000
1000
0002
,  // measure 10
2003
3000
0010
0100
0001
0001
0010
0100
,  // measure 11
0100
0010
0100
0001
1000
0001
1000
0000
,  // measure 12
0210
0010
0310
0000
0001
0001
0010
0100
,  // measure 13
1000
0001
1000
0000
0010
0010
0100
0001
,  // measure 14
1000
1000
0010
0010
0001
0100
1000
1000
,  // measure 15
0001
0010
0001
0000
0100
0100
0001
0010
,  // measure 16
0100
0010
0001
0001
0100
1000
1000
0000
,  // measure 17
0120
0000
0100
0000
0130
0000
0000
0010
0000
0000
0010
0001
0000
0000
0001
0000
,  // measure 18
1000
0000
2000
0000
0000
0000
3100
0000
0001
0000
0002
0000
0000
0010
0003
0000
,  // measure 19
0010
0000
0200
0000
0000
0010
0000
0000
0310
0000
0000
0000
2000
0000
0100
0000
,  // measure 20
0001
0001
0010
0000
3100
0000
0002
0023
,  // measure 21
0230
2300
3000
0000
1000
1000
0001
0001
,  // measure 22
0010
0100
0010
1000
1000
0020
0000
1000
,  // measure 23
0030
0000
0100
0000
0000
0100
0000
0000
0010
0000
0001
0000
0001
0000
1000
0000
,  // measure 24
1000
0000
0020
0030
0020
0030
0020
0000
,  // measure 25
1000
0100
1000
0100
,  // measure 26
1030
0002
0000
0100
,  // measure 27
1000
0000
1003
0000
0010
0010
0010
0000
,  // measure 28
0100
1000
2000
0000
0000
0000
0010
0000
,  // measure 29
0000
0100
3000
0000
,  // measure 30
0010
0000
0100
0100
0001
0001
1000
0100
,  // measure 31
1000
0010
0010
0100
0100
0001
0010
0001
,  // measure 32
0100
1000
1000
0001
0010
0001
0100
0100
,  // measure 33
0000
1000
0100
0100
0001
0010
0001
0000
,  // measure 34
1000
0010
1010
0001
,  // measure 35
0110
0000
1000
0000
0011
0000
0100
0010
,  // measure 36
1010
0100
0110
0001
,  // measure 37
0101
0010
1100
0110
,  // measure 38
1000
1000
1010
0000
0010
0000
0110
0000
,  // measure 39
1000
1001
0001
0110
,  // measure 40
0100
1000
1010
0000
1000
0000
0011
0000
,  // measure 41
0100
0000
1010
0000
0100
0000
0001
0010
,  // measure 42
0100
0000
1000
1000
0001
0001
0010
0100
,  // measure 43
1000
0000
1000
1000
0010
0001
0100
1001
,  // measure 44
1001
0000
0100
0010
0001
0010
1100
1100
,  // measure 45
0011
0000
1000
0100
1000
0000
0110
0110
,  // measure 46
1100
0000
0001
0001
0010
0100
0000
0100
,  // measure 47
0010
1000
1000
0100
0001
0010
0001
0100
,  // measure 48
0100
0010
1000
0100
1000
1000
0002
0023
,  // measure 49
0230
2300
3000
0100
0001
0001
0010
0100
,  // measure 50
0100
0010
1000
1000
0001
0010
0001
0100
,  // measure 51
0100
0010
1000
1000
0100
0001
0010
0001
,  // measure 52
0100
0100
0010
0010
1000
0100
1000
0010
,  // measure 53
0010
0100
0001
0001
0010
0100
0100
0020
,  // measure 54
0000
0030
1000
1000
0100
0100
0001
0010
,  // measure 55
0001
0000
1010
1010
0100
0000
1100
1100
,  // measure 56
1001
0000
0010
0100
0001
0001
1100
1100
,  // measure 57
0011
0000
0100
0010
0100
0000
1000
1000
,  // measure 58
0000
1001
0000
0100
0000
0110
0000
0001
,  // measure 59
0010
0100
0000
1100
0010
0001
0000
0011
,  // measure 60
1000
0000
1000
0010
0010
0100
0000
1100
,  // measure 61
0001
0010
0001
1000
0000
1001
0100
0000
,  // measure 62
0110
0000
1010
0001
0000
0001
0100
0000
,  // measure 63
0100
0000
1010
0000
0110
0000
0010
0001
,  // measure 64
0001
0000
1100
0000
1010
0000
0100
0100
,  // measure 65
1000
0001
0010
0001
0100
0100
0000
0010
,  // measure 66
0000
0000
1001
0000
0010
0100
1010
0000
,  // measure 67
1000
0001
1000
0010
0100
0000
1001
0000
,  // measure 68
1001
0000
1000
0010
0100
0010
0001
0000
,  // measure 69
0011
0000
0100
0010
0100
0000
1001
0000
,  // measure 70
1001
0000
0110
0000
1010
0000
0100
0010
,  // measure 71
0011
0000
1010
0000
0100
0100
0010
0000
,  // measure 72
1010
0000
1100
0000
0100
0010
0001
0000
,  // measure 73
0011
0000
1010
0000
1100
0000
1010
0100
,  // measure 74
0001
2001
3010
0210
,  // measure 75
0301
2010
3100
1002
,  // measure 76
0103
1020
0130
0201
,  // measure 77
0310
0000
2010
0000
3100
0000
0002
0023
,  // measure 78
0230
2300
3000
0000
0012
0000
0013
0000
,  // measure 79
1020
0130
1200
1300
,  // measure 80
2010
3001
0102
0013
,  // measure 81
0120
0000
1030
0000
1000
0002
0023
0230
,  // measure 82
2300
3000
0020
0000
0000
0000
0000
0000
,  // measure 83
0030
2000
0000
0000
0000
0000
0000
3000
,  // measure 84
0000
0002
0000
0000
,  // measure 85
0003
2000
0000
0000
0000
0000
0000
0000
,  // measure 86
3000
0000
0120
0000
1000
1000
0100
0000
,  // measure 87
0030
2001
0001
0010
0100
0010
0000
0100
,  // measure 88
3000
0010
0002
0000
1000
1000
0010
0100
,  // measure 89
0003
0020
1000
0100
0000
0100
0000
1030
,  // measure 90
0000
0000
0100
0000
0000
0000
2010
0000
0000
0010
0000
0000
0000
0000
0000
0100
0000
0000
0010
0000
0000
0000
0000
0000
,  // measure 91
3001
0010
0100
0010
1001
0000
1000
0100
,  // measure 92
0010
0010
2001
0000
0100
0010
3010
0000
,  // measure 93
1001
0000
1002
0010
0100
0000
0013
0000
,  // measure 94
1100
0020
1000
0100
1000
0100
0130
0000
,  // measure 95
1001
0000
2010
0100
0010
0001
0100
0100
,  // measure 96
3000
0011
0102
1000
0010
0100
0100
0003
,  // measure 97
1010
0200
0010
0010
0001
0010
0300
0000
,  // measure 98
0010
0000
1000
0010
0100
0100
0000
1001
,  // measure 99
1001
1100
0000
0100
0010
0010
1001
1001
,  // measure 100
1010
0000
0100
1000
1000
0000
0101
0101
,  // measure 101
1100
0001
0010
0100
0100
0000
1010
1010
,  // measure 102
0011
0000
0001
1000
0100
0100
1000
0000
,  // measure 103
0012
0000
0103
0000
1000
0010
0001
0100
,  // measure 104
0100
0000
2010
0000
0010
0000
3100
0001
,  // measure 105
0100
0010
0010
0000
2001
0000
0100
0000
,  // measure 106
3100
0000
0001
0001
0010
0100
0100
0000
,  // measure 107
2001
0000
0010
3000
0001
0100
0010
0010
,  // measure 108
0102
0100
1000
0003
0010
0100
0100
0000
,  // measure 109
1002
0000
0000
0000
0010
0000
0003
0000
0100
0000
1000
0000
1000
0100
0000
0010
,  // measure 110
0001
0000
0001
0000
0010
0000
0100
0001
0100
0000
0000
0000
1100
0000
1100
0000
,  // measure 111
0011
0000
1000
0000
1000
0000
0100
0010
0100
0000
0000
0000
0011
0000
0011
0000
,  // measure 112
1100
2002
0000
3003
;
