#VERSION:0.83;
#TITLE:She Shines Under The Mirror Ball;
#SUBTITLE:;
#ARTIST:Bemani Sound Team "Sota F.";
#TITLETRANSLIT:;
#SUBTITLETRANSLIT:;
#ARTISTTRANSLIT:;
#GENRE:;
#ORIGIN:;
#CREDIT:;
#BANNER:She Shines Under The Mirror Ball.png;
#BACKGROUND:She Shines Under The Mirror Ball-bg.png;
#PREVIEWVID:;
#JACKET:She Shines Under The Mirror Ball-jacket.png;
#CDIMAGE:;
#DISCIMAGE:;
#LYRICSPATH:;
#CDTITLE:;
#MUSIC:She Shines Under The Mirror Ball.mp3;
#OFFSET:0.000000;
#SAMPLESTART:53.750000;
#SAMPLELENGTH:13.250000;
#SELECTABLE:YES;
#BPMS:0.000=120.000;
#STOPS:;
#DELAYS:;
#WARPS:;
#TIMESIGNATURES:0.000=4=4;
#TICKCOUNTS:0.000=4;
#COMBOS:0.000=1;
#SPEEDS:0.000=1.000=0.000=0;
#SCROLLS:0.000=1.000;
#FAKES:;
#LABELS:0.000=Song Start;
#BGCHANGES:;
#KEYSOUNDS:;
#ATTACKS:
;

//---------------dance-single - ----------------
#NOTEDATA:;
#CHARTNAME:;
#STEPSTYPE:dance-single;
#DESCRIPTION:;
#CHARTSTYLE:;
#DIFFICULTY:Hard;
#METER:12;
#RADARVALUES:0.486594,0.486796,0.416308,0.028385,0.217616,360.000000,316.000000,44.000000,3.000000,0.000000,0.000000,0.000000,0.000000,0.000000,0.486594,0.486796,0.416308,0.028385,0.217616,360.000000,316.000000,44.000000,3.000000,0.000000,0.000000,0.000000,0.000000,0.000000;
#CREDIT:;
#NOTES:
0000
0000
0000
0000
,
0010
0110
1000
1001
,
0100
0001
1000
1000
0010
0100
0000
0100
,
0001
1000
0001
0100
0100
1000
1001
0000
,
0100
0000
0010
0000
0010
0000
1000
0001
1000
0000
0000
0000
1001
0000
0000
0000
,
0010
0001
0000
0100
1000
0001
1000
0010
,
0000
0010
0100
0100
0001
0000
0001
1000
,
0100
1000
0001
0000
0001
0100
0010
0100
,
1000
0000
1000
1001
0000
0100
0010
0000
,
0100
0010
0100
0001
0000
0001
1000
0100
,
1000
0001
0000
0100
0010
0000
1000
0001
,
1000
0000
0110
0000
1000
0010
0100
0001
,
0001
0000
1001
0000
0000
0000
0000
0000
0010
0100
0000
0000
1000
0000
1000
0000
,
0001
0010
0000
0000
0100
0000
0110
0000
0000
0000
1000
0001
0000
0000
0010
0000
,
0110
0000
0000
0000
1000
0000
1001
0000
0000
0000
0010
0000
1000
0010
0000
0000
,
0100
0000
0000
0000
0110
0000
0000
0000
0001
1000
0001
1000
0001
0000
0000
0000
,
1000
0000
0000
0000
0110
0000
1000
0000
1000
0010
0000
0000
0100
0000
0001
0000
,
0001
0100
0110
0000
1000
0001
0001
0100
,
0100
0000
0010
0000
0010
0000
0000
0001
1000
0000
0000
0000
0110
0000
0000
0000
,
2020
3030
1001
0000
,
0001
1000
0001
0000
0010
0000
0010
0000
0100
0000
0100
0001
0010
0000
1000
0100
,
0000
0110
0000
0001
1000
0000
1000
0000
,
0001
0000
0001
0000
1000
0100
0000
0100
0000
0000
0001
0000
0100
0010
0100
0000
,
1001
0000
0000
0000
0100
0000
0010
0000
0100
0000
0000
0000
0010
0100
1000
0000
,
0000
0000
0001
0000
0001
0000
0000
1000
0010
0000
0010
0000
0100
0000
0110
0000
,
0000
0000
0001
0000
0010
0000
0100
0000
0000
0000
1000
0001
1000
0000
0010
0000
,
0010
0000
0100
0000
0000
0000
0100
0010
0100
0000
1001
0000
1001
0000
0010
0000
,
0110
0000
1000
0001
1000
0100
0100
0010
,
1010
0000
0000
0000
0001
0010
0100
0000
0000
0100
0000
0000
0000
1000
0000
0000
,
1000
0000
0001
0000
0010
0100
0010
0000
1000
0000
0001
0000
1001
0000
0000
0000
,
0000
0110
0000
1010
0000
0100
0010
0000
,
0010
0000
1000
0001
1000
0000
0000
0010
0000
0010
1100
0000
0000
0000
1001
0000
,
0000
0010
0100
0001
1000
0000
1000
0000
,
0010
0100
0000
0001
0000
0010
0001
0000
1100
0000
0000
0001
0000
0000
0010
0000
,
0110
0000
0000
0000
0001
0000
0010
0000
0000
0010
0100
0000
0100
0000
0001
0000
,
1000
0001
0100
0000
0110
0000
0100
0000
,
0001
0000
0001
0000
0100
0000
1000
0000
0010
0100
0010
0000
0000
0000
1000
0100
,
0000
0001
1001
0000
0101
0000
0110
0000
,
2000
0000
0000
0000
0000
0000
3000
0000
0001
0010
1000
0000
0100
0000
0010
0100
,
0000
0001
1000
0000
1001
0000
0100
0001
,
0001
0000
0100
0000
0010
0000
0100
0000
0000
0000
0010
1000
0001
0000
0000
0000
,
0110
0000
0000
0000
0001
0000
0100
0010
0100
0000
1001
0000
0000
0000
0010
0000
,
0001
0000
0000
0100
0000
0000
0100
0000
0001
0000
1000
0000
0001
0100
0000
0000
,
0100
0000
0000
0010
0000
0000
0010
0000
1000
0100
1000
0000
0001
0000
0000
0000
,
0001
0000
0100
0010
0100
0000
0000
0000
0001
0000
0001
0000
0000
0000
1100
0000
,
0000
0000
1010
0000
0000
0000
1001
0000
0000
0100
0000
0000
0100
0000
1000
0000
,
0001
0010
0001
0000
0100
0000
0100
0000
0001
0000
1000
0000
0001
0000
0000
0010
,
0000
0000
0010
0100
0000
0000
0100
0000
0001
0000
0010
0000
0001
0000
1000
0000
,
0000
1100
0001
1001
0000
0110
0001
1000
,
1001
0000
0000
0000
;

//---------------dance-single - ----------------
#NOTEDATA:;
#CHARTNAME:;
#STEPSTYPE:dance-single;
#DESCRIPTION:;
#CHARTSTYLE:;
#DIFFICULTY:Medium;
#METER:10;
#RADARVALUES:0.386572,0.396586,0.350077,0.141923,0.000000,286.000000,249.000000,37.000000,15.000000,0.000000,0.000000,0.000000,0.000000,0.000000,0.386572,0.396586,0.350077,0.141923,0.000000,286.000000,249.000000,37.000000,15.000000,0.000000,0.000000,0.000000,0.000000,0.000000;
#CREDIT:;
#NOTES:
// measure 0
0000
0000
0000
0000
,  // measure 1
0010
0110
1000
1001
,  // measure 2
0100
0100
0001
0000
1000
0000
0001
0010
,  // measure 3
0000
0010
0100
0000
0100
0001
0000
0001
,  // measure 4
0000
0001
1000
1000
1000
0000
1001
0000
,  // measure 5
0010
0010
0100
0100
,  // measure 6
0001
0000
0001
0000
0010
0100
0000
0100
,  // measure 7
0001
0000
1000
0000
0001
0000
0010
0100
,  // measure 8
0000
0100
0000
1001
0000
0000
0100
0010
,  // measure 9
0100
0010
0001
0100
,  // measure 10
0100
0000
1000
0001
0000
0001
0000
0100
,  // measure 11
0000
0110
0000
0001
0000
0001
0100
0100
,  // measure 12
0100
1001
0000
0000
0010
0100
0100
0000
,  // measure 13
0010
0001
1000
0000
1001
0000
0100
0020
,  // measure 14
0000
0030
0001
2000
0000
3100
0010
0010
,  // measure 15
0000
0001
1001
0000
0010
0010
0020
0000
,  // measure 16
0030
1000
0100
0000
0110
0001
0001
1000
,  // measure 17
0000
0000
1001
0000
0000
0000
0010
0000
0010
0000
0200
0000
0000
0300
0010
0000
,  // measure 18
0002
1003
0100
0010
,  // measure 19
0110
0000
0001
0000
1001
0000
0010
1000
,  // measure 20
0000
1000
1001
0001
0001
0000
0100
0010
,  // measure 21
0100
1001
0000
0000
0100
0000
0000
0010
,  // measure 22
0100
0010
0000
1000
1000
0000
0001
0010
,  // measure 23
0010
0000
0100
0000
0100
0000
1000
1000
,  // measure 24
0001
0000
0001
0000
0010
0100
0010
1001
,  // measure 25
0000
0010
0100
0100
0000
0001
0110
0000
,  // measure 26
1000
0100
1000
0000
0011
0001
1001
0000
,  // measure 27
0110
0000
0001
1000
0001
0001
2000
0000
,  // measure 28
3001
0020
0030
0001
0100
0000
1000
0000
,  // measure 29
0010
0001
0001
0100
0100
0002
0000
1003
,  // measure 30
0000
1010
0000
0110
0000
0002
0000
0100
,  // measure 31
0000
0013
1000
0000
1000
0001
0000
0001
,  // measure 32
0000
0100
0010
0100
0000
0000
1000
1000
,  // measure 33
0001
0000
1010
0000
0001
0001
0000
1000
,  // measure 34
1001
0000
0110
0000
0000
0001
0000
0010
,  // measure 35
0100
0010
2000
3001
0000
0010
1000
1000
,  // measure 36
0001
0000
0001
0100
0010
0000
0010
0000
,  // measure 37
2000
3001
1010
0110
,  // measure 38
0001
0000
0010
0100
0000
0100
0001
0000
,  // measure 39
0001
0100
0100
0000
1000
0001
1000
0000
,  // measure 40
0001
0000
0001
0100
0100
0000
1010
0000
,  // measure 41
0110
0001
0001
1000
0000
1001
0000
0100
,  // measure 42
1000
0001
0000
0001
0000
0010
0100
0000
,  // measure 43
0010
0000
1000
0100
1000
0000
0001
0000
,  // measure 44
0001
0000
0100
0010
0100
0000
0000
0110
,  // measure 45
0000
1010
0000
1001
0001
0000
1000
0000
,  // measure 46
0010
0100
0010
0000
0100
0100
0001
0000
,  // measure 47
0001
1000
0100
1000
0001
0000
0001
0100
,  // measure 48
0000
0110
1001
0000
0100
0011
0000
1000
,  // measure 49
2002
3003
0000
0000
0220
0330
0000
0000
0000
0000
0000
0000
0000
0000
0000
0000
;

//---------------dance-single - ----------------
#NOTEDATA:;
#CHARTNAME:;
#STEPSTYPE:dance-single;
#DESCRIPTION:;
#CHARTSTYLE:;
#DIFFICULTY:Easy;
#METER:8;
#RADARVALUES:0.323044,0.370892,0.264923,0.075692,0.000000,239.000000,211.000000,28.000000,8.000000,0.000000,0.000000,0.000000,0.000000,0.000000,0.323044,0.370892,0.264923,0.075692,0.000000,239.000000,211.000000,28.000000,8.000000,0.000000,0.000000,0.000000,0.000000,0.000000;
#CREDIT:;
#NOTES:
0000
0000
0000
0000
,
0010
0110
0001
0010
,
0100
0000
0100
0000
0001
1000
0001
0000
,
0100
0010
0100
1001
,
0010
0000
0010
1000
1000
0000
0110
0000
,
0001
1000
1000
0001
,
0001
0000
0100
0010
0100
0000
0001
0000
,
0001
1000
1000
0001
,
0100
0010
0000
1001
0000
0000
1000
0000
,
1000
0000
0000
1000
0001
0000
0100
0000
,
0100
1000
0001
0001
,
0000
0110
0000
1000
0000
1000
0001
0000
,
1001
0000
0100
0000
0100
0000
0000
0001
,
0000
0001
1000
0000
1001
0000
0100
0000
,
0200
0000
0310
0000
1000
0000
0001
0001
,
1000
1001
0100
1000
,
0001
0000
0001
0000
0100
0010
0100
0000
,
1001
0000
0010
0100
0010
0000
0000
0001
,
0100
0000
0010
0010
1100
0000
1001
0000
,
0110
1000
1001
0000
,
0010
0000
0001
0100
1000
0001
1000
0010
,
0000
1001
0000
0000
0000
0000
0100
0010
,
0100
0000
0001
0000
1000
0001
1000
0020
,
0000
0030
0000
0000
0000
0000
0100
0100
,
0000
0000
0001
0100
0010
0100
0000
1001
,
0000
0000
0000
0000
0000
1000
1000
0000
,
0100
0100
0001
0010
0001
1000
1010
0000
,
0110
0000
1000
0001
0010
0001
2000
0000
,
3001
0100
0001
0001
,
0010
0100
0010
0000
2000
0000
3001
0000
,
0000
1000
0000
1001
0000
0020
0000
0000
,
0030
1000
1000
0000
0200
0000
0310
0000
,
0001
1000
0001
0000
0000
0000
0000
0100
,
0100
0010
0001
0000
1001
0000
0100
0000
,
0110
0000
1001
0000
0100
0000
0010
0100
,
0010
0200
1300
0010
,
1000
0000
0010
0000
0001
1000
0001
0000
,
0100
0100
0000
0000
1000
0000
1010
0000
,
0200
0000
0000
0300
0001
0001
0100
0010
,
0100
0000
1001
0000
0010
0100
0000
0000
,
0000
0000
1000
1000
0100
0000
0001
0000
,
0110
0100
0000
1000
0000
1001
0000
0000
,
1000
0000
0010
0000
0010
0000
0000
0001
,
0000
0100
0000
0100
0000
0000
0001
0000
,
0001
0000
0100
0000
0100
0000
0000
1000
,
0000
1100
0000
1001
0000
0000
0010
0001
,
0000
0100
0000
0100
0010
0000
0010
0000
,
1000
0100
1000
0000
0001
0000
0001
0000
,
0000
1000
0001
0100
0010
0000
0010
1000
,
1001
0000
0000
0000
;

//---------------dance-single - ----------------
#NOTEDATA:;
#CHARTNAME:;
#STEPSTYPE:dance-single;
#DESCRIPTION:;
#CHARTSTYLE:;
#DIFFICULTY:Beginner;
#METER:4;
#RADARVALUES:0.256813,0.278169,0.255462,0.009462,0.000000,190.000000,163.000000,27.000000,1.000000,0.000000,0.000000,0.000000,0.000000,0.000000,0.256813,0.278169,0.255462,0.009462,0.000000,190.000000,163.000000,27.000000,1.000000,0.000000,0.000000,0.000000,0.000000,0.000000;
#CREDIT:;
#NOTES:
0000
0000
0000
0000
,
0010
0110
0000
0100
,
0001
0001
1000
0000
,
1000
0001
0001
0100
,
0000
0100
0001
1001
,
0000
1000
1000
0001
,
0010
0000
0100
0010
,
0100
0001
0001
1000
,
1000
0000
1001
0000
,
1000
1000
0000
0001
,
0010
0001
0000
1000
,
1001
0000
0000
0000
0001
0000
1000
1000
,
0000
0110
0000
0000
0001
0000
0100
0000
,
0010
0000
0020
0000
0030
1000
1000
0000
,
1001
0000
0000
0100
0001
0000
0001
0000
,
1000
0000
1001
0000
0000
0100
0000
0110
,
0000
0100
0001
0001
,
0000
1001
0000
0100
0000
0110
0000
0000
,
0000
0100
0001
0000
0001
0000
1000
0000
,
1001
0010
0110
0000
,
0001
0000
0001
0000
1000
0001
1000
0000
,
0000
1001
0000
0000
0001
0000
0000
0100
,
0100
0000
0000
1000
0000
0000
0010
0100
,
0010
0000
0000
0000
0000
0000
1000
1001
,
0000
0000
0100
0000
0010
0000
0000
0110
,
0000
0000
0000
0000
0000
1000
0001
0000
,
1000
0000
0001
0000
0100
0110
0000
1000
,
1001
0000
0000
0100
0000
0000
0010
0000
,
1000
1000
0110
1000
,
0001
0000
0000
0001
0000
0000
0100
0000
,
0000
1000
0000
1001
0000
0000
0010
0000
,
0100
0100
0000
0010
,
1000
1001
0000
0000
,
0010
1000
1000
0100
,
0110
0000
0001
0100
,
0001
0000
0001
0000
1000
0000
0000
0010
,
0100
0000
0000
0000
0010
0100
0010
0000
,
0001
0000
1000
1010
,
0000
0100
0000
0000
0001
0000
0001
0000
,
1000
1000
0000
0110
,
0000
1000
1000
0001
,
0100
0010
0100
0000
0000
1001
0000
0000
,
0100
0000
0100
0000
0000
0000
0001
1000
,
0001
0000
0000
0000
0100
0000
0100
0010
,
0000
0000
0001
0000
0001
0000
0000
1000
,
0000
1001
0000
0110
0000
0000
0010
0000
,
0010
0000
0000
0100
0000
0001
0000
0001
,
0000
1000
1000
0000
,
0000
1000
1000
0000
0100
0010
0100
0000
,
1001
0000
0000
0000
;
