#TITLE:Sakura Reflection;
#SUBTITLE:(STARDOM Remix);
#ARTIST:Camellia;
#TITLETRANSLIT:;
#SUBTITLETRANSLIT:;
#ARTISTTRANSLIT:;
#GENRE:;
#CREDIT:PaperBox440;
#BANNER:Sakura Reflection (STARDOM Remix).png;
#BACKGROUND:Sakura Reflection (STARDOM Remix)-bg.png;
#LYRICSPATH:;
#CDTITLE:;
#MUSIC:Sakura Reflection (STARDOM Remix).mp3;
#OFFSET:0.000000;
#SAMPLESTART:25.522388;
#SAMPLELENGTH:16.119404;
#SELECTABLE:YES;
#BPMS:0.000000=134.000000
;
#STOPS:
;
#BGCHANGES:;
#KEYSOUNDS:;
#ATTACKS:;

//---------------dance-single - ----------------
#NOTES:
     dance-single:
     :
     Hard:
     13:
     0.583988,0.635667,0.507868,0.274748,0.278911,491.000000,430.000000,61.000000,33.000000,0.000000,0.000000,0.583988,0.635667,0.507868,0.274748,0.278911,491.000000,430.000000,61.000000,33.000000,0.000000,0.000000:
0000
0000
0000
0000
,
0000
0000
0000
0000
,
0000
0000
1000
0000
1001
0010
0100
0000
,
0110
1000
1000
1000
0001
0001
0000
0001
,
0100
1000
1010
0000
0110
1000
0001
0001
,
0100
0010
0100
0010
1000
0100
1000
0001
,
0000
1001
1100
0000
1010
0001
0000
0001
,
1000
1000
0010
0100
0010
0001
0000
0001
,
1100
0000
1001
0000
1010
0000
1000
0100
,
1000
0010
0100
0100
0100
0001
0010
0001
,
1000
1001
2000
0000
3200
0010
0000
0010
,
0000
0000
0302
0010
1000
0000
1000
0000
,
2003
0000
0200
3000
0002
0000
0303
0000
,
0100
0000
1000
0000
1000
0000
1000
0000
0100
0010
0100
0000
0010
0001
0010
0000
,
1001
0000
0000
0000
1100
0000
1010
0000
0001
0000
0001
1000
0100
0000
1000
0001
,
0000
0010
0000
0100
0000
0100
0010
0000
0010
0000
1000
0001
1000
0001
1000
0000
,
0000
0110
1010
0001
0001
0010
0010
0100
,
1000
0001
1000
0001
1000
0000
0010
0000
0100
0001
0000
0001
0000
0001
1000
0000
,
1000
0000
0010
0000
0110
0000
0000
0000
1010
0000
0100
0000
0100
0000
0001
0010
,
0001
0000
0100
0000
0100
0000
0010
0000
0010
1000
0100
1000
0001
0000
0001
0000
,
0001
0000
0110
1010
0000
0110
0001
0010
,
0100
0000
0010
0000
0000
1002
0000
1003
0000
0000
1002
0000
1003
0000
0000
1001
,
0000
0000
0000
0000
1000
0000
0000
1000
0010
0000
0000
0010
0100
0000
0000
0100
,
0001
0000
0010
0000
1000
0000
0100
0000
0000
1000
0000
0000
1000
0000
0010
0000
,
0110
0000
0000
1000
0000
0001
0000
1000
0000
0001
0000
0000
0001
0100
0000
0000
,
0100
0001
0000
0100
0000
1000
0010
1000
,
1000
0000
0000
0000
0110
0000
0001
0000
1000
0000
1000
0000
0110
0000
0000
0001
,
1000
0000
0001
0000
0110
0000
0000
0000
1000
0000
0001
0010
0000
0000
1000
0001
,
1000
0000
1001
0100
0100
1000
0010
0010
,
0000
0100
1000
0010
0001
1100
0000
1000
,
0000
1002
0000
0000
0000
0000
0000
0000
,
0000
0200
0003
0000
0000
0000
0310
0010
,
1001
0000
0000
0000
1000
0000
1000
0000
0100
0000
0000
0001
0010
0000
0100
0000
,
0100
0000
0010
1000
0010
0000
1000
0000
1001
0000
0000
0000
0000
0000
1000
0001
,
0000
0000
0110
0000
1000
0000
1000
0000
0001
0000
0001
0000
0100
0010
1000
0000
,
1000
0000
0100
0000
0001
0010
0200
0000
0300
0000
0000
0000
1000
0000
1000
0000
,
1001
0000
0000
0000
0100
0000
0010
0000
0100
0000
0100
1000
0001
0000
0100
0000
,
1000
0000
0000
0000
1000
0001
1000
0001
1000
0000
0000
0000
0010
0001
0000
0100
,
1000
0000
0000
0000
0001
0000
0001
0000
0010
0100
0000
0010
0100
0000
1000
0000
,
1000
0000
0000
0000
0001
0000
0001
0010
2000
0000
0000
0000
0000
0000
0000
0000
,
0000
0000
3001
0000
0000
0000
1000
0000
1000
0010
0000
0000
0010
0100
0000
0000
,
0100
0000
0001
0010
0001
0000
1000
0000
1000
0000
0110
0000
0000
0001
1000
0000
,
1000
0000
0110
0000
0000
0000
0001
0000
0100
0000
0000
0000
0100
0010
0000
0000
,
0010
0000
0001
0100
0000
0100
1000
0000
0000
0000
1001
0000
0000
0010
0000
1000
,
0001
0000
0110
0000
0000
0000
1000
0000
0000
0010
0000
0100
0000
0000
0100
0000
,
0001
1000
0001
0010
0010
0100
0001
0001
,
1000
0000
1001
0000
0000
0100
0010
0000
0000
0010
0100
0000
0100
0000
0001
0000
,
0000
0000
2000
0000
3200
0300
0020
0000
0030
0000
0001
0010
0001
0000
1000
0000
,
1000
0110
0000
0001
0100
0100
0001
0010
,
0001
1000
1000
0001
0010
0110
0000
1000
,
0000
0000
1001
0000
0000
0000
0010
0100
0010
0000
0001
0000
0100
1000
0100
0000
,
0001
0010
0001
1000
1000
0110
0000
0001
,
0100
0000
1001
0000
0010
0100
0100
0001
,
0010
0000
0001
0000
0100
0010
0100
0000
0000
0000
1001
0000
0000
0100
0000
0100
,
0000
1001
0000
1000
1000
0001
0010
0100
,
1000
0000
2000
0000
3200
0000
0310
0000
0020
0030
0001
0010
0001
0000
0000
0000
,
0110
0000
0000
1001
0010
0010
0100
0100
,
0010
0000
0001
0000
0001
0000
2200
3300
0220
0330
2020
3030
0000
0000
1001
0000
,
0010
0000
0010
0000
0001
0000
0100
0010
0100
0000
1000
0000
0000
0000
1000
0000
,
0000
0000
0202
0303
0220
0330
2020
3030
2002
3003
0000
0000
1001
0000
0000
0000
,
0100
0000
0110
1000
0001
1000
0001
0100
,
0100
0010
0010
1000
1001
0000
0010
0001
,
1000
0000
1000
0000
0110
0000
0001
0000
0001
0000
1000
0100
1000
0000
0010
0000
,
0100
0010
0010
2000
0001
3001
0000
0000
;

//---------------dance-single - ----------------
#NOTES:
     dance-single:
     :
     Medium:
     10:
     0.441262,0.476750,0.407959,0.108234,0.041629,371.000000,322.000000,49.000000,13.000000,0.000000,0.000000,0.441262,0.476750,0.407959,0.108234,0.041629,371.000000,322.000000,49.000000,13.000000,0.000000,0.000000:
0000
0000
0000
0000
,
0000
0000
0000
0000
,
0000
0000
1000
0000
1001
0000
0100
0010
,
0110
0000
0001
0000
0100
0010
0100
0010
,
0100
0000
1010
0000
0110
0000
0010
0100
,
0000
0001
1000
0001
0010
0100
0000
0100
,
0000
1001
0100
0010
0000
0010
1000
0000
,
0001
1000
0010
0000
0010
0100
0000
0100
,
0000
1001
1010
0001
,
0001
0000
1000
0010
0100
0010
0100
0010
,
0000
1001
2000
0000
3200
0000
0000
0000
,
0000
0302
0000
0000
,
2003
0000
0200
3000
0002
0000
0303
0000
,
0000
1000
0100
0010
0001
0010
0100
1000
,
0000
1001
0000
0110
0000
0001
1000
0001
,
1000
0010
0100
0010
0100
0001
0000
0001
,
0000
0110
0000
1010
0000
0001
1000
0100
,
1000
0001
0000
0001
0100
0010
0100
0000
,
0000
1010
0000
0110
0000
1001
0000
0010
,
0000
0010
1000
0001
1000
0010
0010
0010
,
0100
1001
0000
1100
0000
1010
0000
0100
,
1000
0001
0001
0001
0100
0100
0100
0000
,
1001
0000
0010
0100
0000
1000
0001
1000
,
0000
0001
0010
0000
0010
0100
0000
1001
,
0000
0010
0000
0010
0000
1000
0001
1000
,
0000
0010
0000
0100
0000
1000
0001
0010
,
0001
0000
0100
0010
0000
0110
1000
0001
,
1100
0000
0001
0110
0001
0000
0010
0001
,
1000
1100
0001
0000
0110
0000
1010
1000
,
0001
0000
1000
0000
0010
0000
0100
0010
,
0000
1002
0000
0000
0000
0000
0000
0000
,
0000
0200
0003
0000
0000
0000
0300
0010
,
0010
0000
0001
0000
0000
0000
1000
0001
0000
0000
0010
0000
0010
0000
1000
0000
,
0000
0100
0010
0100
1001
0000
0000
0010
,
0100
0000
0000
0000
0000
0000
1000
0000
0000
0000
0001
1000
0000
0000
0100
0000
,
0010
0000
0000
0000
0001
0000
0001
0000
0000
0000
1001
0000
0000
0000
0100
0010
,
0000
0001
0000
1000
1000
0100
0000
0010
,
0000
0100
0010
0001
0000
0001
0000
1000
,
0000
1001
0000
0010
0000
0001
0100
0100
,
0100
0010
0000
1000
0100
0002
0000
0000
,
0000
1003
0000
0010
0100
0010
0000
1000
,
0001
0001
0000
0010
0100
1001
0000
0100
,
0010
0000
0110
0000
0000
0000
0001
0000
0001
0000
1000
0010
0000
0000
0100
0000
,
0000
0000
0100
0000
0001
0000
1000
0000
0000
0000
1001
0000
0000
0000
0010
1000
,
0000
0000
0110
0000
0000
0000
0001
1000
0000
0000
0100
0000
0100
0000
0000
0010
,
0000
0010
0001
0000
1001
0000
0100
0010
,
0000
1001
0000
0010
0100
0010
0000
0001
,
0100
1000
1000
0100
0020
0000
0000
0130
,
0000
1001
0000
0100
0001
0000
0001
0000
,
0100
0010
0000
1000
1001
0000
0000
0100
,
0000
1001
0000
0010
0000
1010
0000
0001
,
0000
0001
0100
0000
0100
1001
0000
0000
,
0010
1001
0000
0100
0010
1000
0001
1000
,
0010
0000
0100
0010
0010
0001
0000
0010
,
0000
1001
0000
1000
0010
0100
0100
0010
,
0000
0000
2000
0000
3200
0000
0310
0000
0020
0030
0000
0000
0001
0000
0001
0000
,
0000
0110
0000
1000
1000
0001
0000
0010
,
0000
0010
1000
0001
1000
0010
0000
1010
,
0000
0100
0001
0000
0001
0000
0100
0000
,
0000
0000
0100
0010
0000
0000
0001
1000
0000
0000
0010
0100
0000
0000
1000
0000
,
0000
1001
0000
0010
0100
0010
0000
0010
,
0000
1000
0001
1000
0000
0110
0000
1000
,
0000
1001
0000
0100
0001
0010
0001
1000
,
0100
0000
0010
0100
0000
1001
0000
0000
;

//---------------dance-single - ----------------
#NOTES:
     dance-single:
     :
     Easy:
     6:
     0.341354,0.343643,0.316377,0.008326,0.000000,287.000000,249.000000,38.000000,1.000000,0.000000,0.000000,0.341354,0.343643,0.316377,0.008326,0.000000,287.000000,249.000000,38.000000,1.000000,0.000000,0.000000:
0000
0000
0000
0000
,
0000
0000
0000
0000
,
0000
0000
1000
0000
1001
0000
0100
0010
,
0100
0001
0001
1000
,
0010
0110
1010
0001
,
1000
0000
0001
0000
0100
0010
0100
0000
,
1001
0010
0110
0001
,
0001
0100
0100
0001
,
1000
1001
1010
0100
,
0001
0000
0001
0000
0100
0010
0100
0000
,
1001
0100
0001
1000
,
0001
1000
1000
0001
,
0010
0100
0100
1000
,
0001
0010
0010
0010
,
1000
1001
0010
0100
,
0001
1000
0001
0001
,
0100
0110
1000
0001
,
1000
0001
1000
0000
,
0100
0110
0001
1000
,
0001
0000
0100
0010
0100
0000
0001
0000
,
1000
0110
1000
0001
,
0010
0000
0100
0000
0001
1000
0001
0000
,
1000
0000
1001
0000
0100
0000
0000
0100
,
0001
0000
1000
0000
0001
0000
0000
0100
,
0000
0000
0100
0001
0000
0000
0001
0000
,
1000
0000
1000
0000
0001
1000
0001
0000
,
0000
1000
1100
0001
,
1001
0010
1000
0001
,
0011
1000
1001
0100
,
0100
0001
0000
0001
0000
1000
0000
0100
,
0000
0120
0000
0000
0000
0000
0000
0000
,
0000
0000
0000
1030
,
1000
0100
0001
0001
,
0100
0010
0100
0000
1001
0000
0010
0000
,
0000
1001
0000
0000
0010
0000
0100
0000
,
0010
1000
0001
0000
1000
0000
0010
0000
,
0000
1001
0000
0000
0010
0000
0000
0100
,
0000
0001
1000
0001
0000
0010
0000
0000
,
0110
0100
0001
1000
,
0001
0000
0001
0000
0100
0010
0100
0000
,
0000
1001
0000
0000
0100
0000
0010
0000
,
0010
0000
1000
0001
1000
0000
0010
0000
,
0110
0000
0001
0000
0100
0000
0001
1000
,
0001
0010
0100
0001
,
1001
0000
0010
0000
0000
0100
0001
0000
,
1000
0000
1000
0010
0000
0110
0000
0000
,
0001
0010
0100
1000
,
0001
0000
0001
0000
0010
0100
0010
0000
,
1001
0000
0010
0000
1000
0000
0100
1000
,
0001
0001
0100
0010
,
0000
0110
0000
0000
0001
0000
1000
0000
,
0001
0000
1000
0000
0000
1001
0000
0000
,
0010
0100
0010
1000
,
0001
0000
0100
0010
0000
1000
0000
0001
,
0000
1001
0000
0100
0010
0000
0001
0000
,
0100
0000
0010
0000
0010
0000
1000
0001
,
0000
0110
0000
1001
0000
0000
0100
0000
,
0000
0010
0010
0000
0100
0000
0110
0000
,
0001
0000
1001
0000
0100
0000
0001
1000
,
0001
0000
0000
0010
0100
0000
0001
1000
,
0000
0110
0000
0000
1000
0000
1000
0000
,
0001
0000
0010
0100
0000
1001
0000
0000
,
0010
0110
0001
0001
,
0100
0010
0100
0000
1001
0000
0000
0000
;

//---------------dance-single - ----------------
#NOTES:
     dance-single:
     :
     Beginner:
     4:
     0.299725,0.317209,0.324702,0.024977,0.000000,252.000000,213.000000,39.000000,3.000000,0.000000,0.000000,0.299725,0.317209,0.324702,0.024977,0.000000,252.000000,213.000000,39.000000,3.000000,0.000000,0.000000:
// measure 0
0000
0000
0000
0000
,  // measure 1
0000
0000
0000
0000
,  // measure 2
0000
1000
1001
0000
,  // measure 3
0010
0100
0010
0001
,  // measure 4
0000
0010
0110
0000
,  // measure 5
0001
0100
0010
0100
,  // measure 6
0000
1000
1001
0000
,  // measure 7
0010
0100
0010
0001
,  // measure 8
1000
0110
1001
0000
,  // measure 9
0001
0100
0100
0001
,  // measure 10
1001
0000
1000
1000
,  // measure 11
0001
0001
0100
0010
,  // measure 12
0000
0100
0020
0000
,  // measure 13
0030
0000
0000
0001
,  // measure 14
1001
0110
0100
0000
,  // measure 15
0010
0000
0100
0010
,  // measure 16
0010
0110
1001
0000
,  // measure 17
0001
1000
0001
1000
,  // measure 18
0000
0110
1001
0000
,  // measure 19
0010
0001
1000
1000
,  // measure 20
0000
0110
1001
0100
,  // measure 21
0010
0100
0001
0001
,  // measure 22
1000
1001
0010
0100
,  // measure 23
0010
0001
1000
0001
,  // measure 24
1000
0010
0100
0010
,  // measure 25
0001
1000
0100
0001
,  // measure 26
0100
1000
0010
0001
,  // measure 27
0100
0100
0001
0010
,  // measure 28
0001
1000
1000
0000
,  // measure 29
1000
0001
0010
0100
,  // measure 30
1001
0002
0000
0000
,  // measure 31
0000
0000
0000
0003
,  // measure 32
1000
1001
0010
0010
,  // measure 33
0100
0001
1000
0110
,  // measure 34
0001
1001
0100
0001
,  // measure 35
0100
0010
1000
1001
,  // measure 36
0100
0110
0001
0010
,  // measure 37
0100
0010
1000
0001
,  // measure 38
0100
1001
0010
0100
,  // measure 39
0001
1000
0000
0110
,  // measure 40
0001
1000
0001
0010
,  // measure 41
0001
0000
0010
0100
,  // measure 42
0010
0000
0100
1000
,  // measure 43
0001
0001
0100
0010
,  // measure 44
0100
1001
0010
0100
,  // measure 45
0001
0001
1000
0110
,  // measure 46
0001
1001
0001
0010
,  // measure 47
0001
0100
0020
0030
,  // measure 48
1001
0100
0001
1000
,  // measure 49
0001
0010
0100
0110
,  // measure 50
1000
1001
0001
0010
,  // measure 51
0100
0001
1000
0110
,  // measure 52
1000
1001
0000
0001
,  // measure 53
0010
0001
0100
0110
,  // measure 54
1000
0110
0000
0001
,  // measure 55
0100
0010
0100
1000
,  // measure 56
1001
0010
0110
0001
,  // measure 57
0100
0001
1000
0110
,  // measure 58
0000
0001
0001
1000
,  // measure 59
0000
0010
0100
0010
,  // measure 60
1000
1001
0100
0001
,  // measure 61
0010
0001
1000
0110
,  // measure 62
0001
1000
0001
0001
,  // measure 63
0010
0100
1001
0000
;
