#TITLE:Survivor Showdown;
#SUBTITLE:(PARANOiA);
#ARTIST:DM Ashura;
#TITLETRANSLIT:;
#SUBTITLETRANSLIT:;
#ARTISTTRANSLIT:;
#GENRE:;
#CREDIT:;
#BANNER:Survivor Showdown (PARANOiA).png;
#BACKGROUND:Survivor Showdown (PARANOiA)-bg.png;
#LYRICSPATH:;
#CDTITLE:cdtitle.png;
#MUSIC:Survivor Showdown (PARANOiA).mp3;
#OFFSET:0.000000;
#SAMPLESTART:24.333334;
#SAMPLELENGTH:12.666666;
#SELECTABLE:YES;
#BPMS:0.000000=180.000000
;
#STOPS:
;
#BGCHANGES:;
#KEYSOUNDS:;
#ATTACKS:;

//---------------dance-single - ----------------
#NOTES:
     dance-single:
     :
     Hard:
     13:
     0.572594,0.739294,0.762478,0.144253,0.108189,389.000000,315.000000,74.000000,14.000000,0.000000,0.000000,0.572594,0.739294,0.762478,0.144253,0.108189,389.000000,315.000000,74.000000,14.000000,0.000000,0.000000:
0000
0000
0000
0000
,
0000
0000
0000
0000
,
0000
0000
0000
0020
,
0000
0000
0030
1001
,
0000
1000
0100
0010
,
0001
0010
0100
1000
,
0100
0010
0001
0010
,
0100
2000
0000
0000
,
3000
0001
0001
0001
,
1000
1000
1000
0010
,
0100
0010
0100
0010
,
0002
0000
0000
0000
,
1003
1001
1000
0001
,
0100
0010
0100
1000
,
1000
0100
0010
0001
,
0001
0010
0100
1000
,
1000
0000
0001
0000
0001
0000
0010
0100
,
0010
0000
1100
1010
,
0000
0101
0011
0001
,
1000
1001
0000
0000
,
0010
1010
1000
1001
,
0000
0010
0110
0100
,
0100
0010
1010
1000
,
1001
0010
0110
0100
,
0101
0001
1001
1001
,
0000
1100
0110
0011
,
0001
1000
1100
0100
,
0110
0001
1001
0000
,
0000
0100
0110
0010
,
1010
0011
1100
1100
,
0110
0011
0001
1001
,
1000
1001
0010
0110
,
0000
0000
0100
0110
,
0011
1001
0100
0110
,
0010
0011
0001
1001
,
0002
0000
1003
1000
,
0100
0010
0001
0010
0100
0010
1000
0000
,
1000
0100
0010
0100
0110
0000
0011
0000
,
0110
0000
1100
0000
1001
0000
0001
0010
,
1001
0000
0000
0110
,
1010
0001
0010
0100
0010
1000
0001
0000
,
0001
1000
0000
1000
0010
0100
0110
0000
,
0011
0000
1000
0100
1000
0100
0010
1000
,
0001
0010
0001
0100
0010
1000
0000
1000
,
0000
1100
0000
0011
0100
0010
0100
0010
,
0001
1001
1000
0010
,
1010
0000
1100
0000
0010
0001
1000
0000
,
0100
0000
0220
0000
0330
0000
0000
1000
,
0100
1000
0100
0010
0001
0000
0100
0010
,
0100
0010
0010
0000
1000
0010
0000
0010
,
0001
0000
0011
0000
0110
0000
1000
0100
,
1000
1100
1001
0000
,
0010
0100
0010
0100
1001
0000
0000
1000
,
0100
1000
0010
0001
0100
0000
0110
0000
,
1010
0000
0001
1000
0001
0100
0001
0010
,
0001
1000
1000
0100
0010
0001
0001
0010
,
0100
0000
1000
0001
1000
0001
0000
0100
,
0010
0100
0010
1000
0000
1000
0000
1010
,
0000
0110
0000
0001
0010
0001
0010
0100
,
1000
0100
1000
0000
0110
0000
1001
0000
,
2002
0000
0000
0000
0000
0000
3003
0000
0000
0010
0100
0000
,
1000
0100
0000
1000
0000
0000
2002
0000
0000
3003
0000
0000
,
0010
0220
0000
0000
,
0000
0330
0000
0011
,
0011
0000
1000
0100
1000
0010
0010
0001
,
1000
0100
1000
0010
0220
0000
0330
0000
,
1001
0000
0000
0000
0001
0000
0000
0000
1001
0000
0000
1000
0000
0000
1000
0001
,
0000
0000
0001
0010
0100
0000
0010
0100
0000
1000
0100
0000
0010
0001
0000
0000
,
0001
0010
0100
0000
1000
0000
0000
0000
0110
0000
0000
1000
0000
0010
0000
0000
,
0010
0001
0000
0000
0001
0100
0000
0000
0100
0010
0000
0000
0010
1000
0000
0000
,
1000
0000
0010
0000
0000
0100
0000
0000
0100
0010
0000
0000
0010
0001
0000
0000
,
0001
0100
0000
0000
0100
0010
0000
0000
0010
1000
0000
0000
1000
0000
0000
0000
;

//---------------dance-single - ----------------
#NOTES:
     dance-single:
     :
     Medium:
     10:
     0.472501,0.587314,0.772782,0.123645,0.000000,321.000000,246.000000,75.000000,12.000000,0.000000,0.000000,0.472501,0.587314,0.772782,0.123645,0.000000,321.000000,246.000000,75.000000,12.000000,0.000000,0.000000:
0000
0000
0000
0000
,
0000
0000
0000
0000
,
0000
0000
0000
0020
,
0000
0000
0030
1001
,
0000
1000
0100
0010
,
0001
0010
0100
1000
,
0100
0010
0001
0010
,
0100
2000
0000
0000
,
3000
1001
0000
0010
,
0010
0010
1000
0001
,
0001
0001
0010
0100
,
0100
0100
0000
0000
,
0010
0110
0000
1000
,
1000
1000
0001
0001
,
0001
0010
0100
0001
,
0000
0100
0100
0000
,
0010
1000
1000
0001
,
0001
0000
0001
1001
,
0000
0010
0110
0100
,
0001
1001
0000
0000
,
1000
1100
0100
0110
,
0000
0001
1001
1000
,
1001
0010
0110
0100
,
1100
0001
0011
0010
,
0110
1000
1100
0100
,
0110
0001
1001
1000
,
1100
0010
0110
0100
,
0000
1001
0001
0000
,
0000
0100
0110
0010
,
1010
0000
0001
1001
,
1000
1001
0010
0110
,
0100
0110
0001
0011
,
0011
1000
1000
1100
,
0110
0011
1000
1100
,
0010
0011
0100
0110
,
0010
1020
0130
0100
,
0100
0100
0100
0110
,
0110
0001
0011
0010
,
0110
0100
1100
1000
,
1001
0000
0000
0110
,
0000
0000
0001
1000
0001
0000
1000
0001
,
1000
0000
0010
1000
0100
0000
0001
0000
,
1001
1000
0100
1000
,
0010
0100
0002
0000
0003
0000
1000
0001
,
1000
0000
1001
0000
0010
0100
0010
0000
,
0110
0000
0001
1000
0000
1000
0000
0000
,
1001
0000
1001
0010
0100
0000
0000
0000
,
1001
0000
0110
0000
0000
0000
0001
1000
,
0001
0000
1001
0000
0000
0000
0010
0100
,
0010
0110
1001
1001
,
0110
0000
1001
0000
0010
0100
0010
0000
,
0000
1000
0000
1001
0000
0000
0000
0000
,
0100
0010
0100
0000
0110
0000
0001
1000
,
0001
1001
1100
0100
,
0110
0001
2002
3003
,
0001
0010
0100
0000
1000
0000
1000
0100
,
0010
0000
0100
0010
0100
0000
0110
0000
,
0001
1000
0001
0000
1001
0000
1100
0000
,
0010
1010
0100
0110
,
0011
0000
1000
0000
2000
0000
3001
0020
,
0000
0000
0130
0000
,
0100
0000
2200
3300
,
0001
1001
0020
0000
,
0000
0000
0030
0110
,
0110
0001
1001
0000
,
0000
0000
0000
1000
,
0010
0110
0110
1000
,
1000
1000
1000
1000
,
0002
1003
0010
0100
,
0010
0001
0100
1000
,
0000
0010
0100
0100
,
0001
1001
0000
0000
;

//---------------dance-single - ----------------
#NOTES:
     dance-single:
     :
     Easy:
     6:
     0.357687,0.482216,0.422454,0.123645,0.000000,243.000000,202.000000,41.000000,12.000000,0.000000,0.000000,0.357687,0.482216,0.422454,0.123645,0.000000,243.000000,202.000000,41.000000,12.000000,0.000000,0.000000:
// measure 0
0000
0000
0000
0000
,  // measure 1
0000
0000
0000
0000
,  // measure 2
0000
0000
0000
0020
,  // measure 3
0000
0000
0030
0100
,  // measure 4
0000
1000
0000
0001
,  // measure 5
0000
0010
0100
0000
,  // measure 6
0010
0001
0000
0100
,  // measure 7
1000
2000
0000
0000
,  // measure 8
3000
0000
0000
0000
,  // measure 9
0001
0001
0001
0010
,  // measure 10
0010
0010
0100
0100
,  // measure 11
0100
0100
1000
1000
,  // measure 12
1000
0000
1001
0000
,  // measure 13
0010
0100
0100
0000
,  // measure 14
0010
1000
0001
0001
,  // measure 15
0000
0100
1000
0000
,  // measure 16
0010
0001
0100
1000
,  // measure 17
1001
0000
0010
0010
,  // measure 18
0000
0100
0100
0100
,  // measure 19
0010
0110
0000
0000
,  // measure 20
0001
1001
1000
1000
,  // measure 21
0000
0010
0110
0100
,  // measure 22
0100
0001
1001
0001
,  // measure 23
0001
1000
1001
0001
,  // measure 24
0001
0010
0110
0100
,  // measure 25
0100
0010
1010
0010
,  // measure 26
0010
0100
0101
0100
,  // measure 27
0100
0010
1010
0000
,  // measure 28
0000
0001
1001
1000
,  // measure 29
1001
0010
0110
0100
,  // measure 30
0000
0000
0010
1010
,  // measure 31
0010
0010
0001
1001
,  // measure 32
1000
1001
0010
0110
,  // measure 33
0100
0100
0010
1010
,  // measure 34
1000
1010
0001
1001
,  // measure 35
2000
3000
0010
0010
,  // measure 36
0000
1000
1000
1000
,  // measure 37
0000
1001
1000
1001
,  // measure 38
0001
1001
1000
2002
,  // measure 39
3003
0000
0000
0110
,  // measure 40
0010
0010
0000
0001
,  // measure 41
0001
0000
1000
1001
,  // measure 42
0010
0000
0100
0100
,  // measure 43
0010
0002
0000
1003
,  // measure 44
1000
1000
0010
0010
,  // measure 45
0010
0000
0000
0100
,  // measure 46
0110
0010
0010
0000
,  // measure 47
1000
1001
0000
0000
,  // measure 48
0010
0010
0010
0100
,  // measure 49
0100
0100
0000
0000
,  // measure 50
1000
1001
0001
0001
,  // measure 51
0000
1000
1001
0000
,  // measure 52
0010
0010
0010
1000
,  // measure 53
1000
1000
0010
1010
,  // measure 54
1000
1001
0000
0000
,  // measure 55
0010
0100
0010
1000
,  // measure 56
1001
0010
0010
0010
,  // measure 57
0100
0100
0100
0001
,  // measure 58
1001
0000
1000
1000
,  // measure 59
1000
0000
0010
0110
,  // measure 60
0002
0000
0000
0000
,  // measure 61
0000
0003
0100
0110
,  // measure 62
0010
0010
0000
0000
,  // measure 63
0000
0000
0000
1001
,  // measure 64
1001
0010
0010
0000
,  // measure 65
0000
0000
0000
0100
,  // measure 66
0110
0010
0010
0001
,  // measure 67
0001
1000
1000
1000
,  // measure 68
0000
1001
0200
0000
,  // measure 69
0300
0020
0000
0030
,  // measure 70
0200
0000
0300
0002
,  // measure 71
0000
0003
2000
0000
,  // measure 72
3000
0000
0000
0000
;
