#TITLE:Survivor Showdown;
#SUBTITLE:(TRIP MACHINE);
#ARTIST:DM Ashura;
#TITLETRANSLIT:;
#SUBTITLETRANSLIT:;
#ARTISTTRANSLIT:;
#GENRE:;
#CREDIT:;
#BANNER:Survivor Showdown (TRIP MACHINE).png;
#BACKGROUND:Survivor Showdown (TRIP MACHINE)-bg.png;
#LYRICSPATH:;
#CDTITLE:cdtitle.png;
#MUSIC:Survivor Showdown (TRIP MACHINE).mp3;
#OFFSET:0.000000;
#SAMPLESTART:25.500000;
#SAMPLELENGTH:14.250000;
#SELECTABLE:YES;
#BPMS:0.000000=160.000000
;
#STOPS:
;
#BGCHANGES:;
#KEYSOUNDS:;
#ATTACKS:;

//---------------dance-single - ----------------
#NOTES:
     dance-single:
     :
     Hard:
     12:
     0.488345,0.588428,0.499540,0.195898,0.009795,349.000000,298.000000,51.000000,20.000000,0.000000,0.000000,0.488345,0.588428,0.499540,0.195898,0.009795,349.000000,298.000000,51.000000,20.000000,0.000000,0.000000:
0000
0000
0000
0000
,
0000
0000
0000
0000
,
0000
0000
0020
0000
,
0000
0030
0110
0000
,
1000
0100
0010
0001
,
0010
0100
1000
0100
,
0010
0001
0020
0000
,
0000
0030
0110
1000
,
1000
1000
0001
0001
,
0001
0100
0100
0200
,
0000
0000
0310
0000
,
1000
0100
0010
0001
,
0010
0100
1000
0100
,
0010
0001
0010
0100
,
1000
0100
0010
0001
,
0010
0000
0000
0000
,
0000
0000
0000
0000
,
2000
0000
3001
0011
,
0010
0000
0110
0000
0100
0010
0001
0000
,
0001
0000
1001
0000
1000
1000
0010
0000
,
0010
0100
0000
0100
0010
0100
0010
0000
,
0001
0001
0011
0010
,
0110
0000
1100
0000
1000
0001
1000
0001
,
0100
0100
0000
0000
0010
0000
1010
0000
,
1000
0100
0010
0100
0001
0000
1002
0000
,
0003
0010
0100
0000
0010
0011
0001
0100
,
1100
0000
1000
0001
1000
0010
0010
0010
,
0010
0100
1000
0001
1000
0001
1000
0100
,
0010
0020
0030
0000
0020
0030
0100
0010
,
1000
0000
1100
0000
0100
0010
0001
0010
,
0002
0000
1003
0100
1000
1000
1000
0010
,
0001
0010
0100
0100
0010
0100
0010
0100
,
1000
0002
0003
0000
0100
0010
0000
0010
,
0001
0001
1100
0000
0110
0000
0000
0000
,
0110
0000
0010
0001
0100
1000
0100
0000
,
1001
0000
0110
2000
0000
3000
0020
0000
,
0130
0000
0100
0010
0100
0010
0001
0000
,
1001
0000
0100
0010
0000
0110
0000
1000
,
0010
0001
0000
0001
1100
0000
0110
0000
,
0002
0003
2000
0000
0000
3000
0010
0010
,
1000
0001
0000
0001
1000
0000
0100
0010
,
0100
0010
0010
0000
1100
0000
1010
0010
,
0100
0110
0011
0001
,
1001
0010
0100
0010
1000
0001
0010
0100
,
0010
0000
1000
0000
0010
0010
0100
0000
,
0110
0000
0001
1000
0001
0010
0011
0000
,
1000
0010
0100
0010
0010
0000
1001
0000
,
0100
1000
0000
1000
0010
0010
0000
0001
,
0100
0100
0010
1010
1010
0000
0110
0000
,
0010
0001
0011
0000
1000
0000
1001
0000
,
0220
0330
0001
0000
0001
0100
0002
1003
,
0000
0010
0000
1100
0000
0011
0100
0100
,
0010
0001
0000
1100
0010
0000
0010
0001
,
1001
0000
0010
1000
0000
1000
0010
0100
,
0000
0200
0000
0300
0001
0000
0011
0000
,
0010
0110
0100
1100
,
1000
1010
0010
1010
,
1001
1001
0010
0000
0000
0000
0100
0000
,
0001
0000
0000
0010
0000
0000
0100
0000
0000
0000
0000
0000
1000
0000
0000
0000
0000
0000
1000
0000
0001
0000
0000
0000
,
0010
0000
0100
0000
0000
0000
0100
0000
0000
0010
0000
0000
0010
0000
0000
0001
0000
0000
1000
0000
0000
0001
0000
0000
,
1000
1100
0110
0011
,
0110
0000
0200
0000
0000
0000
0000
0300
,
0000
0000
0000
0010
0000
0000
0001
0000
,
0010
1000
0100
0010
,
0001
0010
0100
1000
,
1000
0100
0020
0030
,
0001
0001
2000
3000
;

//---------------dance-single - ----------------
#NOTES:
     dance-single:
     :
     Medium:
     10:
     0.358213,0.494030,0.470155,0.156718,0.000000,256.000000,208.000000,48.000000,16.000000,0.000000,0.000000,0.358213,0.494030,0.470155,0.156718,0.000000,256.000000,208.000000,48.000000,16.000000,0.000000,0.000000:
0000
0000
0000
0000
,
0000
0000
0000
0000
,
0000
0000
0020
0000
,
0000
0030
0110
0100
,
0000
1000
1000
0000
,
0010
0001
0001
0000
,
1000
1000
0200
0000
,
0000
0310
0001
1000
,
1000
0000
0010
0001
,
0100
1000
0000
2000
,
0000
0000
3000
0001
,
1001
0000
1000
0001
,
0000
0001
0100
0010
,
0010
0000
1000
0100
,
0010
0001
0010
0100
,
1000
0000
0000
0000
,
0000
0000
0000
0000
,
0020
0030
0100
0110
,
1010
0000
1100
0000
1001
0000
0001
0100
,
0010
0100
0000
0000
1000
0000
1001
0000
,
0110
0000
1010
0000
0100
0010
0100
0000
,
0000
0000
0001
1000
0001
0000
1000
0000
,
1100
0000
0001
0000
0011
1000
1000
0000
,
0001
0001
0010
0110
,
1000
0001
1000
0000
0000
0000
0020
0000
,
0030
1001
0011
0110
,
1100
0000
1000
0001
1000
0000
0010
0000
,
0010
0000
0010
0010
0010
0000
0100
0000
,
0110
0110
2000
3000
,
0001
0000
0010
0000
0020
0030
0000
1000
,
0001
1000
0000
0000
1000
0000
1000
0000
,
0001
0001
0001
1000
,
1000
0110
0001
0001
,
0000
1100
0000
0011
0000
0000
0100
0000
,
1001
0000
0000
0000
0010
0000
0000
0110
,
0000
1001
0000
0020
0030
0000
0200
0300
,
1001
0000
0000
0000
0000
0110
0000
0000
,
1001
0000
0000
0000
0000
0110
0000
0000
,
0000
0000
0000
0000
1000
0000
0000
1001
,
0000
0000
0020
0000
0000
0030
0100
0000
,
0100
0000
0110
0000
0000
0000
1000
0001
,
0010
0100
0010
0000
1000
0000
0000
0001
,
0000
0001
0000
1001
0000
1000
0000
1000
,
0000
0010
0000
0110
0000
0000
0001
0000
,
1000
0000
0000
0000
0001
1000
0010
0100
,
0000
0010
1000
1001
,
0000
0000
0020
0000
0000
0030
0200
0000
,
0000
0300
0000
0000
0000
0000
0000
0000
,
1000
0100
0001
0010
0000
0000
0001
0000
,
1001
1000
0110
1001
,
0020
0030
0200
0300
,
0000
0000
0001
0000
1001
0000
1000
0001
,
0010
0100
0000
0000
1000
0000
0001
0000
,
1001
0010
0110
2000
,
0000
3000
0001
1001
,
1000
1100
0100
0110
,
0010
0011
0001
1001
,
1000
1010
0000
0010
,
0100
0110
0000
1000
,
1001
0001
0001
1001
,
1000
1000
0100
0100
,
0100
0020
0030
0000
,
1000
0001
0010
0100
,
1000
0000
0010
0001
,
0100
1000
0000
0001
,
0000
0001
0000
0010
,
0000
0100
0000
1000
,
0000
1000
0000
0000
;

//---------------dance-single - ----------------
#NOTES:
     dance-single:
     :
     Easy:
     5:
     0.291048,0.360942,0.244872,0.146923,0.000000,208.000000,183.000000,25.000000,15.000000,0.000000,0.000000,0.291048,0.360942,0.244872,0.146923,0.000000,208.000000,183.000000,25.000000,15.000000,0.000000,0.000000:
// measure 0
0000
0000
0000
0000
,  // measure 1
0000
0000
0000
0000
,  // measure 2
0000
0020
0000
0000
,  // measure 3
0030
1001
0000
0100
,  // measure 4
0100
0010
0000
0001
,  // measure 5
0001
0001
0000
0100
,  // measure 6
1000
0000
0002
0000
,  // measure 7
0003
1000
1000
0000
,  // measure 8
0010
0000
0010
0001
,  // measure 9
0000
0001
0000
1000
,  // measure 10
0000
1000
0000
0010
,  // measure 11
0110
0000
0100
0001
,  // measure 12
0000
1000
0001
0000
,  // measure 13
0100
0100
0010
0000
,  // measure 14
0001
0001
0001
1000
,  // measure 15
1000
0000
0000
0000
,  // measure 16
0000
0000
0000
0000
,  // measure 17
0020
0030
0100
0100
,  // measure 18
0100
0100
0000
1000
,  // measure 19
1001
0001
0000
0010
,  // measure 20
0010
0010
0100
0010
,  // measure 21
1000
1000
1000
1000
,  // measure 22
0001
0010
0100
0110
,  // measure 23
0001
0001
1000
1001
,  // measure 24
0001
0100
0010
0000
,  // measure 25
0001
0001
0010
1000
,  // measure 26
1000
0010
0100
0001
,  // measure 27
0001
0001
0001
0001
,  // measure 28
1001
0000
0200
0300
,  // measure 29
0010
0010
0010
0100
,  // measure 30
0010
0110
1000
1000
,  // measure 31
1000
1000
1000
1001
,  // measure 32
0000
0020
0030
0000
,  // measure 33
1000
1001
0000
0000
,  // measure 34
0110
0000
1000
0000
,  // measure 35
1001
0110
0000
1001
,  // measure 36
0000
0010
0000
1001
,  // measure 37
0110
0000
1001
0000
,  // measure 38
0001
0000
0110
1001
,  // measure 39
0000
0020
0030
1000
,  // measure 40
1000
0000
0000
0100
,  // measure 41
0010
0100
0001
1000
,  // measure 42
1001
0000
0000
0200
,  // measure 43
0320
0030
1001
0000
,  // measure 44
0000
1000
0001
1000
,  // measure 45
0000
0010
0110
0000
,  // measure 46
0000
0200
0320
0030
,  // measure 47
0000
0001
0000
0000
,  // measure 48
1000
0001
1000
0010
,  // measure 49
0100
0110
0001
1001
,  // measure 50
0200
0320
0030
0001
,  // measure 51
1000
0000
0001
1001
,  // measure 52
0010
0100
0010
1000
,  // measure 53
1000
0001
1001
0020
,  // measure 54
0230
0300
0001
0001
,  // measure 55
0001
0010
0010
0010
,  // measure 56
0100
0100
0100
1000
,  // measure 57
0100
1000
0000
0010
,  // measure 58
0100
0010
0000
0001
,  // measure 59
0001
1000
0001
1000
,  // measure 60
1000
1000
1000
0100
,  // measure 61
0200
0000
0300
0000
,  // measure 62
0000
0001
0010
0000
,  // measure 63
1000
0100
0000
0010
,  // measure 64
0010
0000
0001
1000
,  // measure 65
0000
0010
0000
0001
,  // measure 66
0000
0001
0000
0100
,  // measure 67
0010
0000
0000
0000
;
