#VERSION:0.83;
#TITLE:STARS☆☆☆(Re-tuned by HΛL)-IIDX EDITION-;
#SUBTITLE:;
#ARTIST:TЁЯRA;
#TITLETRANSLIT:;
#SUBTITLETRANSLIT:;
#ARTISTTRANSLIT:TERRA;
#GENRE:;
#ORIGIN:;
#CREDIT:PaperBox440;
#BANNER:STARS (Re-tuned by HAL)-IIDX EDITION-.jpg;
#BACKGROUND:STARS (Re-tuned by HAL)-IIDX EDITION-bg.jpg;
#PREVIEWVID:;
#JACKET:STARS (Re-tuned by HAL)-IIDX EDITION--jacket.jpg;
#CDIMAGE:;
#DISCIMAGE:;
#LYRICSPATH:;
#CDTITLE:;
#MUSIC:STARS (Re-tuned by HAL)-IIDX EDITION-.mp3;
#OFFSET:-0.410000;
#SAMPLESTART:55.740002;
#SAMPLELENGTH:13.820000;
#SELECTABLE:YES;
#BPMS:0.000=145.000;
#STOPS:;
#DELAYS:;
#WARPS:;
#TIMESIGNATURES:0.000=4=4;
#TICKCOUNTS:0.000=4;
#COMBOS:0.000=1;
#SPEEDS:0.000=1.000=0.000=0;
#SCROLLS:0.000=1.000;
#FAKES:;
#LABELS:0.000=Song Start;
#BGCHANGES:0.000=STARS (Re-tuned by HAL)-IIDX EDITION-.avi=1.000=0=0=0=StretchNoLoop====,
99999=-nosongbg-=1.000=0=0=0 // don't automatically add -songbackground-
;
#KEYSOUNDS:;
#ATTACKS:
;

//---------------dance-single - ANOTHER----------------
#NOTEDATA:;
#CHARTNAME:ANOTHER;
#STEPSTYPE:dance-single;
#DESCRIPTION:ANOTHER;
#CHARTSTYLE:;
#DIFFICULTY:Challenge;
#METER:9;
#RADARVALUES:1.246863,1.331066,2.299409,0.000000,0.761072,1078.000000,642.000000,284.000000,0.000000,0.000000,130.000000,0.000000,0.000000,0.000000,1.246863,1.331066,2.299409,0.000000,0.761072,1078.000000,642.000000,284.000000,0.000000,0.000000,130.000000,0.000000,0.000000,0.000000;
#CREDIT:ANOTHER;
#NOTES:
1111
0100
0001
0100
1010
0001
0000
0100
1001
0100
0010
0000
1010
0001
0000
0010
,
1100
0010
1000
0100
1010
0001
0000
0100
1011
0000
0100
0000
1101
0010
0000
0010
,
1101
0010
1000
0100
1010
0001
0000
0100
1010
0100
0010
0000
1010
0001
0000
0010
,
1100
0001
0100
0010
1101
0010
0000
0010
1101
0000
0010
0000
1110
0001
1000
0010
,
1101
0010
1000
0100
1010
0001
0000
0010
1100
0000
0010
0000
1110
0001
0000
0010
,
1101
0010
1000
0100
1010
0001
0000
0100
1010
0000
0100
0000
1010
0001
0000
0010
,
1101
0010
1000
0011
1100
0001
0010
0100
1011
0000
0010
0000
1101
0010
1000
0100
,
1011
0110
0001
1100
0010
0001
0100
0110
1001
0010
0101
0000
1010
0001
0100
0110
,
1001
0100
0010
0100
0010
0001
0000
0100
1011
0100
1000
0000
0100
0010
0000
0001
,
1111
0000
0000
1000
0001
0000
1010
0000
0001
1000
0000
0000
1101
0000
1000
0000
,
0111
0000
0000
0100
0001
0000
0110
0000
0001
0100
0000
0000
0111
0000
0100
0000
,
1011
0000
0000
1000
0001
0000
1010
0000
0001
1000
0000
0000
1011
0000
1000
0000
,
0111
0000
0000
0100
0001
0000
0110
0000
0001
0100
0000
0000
0111
0000
0100
0000
,
1011
0000
0000
0100
1000
0000
0110
0000
1000
0100
0000
0000
1101
0000
0010
0000
,
1101
0000
0000
0010
1000
0000
0011
0000
1000
0010
0000
0000
1101
0000
0010
0000
,
1101
0000
0000
0100
1000
0000
0110
0000
1000
0100
0000
0000
1101
0000
0010
0000
,
1101
0000
0000
0100
1000
0000
0110
0000
1000
0100
0000
0000
1101
0000
1010
0000
,
1111
0000
0000
0100
1000
0000
0111
0000
1000
0100
0000
0000
1101
0000
0010
0000
,
1111
0000
0000
0100
1000
0000
0111
0000
1000
0100
0000
0000
1101
0000
0010
0000
,
1111
0000
0000
0100
1000
0000
0111
0000
1000
0100
0000
0000
1101
0000
0100
0000
,
1111
0000
0000
0100
1000
0000
0111
0000
1011
0000
0000
0010
1001
0000
1010
0000
,
1111
0000
0000
0010
1000
0000
0111
0000
1000
0010
0000
0000
1011
0000
0100
0000
,
1111
0000
0000
0100
1000
0000
0111
0000
1000
0100
0000
0000
1110
0000
0100
0000
,
1111
0000
0000
0100
1000
0000
0111
0000
1110
0000
0000
0010
1001
0000
0010
0000
,
1111
0000
0000
0100
1000
0000
0111
0000
1000
0100
0000
0000
1101
0000
0110
0000
,
1010
0000
0001
0000
0101
0000
0001
0000
0011
0000
0001
0010
0001
0000
1101
0000
,
1101
0000
0011
0000
0011
0000
1001
0010
0001
0000
0101
0000
0001
0000
0011
0000
,
1011
0000
0001
0000
0101
0000
0001
0000
1001
0000
0001
0100
0001
0000
1101
0000
,
1011
0000
0001
0000
0101
0000
0001
0000
0011
0000
0001
0010
0001
0000
0101
0000
,
1011
0001
0101
0001
0101
0011
0101
1011
,
1101
0000
0001
0000
0101
0000
0001
0000
0011
0000
0001
0100
0001
0000
0101
0000
,
1111
0000
0001
0000
1101
0000
0001
0100
1001
0000
0101
0000
1011
0000
0011
0000
,
1111
0000
0001
0000
1111
0000
0011
0000
1101
0000
0001
0100
1001
0000
0101
0000
,
1110
0001
1010
0100
1011
0000
1011
0100
0011
0000
0011
0000
0101
0000
0110
0000
,
1011
0000
0100
0001
1000
0110
0000
0000
1110
0000
0000
0101
1000
0010
0100
0000
,
1010
0000
0100
0001
1000
0110
0000
0000
1110
0000
0000
0110
1000
0010
0100
0000
,
1001
0000
0100
0001
1000
0110
0000
0000
1110
0000
0000
0101
1000
0010
0100
0000
,
1001
0000
0100
0001
1000
0110
0000
0000
1110
0000
0000
0101
1000
0010
1100
0000
,
1001
0000
0100
0001
1000
0110
0000
0000
1110
0000
0000
0101
1000
0010
0100
0000
,
1010
0000
0100
0001
1000
0110
0000
0000
1110
0000
0000
0101
1000
0010
0100
0000
,
1010
0000
0100
0001
1000
0110
0000
0000
1110
0000
0000
0101
1000
0010
0100
0000
,
1001
0000
0110
0001
1000
0111
1000
0000
1110
0000
0000
1011
0000
0001
1010
0100
,
1010
0000
0000
0000
0000
0000
0000
0000
0100
0000
0000
0000
1000
0000
0000
0000
0001
0000
0000
0000
0000
0000
0000
0000
0000
0000
0000
0000
0000
0000
0000
0000
0000
0000
0000
0000
0000
0000
0000
0000
1100
0000
0000
0000
0000
0000
0000
0000
0110
0000
0000
0000
0000
0000
0000
1000
0101
0000
0000
0000
0000
0000
0000
0000
,
0000
0000
0000
0000
1110
1010
0111
1010
,
0000
0000
0000
0000
0000
0000
0000
0000
0010
0000
0000
0000
0100
0000
0000
0000
0001
0000
0000
0000
0000
0000
0000
0000
0000
0000
0000
0000
0000
0000
0000
0000
0000
0000
0000
0000
0001
0000
0000
0000
1100
0000
0000
0000
0000
0000
0000
0000
0101
0000
0000
0000
0010
0000
0000
1000
0100
0000
0000
0000
0000
0000
0000
0000
,
0010
0000
0000
0000
0001
0000
0000
0000
0100
0000
0000
0000
0010
0000
0000
0000
1101
0000
0000
0000
1110
0000
0000
0000
1110
0000
0001
0000
1100
0010
0000
0000
,
1110
0000
0000
0000
0000
0000
0000
0000
0101
0000
0000
0000
1000
0000
0000
0000
0110
0000
0000
0000
0000
0000
0000
0000
0010
0000
0000
0000
0000
0000
0000
0000
0001
0000
0000
0000
0000
0000
0000
0000
1110
0000
0000
0000
0000
0000
0000
0000
0111
0000
0000
0000
0000
0000
0000
1000
0110
0000
0000
0000
0000
0000
0000
0000
,
0001
0100
0010
0000
0000
0000
0000
0000
1011
0000
0110
0000
1101
0000
0110
0000
,
1000
0000
0000
0000
0000
0000
0000
0000
0010
0000
0000
0000
0100
0000
0000
0000
0001
0000
0000
0000
0000
0000
0000
0000
0000
0000
0000
0000
0000
0000
0000
0000
1000
0000
0000
0000
0000
0000
0000
0000
0110
0000
0000
0000
0000
0000
0000
0000
0101
0000
0000
0000
0000
0000
0000
1000
0011
0000
0000
0000
0000
0000
0000
0000
,
1000
0000
0000
0000
1000
0000
0000
0000
1111
0000
0111
1000
0111
0000
1110
0000
,
1011
0000
0010
1101
0010
0000
1101
0000
0000
0000
0000
0000
0000
0000
0000
0000
,
1111
0000
0000
0000
0000
0000
0000
0000
0100
0000
0000
0000
0000
0000
0000
0000
0100
0000
0000
0000
0000
0000
0000
0000
0110
0000
0000
0000
0000
0000
0000
0000
0100
0000
0000
0000
0000
0000
0000
0000
0100
0000
0000
0000
0000
0000
0000
0000
0100
0000
0000
0000
0000
0000
0000
0000
0100
0000
0000
0000
0000
0000
0000
0010
,
0101
0010
0010
0010
0011
0010
0010
1010
,
1101
0100
0100
0101
0100
0100
0110
0100
,
1011
0010
0010
0110
0010
0011
0011
1010
,
1111
0100
0100
0110
0100
0100
0111
0100
,
1011
0100
0100
0110
0100
0110
0111
0100
,
1101
0010
1010
0110
1011
0010
1110
0010
,
1101
0000
0100
0000
1100
0000
0110
0000
1101
0000
0100
1000
0100
0000
1100
0000
,
1110
0001
1010
0100
1011
0000
1010
0100
0010
1000
0011
1000
0101
0000
0110
0000
,
1011
0000
0100
0000
0010
0000
0100
0000
1111
0000
0100
0001
1000
0110
0000
0000
,
1110
0000
0000
0101
1000
0010
0100
0000
1010
0000
0100
0001
1000
0110
0000
0000
,
1110
0000
0000
0110
1000
0010
0100
0000
1001
0000
0100
0001
1000
0110
0000
0000
,
1110
0000
0000
0101
1000
0010
0100
0000
1001
0000
0100
0001
1000
0110
0000
0000
,
1110
0000
0000
0101
1000
0010
1100
0000
1011
0000
0100
0001
1000
0110
0000
0000
,
1110
0000
0000
0101
1000
0010
0100
0000
1010
0000
0100
0001
1000
0110
0000
0000
,
1110
0000
0000
0101
1000
0010
0100
0000
1110
0000
0100
0001
1000
0110
0000
0000
,
1111
0000
0000
0101
1000
0010
0100
0000
1111
0000
0110
0001
1100
0011
0100
0000
,
1111
0000
0000
1111
0000
0001
1011
0100
1111
0000
0000
0000
0000
0000
0000
0000
;

//---------------dance-single - ----------------
#NOTEDATA:;
#CHARTNAME:;
#STEPSTYPE:dance-single;
#DESCRIPTION:;
#CHARTSTYLE:;
#DIFFICULTY:Hard;
#METER:10;
#RADARVALUES:0.451091,0.576876,0.331957,0.364343,0.060724,390.000000,349.000000,41.000000,45.000000,0.000000,0.000000,0.000000,0.000000,0.000000,0.451091,0.576876,0.331957,0.364343,0.060724,390.000000,349.000000,41.000000,45.000000,0.000000,0.000000,0.000000,0.000000,0.000000;
#CREDIT:;
#NOTES:
// measure 0
2000
0000
0000
0000
,  // measure 1
0000
3000
0002
2003
,  // measure 2
3200
0000
0000
0000
,  // measure 3
0300
0002
2003
3020
,  // measure 4
0200
0030
0000
0000
0000
0000
0302
0000
,  // measure 5
2003
0000
0000
3000
,  // measure 6
0002
2003
3002
0203
,  // measure 7
0320
1000
1000
1000
,  // measure 8
1000
0000
0000
0000
,  // measure 9
0030
1000
0000
0100
0010
0100
1000
0000
,  // measure 10
1001
0000
0000
0000
1000
1000
0001
0010
,  // measure 11
0100
0000
0100
0010
1000
0001
1000
0000
,  // measure 12
1001
0000
0000
0100
0010
0100
0001
0000
,  // measure 13
1001
0000
0000
1000
0000
0000
0010
0000
,  // measure 14
0100
0010
0100
0000
0110
0000
0001
0000
,  // measure 15
2002
0000
3003
0010
0200
0000
0000
0000
,  // measure 16
0000
0300
0000
0000
,  // measure 17
1001
0000
0100
0100
1000
0001
0000
0001
,  // measure 18
0100
0010
0200
0000
0300
0000
0001
0001
,  // measure 19
1000
0000
0010
0100
0000
0100
0001
0010
,  // measure 20
0001
1000
1000
0000
1001
0000
0000
0100
,  // measure 21
0100
1000
0000
1000
0001
0100
0010
0100
,  // measure 22
0001
0000
0001
1000
1001
0000
0000
0010
,  // measure 23
0100
0010
0001
0000
0001
0100
1000
0000
,  // measure 24
1000
0000
0001
0010
0100
0010
0000
0000
,  // measure 25
1100
0000
1010
0000
0110
0001
0000
0001
,  // measure 26
1000
0100
1000
0010
0110
0000
0001
0001
,  // measure 27
1000
0100
1000
0001
0001
0000
0100
1000
,  // measure 28
0002
0000
0000
0003
0000
1000
1000
0100
,  // measure 29
0010
0100
0020
0000
0030
1000
0001
0001
,  // measure 30
2000
0000
3001
0000
,  // measure 31
0110
0000
0001
0000
0100
1000
0001
1000
,  // measure 32
2002
0000
0000
3003
,  // measure 33
1000
0001
1000
0000
0010
0100
1000
0000
0001
0000
0001
0000
0010
0000
0000
0000
,  // measure 34
0110
0000
1000
0000
1001
0000
0000
0100
,  // measure 35
0010
0100
1000
0000
1000
0001
0100
0000
,  // measure 36
0100
0001
0010
0001
1000
1000
0000
0100
,  // measure 37
0010
0100
0110
0000
0001
0001
1000
0100
,  // measure 38
1000
0000
1001
0000
0100
0100
0010
1000
,  // measure 39
0100
1000
0001
0000
1001
0000
0100
0001
,  // measure 40
1000
0010
0000
0010
0100
0100
0001
0010
,  // measure 41
0001
1000
1000
0000
2002
0000
3003
0000
,  // measure 42
0220
0000
0000
0330
0000
0100
1000
0000
,  // measure 43
2200
0000
0000
0000
3300
0001
0001
2000
,  // measure 44
0000
0000
0000
3000
0002
0000
0000
0003
,  // measure 45
1000
0100
0010
0000
0100
0001
0000
0000
0001
0000
1000
0100
1000
0001
0000
0000
,  // measure 46
0001
0000
0100
0010
0000
0000
0010
0000
1000
0100
1000
0001
0000
0000
0001
0000
,  // measure 47
0010
0100
0010
0000
1000
0000
0000
0000
0002
0000
0000
0000
2000
0000
0000
0000
,  // measure 48
3003
0100
0010
0100
1001
0000
0000
0000
,  // measure 49
1100
0000
1010
0000
0110
0001
2200
3300
,  // measure 50
2002
3003
0220
0330
0001
0001
1000
0000
,  // measure 51
1000
0010
0100
0010
1001
0000
0000
0100
,  // measure 52
0100
0001
0000
0001
2000
3000
0000
0010
,  // measure 53
1000
0100
1000
0001
0001
0000
0100
0010
,  // measure 54
0100
0000
0110
0000
0000
0001
0001
0010
,  // measure 55
1000
0100
1001
0000
0000
0100
0100
0010
,  // measure 56
0001
0100
1000
0000
1001
0000
0100
0001
,  // measure 57
0001
0100
0110
0000
1000
0001
0010
0001
,  // measure 58
1000
1000
0002
0000
2003
0000
3000
0001
,  // measure 59
0010
0100
0010
0000
0001
1000
0000
1000
0010
0000
0100
0000
0100
0001
0000
0001
,  // measure 60
1000
0000
1001
0000
0100
0010
0100
0000
,  // measure 61
0110
0000
0001
0001
1000
0000
0001
0010
,  // measure 62
0100
0100
0001
0010
0001
1000
1000
0000
,  // measure 63
1001
0000
0001
0001
0100
0010
1001
0000
,  // measure 64
0000
0001
0000
0100
0010
0100
1001
0000
,  // measure 65
0000
0001
0100
0010
0100
1000
1001
0000
,  // measure 66
0100
0100
0010
1000
0001
0001
0100
0100
,  // measure 67
0010
1000
1000
0001
0001
0100
0010
0100
,  // measure 68
2001
0001
3002
0000
,  // measure 69
0000
0000
0000
0000
,  // measure 70
0000
0000
0000
0000
,  // measure 71
0000
0003
0000
0000
;
