#TITLE:SOUL EXPLOSION;
#SUBTITLE:;
#ARTIST:kanone;
#TITLETRANSLIT:;
#SUBTITLETRANSLIT:;
#ARTISTTRANSLIT:;
#GENRE:;
#CREDIT:;
#BANNER:SOUL EXPLOSION.jpg;
#BACKGROUND:SOUL EXPLOSION-bg.png;
#LYRICSPATH:;
#CDTITLE:;
#MUSIC:SOUL EXPLOSION.mp3;
#OFFSET:-1.380000;
#SAMPLESTART:28.580000;
#SAMPLELENGTH:16.400000;
#SELECTABLE:YES;
#BPMS:0.000000=150.000000
;
#STOPS:
;
#BGCHANGES:;
#KEYSOUNDS:;
#ATTACKS:;

//---------------dance-single - ----------------
#NOTES:
     dance-single:
     :
     Hard:
     15:
     0.646582,0.733224,0.325877,0.226304,0.534077,500.000000,464.000000,36.000000,25.000000,0.000000,0.000000,0.646582,0.733224,0.325877,0.226304,0.534077,500.000000,464.000000,36.000000,25.000000,0.000000,0.000000:
2000
0000
0000
0000
0000
0000
0000
3000
,
0001
0000
0001
0000
0010
0000
0100
0000
0010
0000
0000
0000
1000
0001
1000
0000
,
0001
0000
0010
0000
0001
0000
0100
1000
0100
0000
0010
0100
0010
0000
0000
0000
,
1100
0001
0001
0010
0100
0000
0010
1000
,
0001
0000
0010
0000
0001
0000
0100
0000
0100
0000
0000
0000
1000
0001
1000
0001
,
1000
0000
0010
0010
0100
0000
1100
0000
,
0001
0001
0010
0100
1000
0000
1001
0000
,
1000
0000
1000
0000
0001
0010
0001
0000
0100
0010
0100
0010
0100
0000
0001
0000
,
0000
1001
0000
1000
1000
0002
0000
0000
,
0000
2003
0000
0000
0020
0000
0000
0000
,
0000
0030
0200
0000
,
0000
0000
0300
0002
,
0000
0003
0020
0000
,
3030
0000
0200
0000
0000
0020
0300
0000
,
0000
0230
0000
0000
0000
2300
0000
0000
,
0000
0000
3002
0000
0000
0000
0003
0000
1000
0000
1000
0000
0001
0010
0100
0010
,
0000
0000
1000
0000
1000
0000
0010
0001
0000
0000
0001
0000
0001
1000
0000
0000
,
1001
0000
0100
0000
0100
0010
1000
0000
1000
0000
0001
0010
0001
0100
0000
0000
,
0100
0010
0000
0000
0010
0000
1000
0100
1000
0000
0001
0000
0001
0000
0000
0000
,
0110
0000
0000
0000
0001
0000
0100
0000
0100
0001
1000
0001
1000
0000
0000
0000
,
1100
0000
0000
0010
0100
0000
0100
0000
0000
0000
1100
0000
1010
0000
0000
0000
,
0110
0000
1000
0000
1000
0000
0001
0010
0001
0000
0100
0000
0100
0000
0000
0000
,
1001
0000
0000
0010
0100
0010
0001
0000
0001
0000
1000
0100
1000
0000
0000
0000
,
1100
0110
0011
1001
,
0100
0000
0010
0000
0100
0000
0000
0000
2000
0001
0010
0100
0000
0000
3100
0000
,
0000
0002
0103
0020
1030
0200
0301
2000
,
3010
0002
0103
0020
1030
0200
0300
0020
,
1030
0000
0000
0000
1000
0000
1000
0000
0001
0010
0001
0000
0000
0000
0110
0000
,
0000
0000
1000
0000
1000
0001
0000
0000
1001
0000
0000
0100
0010
0100
0000
0000
,
1001
0000
0010
0000
0010
0100
0000
0000
0110
0000
1000
0000
1000
0000
0010
0000
,
0000
0001
0100
0000
0100
0000
0000
0000
0001
0010
0001
0000
1000
0000
1000
0000
,
0001
0000
0000
0001
0000
0010
0100
0010
0000
0000
1000
0000
1000
0000
0001
0000
,
1001
0000
0010
0000
0110
0000
1100
0001
,
0001
0000
0000
0010
0001
0000
1100
0000
0000
0001
0000
0000
0100
0001
0010
0001
,
0000
0000
1000
0000
0100
0010
0000
0000
0000
0001
0100
0000
0100
0000
0010
0000
,
1000
0000
0000
0000
1000
0001
0010
0001
0000
0000
0100
0010
0000
0000
0010
1000
,
0000
0000
1000
0001
0000
0000
0001
0000
0000
0010
0100
0010
0100
0000
0000
0000
,
1000
0000
1000
0000
0100
0010
0100
0010
0000
0000
0001
0000
1001
0000
0000
0000
,
0001
1000
0100
1000
0001
0001
0100
0010
,
0000
0010
0000
1000
0100
0000
1000
0001
0000
0000
0001
0000
0010
0000
0010
0000
,
0000
0000
0001
0100
0001
0100
0000
0000
1000
0010
1000
0010
1000
0000
0000
0000
,
1001
0000
1000
1100
0100
0110
0001
0001
,
0100
0010
0100
0000
2000
0000
0000
0000
3000
0000
0001
0000
0001
0000
0001
0000
,
0010
0100
0010
0000
1000
0000
1000
0001
1000
0000
0000
0000
0010
0100
1000
0000
,
0000
0000
2002
0000
0000
3003
0000
0000
0001
0000
0001
0000
1000
0000
1000
0000
,
1000
0000
0010
0100
0010
0000
0001
0000
0001
0000
1000
0100
0010
0000
0000
0000
,
1001
0000
0000
0000
1000
0001
1000
0001
0100
0000
0100
0010
0000
1000
0100
1000
,
0001
0000
0001
0100
0000
0100
0010
0000
1000
0000
1000
0001
0010
0100
0000
0000
,
0110
0000
0000
0000
0000
0000
0000
0000
0001
0010
0100
1000
0000
1000
0000
0000
,
0001
0000
0001
0000
0010
0100
0010
0000
1000
0000
0000
1000
0001
0000
0001
0000
,
0010
0100
0010
0000
0000
1000
0001
0000
0001
0000
0000
0010
0100
0000
0010
1000
,
0000
0000
1000
0000
0001
0010
0001
0000
1000
0000
0000
0000
1000
0000
1001
0000
,
0000
0100
0000
0000
0010
0000
0100
0000
0110
0000
0000
0001
0000
0010
0100
0000
,
0000
0000
1000
0001
0000
0000
0010
0000
0010
0100
0000
0000
0001
0000
0001
0000
,
1000
0100
1000
0000
0010
0000
0000
0010
0100
0000
0001
0000
0001
0000
1000
0100
,
1000
0000
0010
0000
0000
0010
0000
0000
0001
0010
0001
0000
1000
0000
1000
0000
,
0100
0010
0110
1100
,
0001
0000
0001
0010
0100
0010
0000
0000
1000
0000
1000
0000
0001
0000
0001
0000
,
0010
0100
0010
0000
1000
0000
0000
1000
0001
0000
0000
0001
0100
0010
0100
0000
,
0000
1000
0000
1000
0001
0000
0001
0000
0000
0000
0110
0000
0001
0000
1000
0000
,
0001
0000
0001
0000
0010
0100
0010
0000
1000
0000
1000
0001
0000
0000
0001
0000
,
0100
0000
0100
0000
0001
0010
0001
0000
1000
0000
0000
1000
0000
0100
0000
0010
,
0000
0001
0000
1000
0100
1000
0000
0001
0000
0001
0100
0000
0100
0000
0010
0000
,
1000
0100
1000
0001
0000
0000
0001
0100
0000
0000
0100
0000
0001
0000
0001
0100
,
1000
0000
0000
0000
0110
0000
0000
0000
0001
0000
0100
0000
0000
0001
0010
0100
,
2000
0000
0000
0000
,
0000
0000
0000
0000
,
0000
0000
3000
0000
;

//---------------dance-single - ----------------
#NOTES:
     dance-single:
     :
     Medium:
     13:
     0.548302,0.641571,0.271564,0.162939,0.212726,424.000000,394.000000,30.000000,18.000000,0.000000,0.000000,0.548302,0.641571,0.271564,0.162939,0.212726,424.000000,394.000000,30.000000,18.000000,0.000000,0.000000:
2000
0000
0000
0000
0000
0000
0000
3000
,
0001
0001
0010
0100
0010
0000
0001
0000
,
0001
1000
1000
0001
0010
0000
0010
0100
,
0010
1000
1000
0010
0000
0010
0001
0001
,
2000
0000
0000
0000
3001
0000
0000
0000
0001
0000
0100
0010
0100
0010
0100
0000
,
0000
1000
0100
1000
0010
0010
0100
0000
,
0100
0001
0010
0001
1000
0000
1001
0010
,
0000
0100
1000
0010
0001
0100
1000
0001
,
0100
0010
1010
1100
,
2002
0000
0000
3000
,
0200
0000
0000
0000
,
0000
0300
2000
0000
0000
0000
0000
0000
,
0000
3000
0000
0000
0200
0000
0000
0000
,
0303
0020
0000
0000
0200
0000
0030
0000
,
0002
0300
2000
0003
,
0020
0000
0000
0000
3030
0000
0000
0000
0100
0000
0000
0100
1000
0000
0001
0000
,
0010
0001
0100
0100
0010
0100
1000
0000
,
1001
0100
0000
0010
0100
0010
0001
0001
,
1100
0000
0010
0010
1000
0001
1000
0000
,
0110
0000
1000
1000
0001
0010
0100
1000
,
1001
0000
0100
0100
0010
0001
1000
0001
,
1100
0000
1000
1000
1010
0000
0001
0010
,
0110
0000
1000
0100
1000
0001
0001
0010
,
0100
0000
0000
0000
1000
0001
1000
0000
0010
0100
0000
0000
0010
0000
0100
0000
,
0010
1000
1000
0001
2000
0000
0000
0000
,
3010
0000
0010
0100
0001
0001
0010
1000
,
1000
0001
0010
0000
0100
1000
0010
1000
,
1000
0001
0010
0001
1000
1001
0000
1000
,
0100
0010
0100
0001
0001
1000
0100
1000
,
0010
0100
0100
0001
0010
0001
1000
0000
,
1000
0010
0100
0010
0001
0001
1000
0100
,
1000
0000
0001
0100
0010
0010
1000
0100
,
1000
0001
0001
0000
1100
0000
0010
0010
,
0100
0000
0000
0000
1000
0000
1000
0001
0010
0001
0000
0000
1100
0000
1010
0000
,
0000
0000
0100
0010
0100
0000
0001
0000
1000
0000
0001
0000
0010
0000
1000
0000
,
1100
0000
0010
1010
0000
0001
1001
0000
,
0010
0010
1001
0000
1000
0100
1000
0011
,
0000
0001
1000
1000
0010
0000
0010
0100
,
0001
0001
1000
0100
1000
0010
0100
0100
,
0001
0010
0001
1000
1000
0010
0110
0000
,
0001
1000
0001
2000
0000
3000
0000
0010
0100
0010
0000
0000
0001
0000
0100
0000
,
0110
0000
1000
0000
1000
0000
1000
0100
0001
0000
0001
0000
,
0001
0000
0020
0000
0030
0000
0100
0000
0100
0000
0100
0000
,
0010
0000
0001
0000
0001
1000
0000
1000
0000
1000
0100
0000
,
0001
0000
0020
0000
0030
0000
0100
0000
1001
0000
1001
0000
,
0010
0000
0001
0000
0001
0000
1000
0000
0100
0000
0010
0000
,
0001
0010
0100
0000
0010
0000
0100
0000
0001
0000
0100
1000
,
0010
0000
0010
0000
0000
0100
0000
0100
0000
1000
0001
0010
,
0000
0000
0000
0000
1000
0000
0000
0000
0000
0000
0000
0000
1001
0000
0000
0000
0000
0000
0000
0000
0000
0000
0000
0000
0100
0000
0000
0010
0000
0000
0100
0000
0000
0010
0000
0000
0000
0000
0000
0000
0000
0000
0000
0000
0000
0000
0000
0000
,
0010
0100
0100
0001
0010
0001
1000
0000
,
1001
0000
0100
0100
0001
1000
0001
1000
,
1000
0001
0100
0100
0000
0010
0100
0010
,
1000
1000
0001
1000
0001
0000
1000
0000
,
0010
0100
0100
0000
0001
1000
0001
0000
,
0010
0100
0100
0000
0010
1000
0000
1000
,
0001
0010
0001
0100
0000
0100
0001
0000
,
0001
0100
1100
1001
,
0010
0010
0100
0001
0001
0000
1000
0100
,
1000
0010
0010
0001
0000
0001
1000
0100
,
1000
0010
0000
0001
0100
0100
0000
0010
,
1000
0100
1000
0000
0010
0001
0100
0000
,
0110
0000
0001
0001
0000
1000
1000
0001
,
0000
0100
0010
0010
0000
1000
0100
1000
,
0001
0001
0000
0100
0010
0000
1000
0010
,
0100
0000
0100
0000
0001
0000
0010
0000
0001
0000
1000
0000
1000
0100
0000
0000
,
2002
0000
0000
0000
,
0000
0000
0000
0000
,
0003
0000
3000
0000
;

//---------------dance-single - ----------------
#NOTES:
     dance-single:
     :
     Easy:
     7:
     0.353034,0.427714,0.217252,0.126730,0.000000,273.000000,249.000000,24.000000,14.000000,0.000000,0.000000,0.353034,0.427714,0.217252,0.126730,0.000000,273.000000,249.000000,24.000000,14.000000,0.000000,0.000000:
0000
0000
0000
0000
,
0001
0000
0010
0100
0010
0000
1000
0000
,
0010
0100
0010
0010
,
1000
0001
1000
0000
1000
0001
0000
0000
,
0010
0000
0100
0000
0100
0000
1000
1000
,
0000
0001
0110
1000
,
1001
0000
0010
0100
0010
0000
1000
0000
,
1100
0010
1010
0100
,
0110
0000
0000
0000
,
1002
0000
0000
0000
,
0000
0200
0000
0000
,
0300
0020
0000
0030
,
0200
0000
0000
0300
2000
0000
0000
0000
,
3003
0000
0200
0000
0300
0020
0000
0000
,
0030
2000
0000
0000
3000
0200
0000
0000
,
0000
0320
0000
0000
0030
0000
1000
0001
,
0001
0000
1000
0000
0001
0010
0100
0000
,
1001
0000
0010
0100
0010
0000
0100
0000
,
0110
0000
1000
0001
0000
0001
1000
0000
,
1001
0100
0100
0010
,
0110
0000
1000
0000
0001
1000
0001
0000
,
1001
0000
0100
0010
0001
0000
1000
0000
,
1100
0000
0001
0100
0010
0100
0000
0000
,
1001
0001
1001
1000
,
2002
0000
0000
3003
,
0010
0001
1000
0001
,
1000
0010
0001
0100
,
0100
0000
1000
0001
1000
0000
0001
0000
,
0010
0001
0100
0100
,
0001
1000
0001
0000
0100
0000
0100
0000
,
0001
0000
1000
0000
1000
0000
0010
0100
,
0010
0100
1000
0010
,
0010
0001
1000
1001
,
0001
1000
0100
1000
,
0001
0010
0100
0110
,
0001
0010
0001
1000
,
1001
0000
0010
0100
0010
0000
0001
0001
,
0000
0001
0010
0001
,
1000
0000
0010
0000
0100
0010
0100
0000
,
0010
0001
0001
1000
,
1000
1000
0000
1001
0000
0100
0010
0110
,
0000
0000
0001
0000
,
1000
0000
0100
0000
,
0010
0000
0000
0001
,
1001
0000
0001
0000
,
1000
0000
0100
0000
,
0010
0000
0100
0000
,
0001
0000
1000
0000
,
1001
0000
0000
0000
0010
0100
1000
0000
,
0001
0000
0001
0000
1000
0000
0001
0010
,
0001
0100
0100
0010
,
0000
1000
0001
0000
0100
0000
0010
0000
,
0010
0000
1000
0100
0001
0000
1001
0000
,
0000
0000
0100
0100
0000
0001
0010
0001
,
1000
0000
1000
0000
0000
0001
0001
0000
,
0010
0100
0010
0000
0001
0000
0100
1000
,
0001
0000
0001
0000
1000
0001
1000
0000
,
0001
0100
0100
0010
,
0001
0001
1000
0100
,
1000
0000
0001
0000
0010
0100
0010
0000
,
0100
0100
1000
0000
0001
0000
0100
0010
,
0100
0001
0001
1000
,
1000
0000
0010
0000
0010
0000
0100
0001
,
0010
0001
1000
0000
1000
0000
0000
0010
,
0100
0010
0000
0001
1000
1000
0001
0000
,
2002
0000
0000
0000
,
0000
0000
0000
0000
,
0003
0000
3000
0000
;
