#TITLE:SILVER DREAM;
#SUBTITLE:(Twinkle Mix);
#ARTIST:Jun;
#TITLETRANSLIT:;
#SUBTITLETRANSLIT:;
#ARTISTTRANSLIT:;
#GENRE:;
#CREDIT:;
#BANNER:SILVER DREAM (Twinkle Mix).png;
#BACKGROUND:SILVER DREAM (Twinkle Mix)-bg.png;
#LYRICSPATH:;
#CDTITLE:;
#MUSIC:SILVER DREAM (Twinkle Mix).mp3;
#OFFSET:0.000000;
#SAMPLESTART:33.543205;
#SAMPLELENGTH:17.817261;
#SELECTABLE:YES;
#BPMS:0.000000=197.000000
;
#STOPS:276.000000=0.200000
;
#BGCHANGES:;
#KEYSOUNDS:;
#ATTACKS:;

//---------------dance-single - ----------------
#NOTES:
     dance-single:
     :
     Hard:
     16:
     1.000000,0.826383,0.757326,0.281570,1.000000,639.000000,78.000000,29.000000,0.000000,0.000000,0.000000,1.000000,0.826383,0.757326,0.281570,1.000000,639.000000,78.000000,29.000000,0.000000,0.000000,0.000000:
0000
0000
0000
0000
,
0000
0200
0000
0000
,
0000
0000
0000
0000
0300
0000
0000
0000
0010
0000
0010
0100
0001
1000
0100
0000
,
0010
0000
0110
0000
0000
1000
0000
0000
1000
0001
0000
0010
0100
0000
0010
1000
,
0100
0000
1000
0000
0001
0000
0000
0001
0010
0000
0000
0010
1000
0100
0000
1000
,
0010
0000
0000
0010
0100
0000
0000
0100
0001
0000
1000
0100
1000
0010
0000
0000
,
0010
0100
0000
0001
0000
0000
1001
0000
0100
1000
0100
0000
0000
0010
0000
0000
,
0110
0000
0000
0010
0000
0000
1010
0000
0100
0001
0000
0000
0011
1000
0100
0000
,
1000
0000
1010
0000
0100
0000
0001
0000
0010
0001
0000
1000
0110
0000
1000
0010
,
0000
0000
0010
1100
0000
0001
0000
0000
1001
0000
0010
0000
0010
0000
0010
0000
,
0010
0220
0000
0330
1000
0110
1001
0000
,
0010
0000
0100
0000
1000
0010
0000
0100
0001
0000
0000
0001
0010
0000
1000
0100
,
0000
1000
0010
0000
0010
0100
0001
0000
1000
0100
0000
1020
0000
0030
0000
0000
,
0100
0010
0000
0010
0000
0000
1000
0100
0000
1000
0001
0000
0010
0000
0100
0010
,
0000
0000
1000
0000
0000
1001
0000
0000
1001
0000
0000
0100
0000
0010
0100
0000
,
0001
0010
0000
0001
1000
0100
0000
1000
0010
0000
0010
0100
0001
0000
0000
1000
,
0100
0000
1010
0000
0000
0010
0100
0000
0001
0010
0000
0001
1000
0100
0000
1000
,
0010
0100
0010
0000
0001
0000
0001
0000
1000
0000
0000
1000
0000
0010
0000
0100
,
0000
0000
1010
0000
1000
0011
0000
0000
0001
2000
0002
0000
0000
3003
0000
0000
,
0110
0000
1000
0100
0000
1000
0010
0000
0000
0110
0000
0000
0001
0000
0010
1000
,
0100
0000
1000
0010
0000
0000
0010
0100
0000
0000
1001
0000
0000
0010
0001
0000
,
1000
0100
0000
1000
0010
0000
0010
0001
0000
1000
0100
0000
0100
0001
0000
1000
,
0001
0000
0000
0001
0100
0000
0010
0000
0010
0000
0000
1100
0000
0000
1010
0000
,
0110
0000
0000
0001
0000
0010
0001
0000
1000
0100
0000
1000
0010
0000
0010
0100
,
0000
0001
0000
1000
0100
0000
1000
0010
0000
0000
0010
0100
0000
0001
0000
1000
,
0100
0000
1000
0010
0000
0000
0010
0000
0100
0001
0000
1000
0100
0000
1000
0010
,
0001
0110
0200
0010
0020
0000
0330
1001
,
2002
0000
0000
0000
3003
0000
0000
0000
0100
0000
0100
0000
0000
0010
0000
1000
,
0100
0000
1000
0001
0000
0001
0100
1000
0000
1000
0001
0010
0100
0000
0010
0000
,
0000
1001
0000
0010
0001
0000
1000
0100
0000
1000
0010
0000
0000
1010
0000
0100
,
0001
0000
0001
0000
1000
0100
0000
1000
0010
0000
0000
0110
0000
0000
0101
0000
,
1010
0000
0000
0001
0000
0010
0001
0000
1000
0100
0000
1000
0010
0000
0000
0010
,
0100
0000
0000
0001
1000
0100
0000
1000
0010
0000
0110
0000
0000
0001
0000
1000
,
0000
0010
0100
0000
0010
1000
0000
0000
1001
0000
0000
1010
0000
0000
0010
0100
,
0000
0001
0000
1000
0100
1000
0000
0010
0000
0010
1000
0000
0200
0000
0001
0000
,
1000
0000
0310
0000
0020
0000
0001
0000
0000
0001
1000
0030
0100
0000
1000
0000
,
0010
0100
0000
0010
0000
0000
1000
0000
0001
0010
0000
0001
1000
0000
0100
0000
,
1000
0010
0000
0000
0010
0100
0000
0000
0001
1000
0100
0000
1000
0010
0000
0120
,
0000
0100
0000
0130
0000
0000
0001
0000
1000
0100
0000
1000
0010
0000
0010
0000
,
0000
0011
0000
0000
1001
0000
0000
1100
0000
0000
0010
0100
0000
0010
1000
0000
,
0000
1010
0000
0100
0001
0000
0000
0001
1000
0100
0000
1000
0001
0000
0010
0001
,
0000
0000
1001
0000
0000
0010
0000
0100
0010
0000
1000
0000
0100
0000
1000
0002
,
0000
0000
0000
0000
0000
0000
0003
0000
1001
0000
0010
0000
0100
0000
0010
1000
,
0000
0001
0100
0000
0010
0000
0010
0000
0000
1000
0110
1000
0000
0010
0000
0100
,
0001
0000
1000
0100
1000
0002
0000
0000
0000
1003
0000
1001
0000
0000
1010
0000
,
0000
0101
0000
0000
0010
0000
0010
0000
1000
0100
0010
1000
0001
0000
0100
0001
,
0000
0001
0010
0000
1000
0100
0000
1000
0010
0000
0010
0100
0000
0001
1000
0000
,
1001
0000
0010
0100
0000
0001
0000
1000
0100
1000
0010
0000
0010
0100
0000
0001
,
0000
1000
0001
0000
0010
0001
0000
1000
0010
0000
0100
0010
0000
1000
0001
0000
,
0010
0001
1000
0100
0000
1000
0010
0000
0000
1010
0000
0000
0010
0100
0000
0000
,
0101
0000
0000
0010
0000
0000
1010
0000
0000
0010
0000
0100
0001
0000
1000
0000
,
0010
0000
0000
0010
0000
0100
0000
0001
1000
0100
0000
1000
0010
0000
0220
0000
,
0000
0000
0330
0000
1000
0000
0000
1000
0010
0000
0100
0000
0001
0000
0010
0001
,
1000
0000
1000
0001
0000
0010
0100
0010
0000
0000
1000
0100
0000
1000
0010
0000
,
0000
0000
0010
0000
0001
0000
1000
0010
0000
0100
0001
0000
0000
1001
0010
0000
,
0100
0000
0001
1000
0100
0000
1000
0000
0010
0000
0010
0000
0010
0100
0010
0000
,
0001
0000
0100
0000
1000
0010
0000
0010
0000
0001
0100
0000
0010
1000
0000
0100
,
0000
1000
0000
0011
0000
0000
0001
0000
0100
0000
0010
1000
0000
0010
1000
0000
,
0010
0000
0100
0001
0010
0001
1000
0000
0100
1000
0000
0000
0110
0000
0100
0010
,
0000
0001
1000
0000
0010
0100
0000
0000
1010
0000
0100
0000
0000
0101
0000
0000
,
2002
0000
0000
0000
0000
3003
0000
0110
0000
0000
0010
0000
1000
0100
0000
1000
,
0010
0000
0010
0000
0100
0000
0001
0010
0000
0001
0100
0000
1010
0000
0000
1000
,
0001
0000
0010
0000
0001
1000
0000
0000
1100
0000
0000
1000
0010
0000
0100
0001
,
0000
0000
0001
1000
0100
0000
1000
0000
0010
0000
0001
0010
0000
0001
1000
0010
,
0100
0000
0010
0001
1000
0000
0100
1000
0000
0001
1000
0000
0001
0010
0000
0001
,
1000
0000
0100
0000
1000
0000
0010
0000
0000
1010
0000
0100
0000
0001
0000
0010
,
0001
1000
0000
0100
0000
1000
0001
0000
0010
0001
0000
0100
0000
1010
0000
0000
,
0001
0000
0110
0001
0000
0010
0000
0001
1000
0000
0000
0010
1100
0000
0010
0000
,
0001
1000
0000
0110
0000
1000
0010
0000
0220
0000
0000
0000
0000
0000
0000
0000
,
0330
1000
0200
1300
0010
0100
0001
1000
,
0110
1000
0001
0010
0100
0010
1000
0001
,
1000
0001
0010
0100
0001
1000
1000
0010
,
0001
1100
0010
0010
1000
0001
0110
0001
,
1000
1000
0010
0100
1001
0100
1010
0001
,
0001
1002
0103
1000
0010
0100
0020
0130
,
0002
1003
2000
3010
0110
0000
0011
0000
,
1100
0010
1000
0020
0000
0130
0001
1010
,
0100
1100
0220
0330
0000
0000
0000
0000
;

//---------------dance-single - ----------------
#NOTES:
     dance-single:
     :
     Medium:
     13:
     0.818356,0.751257,0.252442,0.184477,0.956366,545.000000,26.000000,19.000000,0.000000,0.000000,0.000000,0.818356,0.751257,0.252442,0.184477,0.956366,545.000000,26.000000,19.000000,0.000000,0.000000,0.000000:
// measure 0
0000
0000
0000
0000
,  // measure 1
0000
0200
0000
0000
,  // measure 2
0000
0000
0300
0010
0010
0000
0100
0001
,  // measure 3
1000
0000
0100
0000
1000
0000
0010
0001
0000
0100
0010
0000
1000
0000
0000
1000
,  // measure 4
0010
0000
0000
0010
0100
0000
0001
0000
0000
0001
1000
0000
0100
0000
1000
0010
,  // measure 5
0000
0000
0010
0100
0000
0000
0001
0000
0010
0000
0000
0001
0000
1000
0100
1000
,  // measure 6
0020
0000
0000
0000
0000
0000
0000
0000
0030
0000
0110
0000
0000
0000
0001
0010
,  // measure 7
0000
0000
0001
1000
0100
0000
1000
0010
0000
0000
0110
0000
0001
0000
0001
0000
,  // measure 8
0100
0000
1000
0010
0001
0000
0100
0010
0000
1000
0100
0000
1000
0010
0000
0000
,  // measure 9
0001
0010
0000
0001
1000
0000
0001
0000
1000
0100
0000
0000
1000
0010
0000
0000
,  // measure 10
0020
0100
0130
1000
0110
1001
0000
0001
,  // measure 11
0100
0001
0010
1000
0000
1000
0100
1000
,  // measure 12
0000
0000
0010
0000
0000
0000
0010
0000
0100
0000
0000
1000
0000
0000
0001
0000
,  // measure 13
1000
0000
0100
0000
1000
0000
0010
0000
0100
0000
0001
0000
0000
0010
0001
0000
,  // measure 14
1000
0100
1000
0010
0010
0100
0001
1000
,  // measure 15
0100
0000
1000
0000
0001
0000
0010
0000
0010
0000
0100
0000
0000
0001
1000
0000
,  // measure 16
0100
1000
0001
0010
0100
0010
1100
0001
,  // measure 17
0010
0000
0001
0000
0100
0000
1010
0000
0000
1000
0001
0000
0010
0000
0001
0000
,  // measure 18
0100
0000
1010
0010
0200
0000
0300
0000
,  // measure 19
0010
0010
0000
1000
0100
1000
0001
0010
,  // measure 20
0100
0000
0010
0000
1000
0001
0100
0000
0010
0000
0100
0000
0001
0000
1000
0100
,  // measure 21
0000
0000
1000
0010
0000
0000
0100
0000
0001
0000
0010
0000
0100
0000
0010
1000
,  // measure 22
0000
1000
0010
0100
0001
0010
0001
1000
,  // measure 23
0100
0000
1000
0010
0000
0000
0100
0001
0000
1000
0100
0000
1000
0010
0000
0000
,  // measure 24
0010
0000
0100
0000
0001
0000
1000
0010
0000
0000
1000
0100
0000
0100
0001
0000
,  // measure 25
0010
0000
1000
0001
0000
1000
0010
0000
0010
0000
0100
0000
0001
0000
1000
0000
,  // measure 26
0000
1000
0010
0000
0020
0000
0100
0000
0031
0000
2000
0000
0000
0010
3001
0000
,  // measure 27
0100
0020
0000
0000
0130
0100
0001
1000
,  // measure 28
0100
0000
0010
0000
0100
0001
0000
0000
0001
0000
1000
0100
0000
1000
0010
0000
,  // measure 29
0000
0010
0000
0000
0001
0000
1000
0100
0000
1000
0000
0000
0000
0001
0010
0100
,  // measure 30
0000
0010
1000
0000
0000
1001
0000
0000
0000
0000
0010
0000
0100
0001
0000
0000
,  // measure 31
0000
0100
0000
0000
1000
0000
0010
0000
0100
0010
0000
0000
0001
0000
0000
1000
,  // measure 32
0001
0000
0010
0000
0100
0000
0010
1000
0000
0000
0000
0000
1000
0001
0000
0010
,  // measure 33
0000
0100
0000
0010
0000
1000
0001
0000
0000
0000
0000
0100
0010
0000
0000
1000
,  // measure 34
0010
0000
0100
0000
0001
0000
0010
0001
0000
0000
0000
0100
0000
0000
0010
0100
,  // measure 35
0000
0001
0000
0000
0001
1000
0100
0000
1000
0010
0000
0000
0000
0110
0000
0000
,  // measure 36
0001
0000
0000
1000
0000
0010
0000
0100
0000
0001
0000
0000
0001
0000
1000
0100
,  // measure 37
0000
1000
0010
0000
0000
0010
0000
0000
0100
0001
0000
0000
1000
0100
0000
1000
,  // measure 38
0010
0000
0000
0010
0100
0000
0001
0000
0000
1000
0000
0000
1000
0000
0010
0000
,  // measure 39
0100
0000
0001
0000
0000
0011
0000
0000
1000
0100
0000
1000
0000
0000
0010
0000
,  // measure 40
0010
0000
0000
0001
0000
0000
0100
0000
0001
0000
0100
0000
0000
1010
0000
0000
,  // measure 41
1000
0000
0000
0010
0100
0000
0000
0010
0000
0001
0000
0000
0100
0000
1000
0002
,  // measure 42
0000
0000
0000
0000
0000
0000
0003
0000
1000
0000
0010
0000
0100
0001
0000
0000
,  // measure 43
1000
0100
0000
1000
0010
0000
0000
0010
0000
0000
1000
0000
0100
0000
0100
0000
,  // measure 44
0001
1000
0000
0010
0200
0000
0300
0000
0000
0010
0000
0010
0000
0000
0000
1000
,  // measure 45
0000
0000
1000
0000
0001
0000
0010
0000
0100
0000
0010
0000
0000
0001
0000
1000
,  // measure 46
0100
0000
0000
1000
0010
0000
0001
0000
0000
0000
1000
0000
0010
0100
0000
0000
,  // measure 47
0001
0000
1000
0100
0000
1000
0000
0000
0010
0000
0000
0010
0000
0100
0000
0001
,  // measure 48
0000
0000
0100
0000
0000
0000
1010
0000
0000
0010
0000
0100
0000
0001
0000
1000
,  // measure 49
0000
0010
0000
0000
1000
0000
0010
0000
0000
0100
0000
0000
0010
0000
0000
0001
,  // measure 50
0000
0000
0100
1000
0000
0000
0010
0000
1000
0000
0010
0000
0000
0001
0000
0010
,  // measure 51
0000
0001
1000
0000
0000
0010
0100
0000
0000
0001
0000
0000
1000
0000
0220
0000
,  // measure 52
0330
0000
0000
0000
0010
0000
0010
0000
0000
1000
0000
0001
0000
0010
0000
0100
,  // measure 53
0000
0010
0000
1000
0000
0001
0000
0000
0001
0100
0000
0010
0000
0000
1000
0000
,  // measure 54
0000
1000
0001
0000
0000
0001
0000
0100
0010
0000
0000
1000
0100
0000
1000
0000
,  // measure 55
0000
0001
0000
0000
0100
0000
0000
1000
0000
0010
0000
0000
1000
0010
0000
0000
,  // measure 56
0001
0000
0000
0010
0000
1000
0000
0010
0000
0100
0000
0001
0000
1000
0000
0000
,  // measure 57
0001
0000
0100
0001
0000
0010
0000
1000
0000
0001
0000
0100
0000
0000
0100
0001
,  // measure 58
0000
1000
0000
0000
1000
0010
0000
0001
0000
0010
0000
0000
1000
0000
0010
0000
,  // measure 59
0001
0000
0000
1000
0000
0001
0000
0000
1000
0000
0010
0000
0010
0000
0000
0000
,  // measure 60
2002
0000
0000
0000
0000
3003
0000
0000
0010
0000
0010
0000
0000
0100
0000
0001
,  // measure 61
0000
1000
0100
0000
1000
0010
0000
0000
0010
0000
0000
0100
0000
0001
0000
0000
,  // measure 62
1000
0000
0100
0000
1000
0010
0000
0000
0000
0110
0000
0000
0001
0000
1000
0000
,  // measure 63
0100
0000
1000
0010
0000
0000
0001
0100
0000
0000
1000
0000
0010
0000
0100
0000
,  // measure 64
0001
0000
0001
0000
0000
1000
0000
0010
0000
0000
0010
0000
1000
0000
0001
0000
,  // measure 65
0010
0000
0001
0000
0100
0000
0000
0010
1000
0000
0000
0000
0100
1000
0000
0000
,  // measure 66
0011
0000
0000
0001
0000
0100
0000
0010
0000
0000
0010
1000
0000
0000
1000
0000
,  // measure 67
0001
0000
0000
0001
0000
0100
0000
0000
1010
0000
0000
1000
0000
0010
0000
0000
,  // measure 68
0010
0000
0100
0000
0001
0000
0000
0001
1000
0000
0100
0000
1000
0000
0000
0000
,  // measure 69
0220
0330
0000
0000
0000
1000
0000
0000
0001
0000
0100
0000
0010
0000
0000
0000
,  // measure 70
0001
0000
0100
0000
0000
0010
0000
0001
0000
1100
0000
0000
1000
0001
0000
0000
,  // measure 71
0001
0000
0100
0000
0010
0000
1000
0000
0001
0000
0100
0000
0010
0000
0001
1000
,  // measure 72
0000
0100
0000
1000
0000
0001
0000
1000
0000
0001
0000
0100
0000
0000
0010
0000
,  // measure 73
0001
0000
1000
0000
0100
0000
0000
1000
0000
0001
0000
0000
0100
0010
0000
0000
,  // measure 74
0010
0000
0000
0001
1000
0000
0100
0000
1000
0000
0001
0000
0100
0000
0000
0010
,  // measure 75
0000
1000
0001
0000
0010
0000
1000
0000
0100
0000
0100
0000
1000
0000
0000
0000
,  // measure 76
0110
2002
3003
0000
0110
0011
1000
1001
,  // measure 77
0010
0101
0220
0330
0000
0000
0000
0000
;

//---------------dance-single - ----------------
#NOTES:
     dance-single:
     :
     Easy:
     9:
     0.669942,0.676132,0.184477,0.145640,0.000000,449.000000,19.000000,15.000000,0.000000,0.000000,0.000000,0.669942,0.676132,0.184477,0.145640,0.000000,449.000000,19.000000,15.000000,0.000000,0.000000,0.000000:
// measure 0
0000
0000
0000
0000
,  // measure 1
0000
0200
0000
0000
,  // measure 2
0000
0000
0300
0000
0110
0000
0100
1000
,  // measure 3
0100
1000
0001
0000
0001
0010
0100
0010
,  // measure 4
0000
1000
0000
1000
0100
1000
0001
0010
,  // measure 5
0000
0010
0100
0001
0000
1000
0010
0100
,  // measure 6
0000
0001
0000
0001
1000
0010
0010
0001
,  // measure 7
1000
0000
0001
0000
0001
0000
1000
0100
,  // measure 8
1000
0000
0010
0100
0000
0001
1000
0100
,  // measure 9
1000
0001
0000
1001
0000
1001
0000
0010
,  // measure 10
0100
0010
0000
1000
0001
0010
0000
0100
,  // measure 11
1000
0001
0010
0000
0010
0100
0001
1000
,  // measure 12
0000
0010
0010
0100
0001
0000
0001
1000
,  // measure 13
0100
1000
0001
0001
0010
0100
0001
1000
,  // measure 14
0100
1000
0010
0000
0010
0100
0000
0100
,  // measure 15
0001
0000
1000
0100
0000
1000
0010
0000
,  // measure 16
0010
0100
0000
0001
0000
0001
1000
0010
,  // measure 17
0000
0100
0001
0000
0001
0000
1000
0100
,  // measure 18
0000
1000
0010
0000
0020
0000
0030
0001
,  // measure 19
1000
0000
0100
1000
0010
0000
0010
0100
,  // measure 20
0000
0001
1000
0001
0000
0010
0100
0001
,  // measure 21
1000
0000
0010
1000
0010
0000
0001
0100
,  // measure 22
0000
1000
0000
0010
0000
0010
0000
0100
,  // measure 23
0000
0100
0001
0000
1000
0100
1000
0000
,  // measure 24
0001
0010
0000
0100
0010
0000
1000
0000
,  // measure 25
1000
0100
0000
0001
0010
0000
0001
1000
,  // measure 26
0100
0000
0000
0000
0220
0000
0330
0000
2002
0000
0000
0000
0000
3003
0000
0000
,  // measure 27
0002
0000
0003
1000
1000
0010
0100
0001
,  // measure 28
0000
0001
1000
0100
1000
0010
0000
0110
,  // measure 29
0000
0001
0010
0000
0001
1000
0100
1000
,  // measure 30
0010
0000
0001
0010
0100
0001
0000
1000
,  // measure 31
0100
1000
0001
0000
0001
1000
0010
0100
,  // measure 32
0001
0000
0001
1000
0010
0001
1000
0100
,  // measure 33
1000
0010
0000
0010
0100
0001
0000
1000
,  // measure 34
0100
1000
0001
0010
0001
1000
0000
1000
,  // measure 35
0100
1000
0010
0100
0001
0010
0001
1000
,  // measure 36
0010
1000
0100
0000
0001
0010
0001
1000
,  // measure 37
0010
0000
1100
0001
0000
0001
1000
0100
,  // measure 38
1000
0001
0010
0001
0000
1000
0100
1000
,  // measure 39
0010
0000
0001
1000
0100
1000
0010
0000
,  // measure 40
0010
0100
0001
0000
0001
1000
0100
1000
,  // measure 41
0000
0001
0000
0001
1000
0100
0000
1000
,  // measure 42
0020
0000
0030
0000
0100
0001
0000
1000
,  // measure 43
0100
1000
0010
0001
0010
0000
0100
0010
,  // measure 44
0000
1000
0002
0003
0000
1000
0010
1000
,  // measure 45
0000
0110
0000
0010
0001
0000
1000
0010
,  // measure 46
0000
0010
1000
0000
0001
0100
0010
0010
,  // measure 47
0001
1000
0000
0100
1000
0001
0000
0001
,  // measure 48
1000
0000
0010
0100
0001
0000
0001
1000
,  // measure 49
0000
0010
0100
0001
0000
0001
1000
0100
,  // measure 50
0000
0100
1000
0001
0000
0001
0000
1000
,  // measure 51
0000
0001
0100
0000
0010
0001
1000
0220
,  // measure 52
0330
0001
0001
1000
0100
0000
1000
0010
,  // measure 53
0010
0000
0100
0001
0000
1000
0100
1000
,  // measure 54
0000
1000
0000
0010
0100
0001
0000
0001
,  // measure 55
1000
0100
0000
1000
0001
0000
0100
0010
,  // measure 56
0000
0010
0000
1000
0001
0100
0010
0001
,  // measure 57
1000
0000
0100
1000
0001
0000
0110
0000
,  // measure 58
1000
0100
1000
0010
0000
0100
0000
1000
,  // measure 59
0000
0001
0010
0000
0001
1000
0010
0000
,  // measure 60
0010
0100
0001
0000
0001
1000
0100
1000
,  // measure 61
0000
0001
0100
0010
0000
0010
1000
0001
,  // measure 62
0100
0000
0010
0100
0001
0000
0001
1000
,  // measure 63
0100
1000
0001
0100
0010
0000
0010
0001
,  // measure 64
1000
0100
1000
0001
0000
0010
0001
1000
,  // measure 65
0100
1000
0001
0000
0001
0100
0010
0000
,  // measure 66
1001
0000
0010
0100
0000
0010
1000
0000
,  // measure 67
0010
0001
1000
0100
0000
1000
0001
0000
,  // measure 68
0001
0100
0000
0010
0001
1000
0010
0000
,  // measure 69
2002
3003
0000
0000
0010
0000
0010
0000
1000
0000
0001
0000
0010
0000
0100
0000
,  // measure 70
0100
0001
0000
1000
0100
1000
0000
0010
,  // measure 71
1000
0001
0000
0100
0010
0001
0001
1000
,  // measure 72
0100
0000
0100
0000
1000
0001
0010
0000
,  // measure 73
0010
0100
1000
0001
0010
0001
1000
0010
,  // measure 74
0100
0001
0001
1000
0100
1000
0001
0000
,  // measure 75
0110
0000
1000
0001
0010
0001
1000
0000
,  // measure 76
0010
0000
0001
0100
1010
0110
1001
0011
,  // measure 77
1001
1000
0220
0330
0000
0000
0000
0000
;

//---------------dance-single - ----------------
#NOTES:
     dance-single:
     :
     Beginner:
     4:
     0.443854,0.525880,0.203895,0.145640,0.000000,284.000000,21.000000,15.000000,0.000000,0.000000,0.000000,0.443854,0.525880,0.203895,0.145640,0.000000,284.000000,21.000000,15.000000,0.000000,0.000000,0.000000:
// measure 0
0000
0000
0000
0000
,  // measure 1
0000
0000
0000
0000
,  // measure 2
0000
0000
0110
0001
,  // measure 3
0001
1000
0010
0001
,  // measure 4
1000
0001
0100
0010
,  // measure 5
1000
0001
0001
0000
,  // measure 6
1000
1000
0220
0330
,  // measure 7
0001
1000
0010
0010
,  // measure 8
0100
0001
1000
0100
,  // measure 9
1000
0001
0010
1000
,  // measure 10
0001
0001
0001
0000
,  // measure 11
0100
0001
1000
1000
,  // measure 12
0010
0100
0001
1000
,  // measure 13
0010
0010
0100
0001
,  // measure 14
1000
0010
0100
0001
,  // measure 15
1000
0100
1000
1000
,  // measure 16
0010
0100
0001
0010
,  // measure 17
1000
0100
0001
0001
,  // measure 18
1000
1000
0020
0030
,  // measure 19
0110
0001
1000
0100
,  // measure 20
1000
0010
0100
0001
,  // measure 21
0010
0001
1000
1000
,  // measure 22
0010
0100
0001
0001
,  // measure 23
0000
0010
0100
0001
,  // measure 24
1000
0100
1000
0001
,  // measure 25
0001
1000
0010
0100
,  // measure 26
2002
3003
0110
0110
,  // measure 27
2002
3003
0010
0010
,  // measure 28
0100
0001
1000
0100
,  // measure 29
1000
0000
0100
0100
,  // measure 30
0010
0001
1000
0010
,  // measure 31
0100
0001
1000
0100
,  // measure 32
1000
1000
0010
0100
,  // measure 33
0001
0010
0100
0010
,  // measure 34
0010
0100
0001
1000
,  // measure 35
0010
0100
0001
0000
,  // measure 36
0001
1000
0100
1000
,  // measure 37
0010
0010
0100
0001
,  // measure 38
1000
0010
0100
0001
,  // measure 39
1000
0010
0100
0100
,  // measure 40
0001
1000
0010
0100
,  // measure 41
0001
1000
0100
1000
,  // measure 42
0020
0030
0001
1001
,  // measure 43
0010
0110
1000
1001
,  // measure 44
0100
0000
0000
0220
0330
0000
0000
0000
0000
0010
0000
0000
,  // measure 45
0010
1000
0001
0010
,  // measure 46
0100
0010
1000
0001
,  // measure 47
0001
1000
0010
0100
,  // measure 48
1000
0001
0010
0001
,  // measure 49
1000
0010
0010
0100
,  // measure 50
0001
0100
0100
1000
,  // measure 51
0010
0001
1000
0220
,  // measure 52
0330
0001
0001
1000
,  // measure 53
0010
0100
0001
1000
,  // measure 54
0000
0010
0001
0100
,  // measure 55
0010
1000
0001
0100
,  // measure 56
0010
0001
0001
1000
,  // measure 57
0100
0010
0100
0001
,  // measure 58
1000
0001
0001
0100
,  // measure 59
0010
1000
1001
0010
,  // measure 60
0110
0000
0001
0001
,  // measure 61
1000
0010
0100
0001
,  // measure 62
1000
1000
0010
0100
,  // measure 63
0000
0001
0001
0010
,  // measure 64
0100
0010
1000
0001
,  // measure 65
0010
0100
0010
1000
,  // measure 66
0001
0100
0010
1000
,  // measure 67
0001
0100
0010
0100
,  // measure 68
0001
1000
1000
0020
,  // measure 69
0030
0100
0100
0001
,  // measure 70
0001
1000
1000
0010
,  // measure 71
0010
0100
0100
0001
,  // measure 72
1000
0001
1000
0010
,  // measure 73
0100
0001
0001
1000
,  // measure 74
1000
0010
0010
0100
,  // measure 75
0100
0001
1001
0010
,  // measure 76
0110
1001
1001
0110
,  // measure 77
0110
0000
2002
3003
0000
0000
0000
0000
;
