#TITLE:SHION;
#SUBTITLE:(LO-SPEED FANTASY TUNE Remix);
#ARTIST:HOUJIROU feat. dadaco;
#TITLETRANSLIT:;
#SUBTITLETRANSLIT:;
#ARTISTTRANSLIT:;
#GENRE:;
#CREDIT:PaperBox440;
#BANNER:SHION (LO-SPEED FANTASY TUNE Remix).png;
#BACKGROUND:SHION (LO-SPEED FANTASY TUNE Remix)-bg.png;
#LYRICSPATH:;
#CDTITLE:;
#MUSIC:SHION (LO-SPEED FANTASY TUNE Remix).mp3;
#OFFSET:0.000000;
#SAMPLESTART:1.636364;
#SAMPLELENGTH:18.545454;
#SELECTABLE:YES;
#BPMS:0.000000=110.000000
;
#STOPS:
;
#BGCHANGES:;
#KEYSOUNDS:;
#ATTACKS:;

//---------------dance-single - ----------------
#NOTES:
     dance-single:
     :
     Hard:
     15:
     0.600510,0.617700,0.497369,0.040110,0.593634,524.000000,462.000000,62.000000,5.000000,0.000000,0.000000,0.600510,0.617700,0.497369,0.040110,0.593634,524.000000,462.000000,62.000000,5.000000,0.000000,0.000000:
// measure 0
0000
0000
0000
0000
,  // measure 1
1001
0000
0100
0000
0100
0000
0010
0000
0100
0000
0001
0000
0001
0000
1000
0001
,  // measure 2
1000
0000
0001
0000
0010
0000
0001
0000
1000
0100
1000
0000
0010
0001
0010
0000
,  // measure 3
0100
0000
0100
0001
1001
0000
0010
0100
,  // measure 4
0010
0000
0100
0000
0001
1000
0001
0000
1100
0000
0000
0000
0010
0000
0001
0000
,  // measure 5
1001
0000
0000
0010
0000
0000
1100
0000
1001
0000
0000
0000
0100
0010
0100
0000
,  // measure 6
1000
0000
1000
0000
0001
0100
0001
0000
1000
0000
1001
0000
0000
0010
0000
0000
,  // measure 7
0010
0000
1100
0000
0000
0010
0001
0000
1001
0000
0000
0000
0010
0000
0100
0000
,  // measure 8
0001
0001
1000
0100
1000
0001
0001
0010
,  // measure 9
2000
0000
3000
0000
0001
0010
0000
0000
1000
0000
1000
0100
0000
0001
0010
0001
,  // measure 10
0010
0000
1000
1000
0000
0000
0001
0001
0000
0000
0100
0010
0000
0000
0001
0010
,  // measure 11
1000
0000
1000
1000
0000
0000
0001
0001
0000
0100
0010
0000
1000
0100
0001
0000
,  // measure 12
0001
0000
1000
1000
0000
0100
0100
0000
0000
0000
0010
0010
0000
0000
0001
0010
,  // measure 13
1000
0000
1001
0000
0000
0100
0100
0000
0010
0000
0110
0000
0000
1000
0001
0010
,  // measure 14
0000
0000
1000
1000
0000
0000
0001
0001
0000
0000
1000
1000
0000
0010
0100
0010
,  // measure 15
0000
0000
0001
0001
0000
1000
1000
0000
0000
0000
0100
0100
0000
1000
0001
1000
,  // measure 16
0000
0000
0010
0010
0000
0100
0100
0000
0001
0010
0100
0010
1000
1000
0001
0000
,  // measure 17
1001
0000
1100
0000
1010
0000
0001
0010
0001
0100
0000
0100
0010
0000
1000
0000
,  // measure 18
1000
0000
0010
0000
0010
0100
0000
0100
0001
0010
0001
0000
1000
0000
1100
0000
,  // measure 19
0001
0000
1001
0000
1100
0000
1000
0010
0100
0000
0110
0000
1001
0000
0100
0010
,  // measure 20
0000
0010
0100
0000
0100
0001
0001
0000
0010
1000
0001
0000
1000
0001
1000
0001
,  // measure 21
0000
0000
1001
0000
0000
0010
0000
0000
0010
1000
0100
1000
0001
0000
0001
0000
,  // measure 22
0100
0000
0010
0000
0010
0000
1000
0100
1000
0000
0001
0000
0001
1000
0000
0010
,  // measure 23
0100
0010
0000
1000
0001
0100
0000
0000
0010
0000
1100
0000
1001
0000
0100
0010
,  // measure 24
0100
0000
0001
0000
0000
0010
0100
0000
1000
0000
1001
0000
0022
0000
0033
0000
,  // measure 25
0000
1001
0000
0010
0100
0001
0001
0100
,  // measure 26
0000
0100
0000
0010
0000
0000
0010
1000
0100
1000
0000
0000
1001
0000
0100
0000
,  // measure 27
0010
0001
0001
1000
0010
0010
0100
0001
,  // measure 28
0001
0000
1000
0100
1000
0000
0100
0000
0010
0000
0010
0000
0000
0001
1000
0001
,  // measure 29
1000
0001
0000
0000
0100
0000
0110
0000
0000
1000
0001
1000
0000
0000
0010
0000
,  // measure 30
0010
0100
0000
1001
0000
1000
0010
0000
0110
0000
0000
0000
1000
0000
0001
1000
,  // measure 31
0001
0000
1000
0000
0010
0000
0001
0000
0100
0000
0010
0000
0010
1000
0100
1000
,  // measure 32
0001
0000
0001
0000
0110
0000
0010
0000
2000
0000
0000
3001
0000
0000
0010
0100
,  // measure 33
0010
1001
0000
0000
0100
0110
0000
0000
0010
0000
0100
0000
0100
0001
0010
0000
,  // measure 34
0001
0100
0000
0000
0100
0000
1000
0001
0000
0001
0000
0000
1100
0000
1100
0000
,  // measure 35
1100
0000
1001
0000
0000
0000
0010
0100
0000
1000
1000
0001
0000
0100
0000
0100
,  // measure 36
0010
1000
0010
0000
0001
0100
0001
0000
1001
0000
0000
0000
0000
0010
0100
0010
,  // measure 37
0100
1001
0000
0000
1100
0000
0010
0000
,  // measure 38
0110
0000
0000
0001
1001
0000
0010
1000
,  // measure 39
1100
0000
0000
0000
0000
0000
0000
0000
1001
0000
0000
0000
1000
1000
0000
0000
,  // measure 40
0110
0000
0000
0000
0000
0000
0000
0000
1100
0000
0001
0000
0100
0010
0100
0000
,  // measure 41
0001
0000
1001
0000
0000
1001
0000
0000
0110
0000
0000
0000
0000
0000
0000
0000
,  // measure 42
1100
0000
0000
0000
0000
0000
0000
0000
1010
0000
0001
0001
1100
0000
0000
0000
,  // measure 43
1001
0000
0000
0010
0100
0000
0000
0000
0110
0000
0000
0000
0000
0000
0000
0000
,  // measure 44
1100
0000
0000
0010
0100
0000
0000
0000
0110
0000
0000
1000
0001
0000
0000
0000
,  // measure 45
1001
0000
0000
0010
0100
0000
0000
1000
0001
0000
0000
0010
1000
0000
0000
0001
,  // measure 46
0100
0000
0100
0000
0010
0000
0010
0000
1000
0001
1000
0010
0000
0010
0100
0000
,  // measure 47
0001
0000
1000
0000
1000
0010
0100
0010
0000
0000
1010
0000
1100
0000
0001
0000
,  // measure 48
0010
1000
1000
0000
0010
0000
0100
0000
0001
0010
0001
0000
0200
0000
0000
0310
,  // measure 49
0010
0000
1000
0000
1001
0000
0000
0100
0010
0001
0000
0100
0110
0000
0000
0001
,  // measure 50
1000
0100
1000
0001
0000
0001
0000
0100
0010
0100
0000
0001
0001
0000
1000
0000
,  // measure 51
1100
0000
0000
0000
0001
0000
1001
0000
0010
0000
0100
0010
1000
1000
0001
0000
,  // measure 52
0001
0000
0100
0010
0100
0001
0010
0000
0001
1000
1000
0000
0100
0010
0001
0100
,  // measure 53
0010
0001
0000
0100
0010
0100
0001
0000
0001
0010
0100
1000
0010
0100
1000
0000
,  // measure 54
0100
0010
0100
0001
0000
0001
1000
0100
1000
0001
0001
0000
0010
0100
0010
0000
,  // measure 55
0100
0000
0000
0000
;
