#TITLE:Ryoushi no umi no Lindwurm;
#SUBTITLE:(GITADOROCK Ver.-);
#ARTIST:KURONEKO DUNGEON feat. 96;
#TITLETRANSLIT:;
#SUBTITLETRANSLIT:;
#ARTISTTRANSLIT:;
#GENRE:;
#CREDIT:PaperBox440;
#BANNER:Ryoushi no umi no Lindwurm (GITADOROCK Ver.-).png;
#BACKGROUND:Ryoushi no umi no Lindwurm (GITADOROCK Ver.-)-bg.png;
#LYRICSPATH:;
#CDTITLE:;
#MUSIC:Ryoushi no umi no Lindwurm (GITADOROCK Ver.-).mp3;
#OFFSET:0.000000;
#SAMPLESTART:72.857147;
#SAMPLELENGTH:14.142853;
#SELECTABLE:YES;
#BPMS:0.000000=280.000000
;
#STOPS:
;
#BGCHANGES:;
#KEYSOUNDS:;
#ATTACKS:;

//---------------dance-single - ----------------
#NOTES:
     dance-single:
     :
     Hard:
     17:
     1.057569,1.123826,0.695702,0.392447,0.709081,830.000000,752.000000,78.000000,44.000000,0.000000,0.000000,1.057569,1.123826,0.695702,0.392447,0.709081,830.000000,752.000000,78.000000,44.000000,0.000000,0.000000:
// measure 0
0000
0000
0000
0000
,  // measure 1
0000
0000
0000
0000
,  // measure 2
0000
0000
0000
0000
,  // measure 3
0000
0000
0000
0000
,  // measure 4
0000
0000
0000
0000
,  // measure 5
0000
0000
0000
0000
,  // measure 6
0010
0100
0000
0000
0000
0000
1000
0001
,  // measure 7
0000
1001
0011
0010
,  // measure 8
1010
0000
1000
0001
1000
0001
1100
0010
,  // measure 9
0100
0010
0001
0001
1000
0100
1000
0000
,  // measure 10
1010
0010
0120
0000
,  // measure 11
1000
0000
1000
1030
,  // measure 12
1000
1000
0110
0000
0011
0001
1000
0100
,  // measure 13
1000
0010
0010
0100
0001
1000
0011
0000
,  // measure 14
0100
0010
1000
0001
0001
0100
0010
0001
,  // measure 15
0010
1000
0100
1000
0001
0010
0010
0000
,  // measure 16
2001
0000
0000
3010
,  // measure 17
0110
0000
1000
1000
1000
0010
0100
0010
,  // measure 18
0001
0001
0100
0010
1000
0010
0100
0000
,  // measure 19
1001
0000
0100
1000
0010
0001
0000
0001
,  // measure 20
1000
0100
1000
0010
0100
0100
2002
0000
,  // measure 21
3003
0000
0000
0000
0000
0000
0000
0010
0000
0100
0000
0000
0000
1000
0000
0100
,  // measure 22
0000
0010
0000
0100
0000
0010
0000
0001
0000
0000
0000
0001
0000
0010
0000
0100
,  // measure 23
0000
0010
0000
1000
0000
0100
0000
0001
0000
0010
0000
0100
0000
0010
0000
1000
,  // measure 24
0000
0001
0000
1000
0000
0010
0000
0100
0000
0010
0000
0001
0000
1000
0000
0001
,  // measure 25
0000
1000
0000
0000
0110
0000
0000
0001
0000
0000
0100
0000
1010
0000
0000
0100
,  // measure 26
0000
0001
0000
0000
0110
0000
0000
1000
0000
0000
0010
0000
0101
0000
0000
1000
,  // measure 27
0000
0001
0000
0000
1010
0000
0000
0100
0000
0000
0001
0000
1100
0000
0000
0010
,  // measure 28
0000
0100
0000
0000
1001
0000
0000
0000
0000
0001
0000
0000
0001
1000
0100
0000
,  // measure 29
0000
1000
0010
0000
0000
0010
0100
0000
0001
0000
0000
0001
1000
0000
0000
1000
,  // measure 30
0000
0100
0000
0000
0100
0010
0000
0000
0010
1000
0000
0000
0100
0000
1000
0001
,  // measure 31
0000
0000
0001
0010
0000
1000
0100
0000
0010
0000
0100
0000
0001
0000
0000
1000
,  // measure 32
0000
0001
0000
1000
0010
0000
0000
0010
0100
0000
0000
0100
0001
0000
0000
0001
,  // measure 33
1000
0100
0000
0000
1000
0010
0000
0000
1010
0000
0000
0010
0000
0100
0000
0001
,  // measure 34
1000
0000
0100
0000
1000
0010
0000
0100
0010
0000
0100
0000
2020
0000
0000
0000
,  // measure 35
3030
0000
0110
0000
0011
0000
0220
0330
,  // measure 36
0000
0010
2000
3100
0002
0003
0010
0000
,  // measure 37
0100
0010
0100
0010
1000
1000
0010
0000
,  // measure 38
1001
0000
1000
0100
0020
0000
0000
0030
,  // measure 39
0001
1000
1010
2200
,  // measure 40
3300
0000
0000
0010
0000
0000
1010
0000
0000
2200
0300
0000
,  // measure 41
0000
0000
0000
0000
3000
0000
0000
0000
0000
0000
0000
0000
0110
0000
0000
0000
0000
0000
0000
0000
0000
0000
0000
0000
1100
0000
0000
0000
0000
0000
0010
0000
0000
0000
0000
0000
0000
0000
0000
0100
0000
0000
0000
0000
0000
0000
0000
0000
,  // measure 42
1001
0000
0000
0010
0000
0000
1000
0000
0011
0000
0100
0000
0000
1000
0000
0000
,  // measure 43
0101
0000
0000
0010
0000
1000
0000
0000
0110
0000
0000
0001
0000
0000
0100
0000
,  // measure 44
1010
0000
0000
0100
0000
0000
0001
0000
1100
0000
0000
0010
0000
0000
1000
0000
,  // measure 45
0110
0000
0000
0001
0000
0000
0100
0000
1010
0000
0000
0001
0000
0100
0000
0000
,  // measure 46
1001
0000
0000
0000
0000
0000
0000
0010
1000
0000
0010
1000
0000
0010
1000
0000
,  // measure 47
0010
1000
0000
0000
0110
0000
0000
0000
1000
0000
0100
0000
1000
0000
0100
0000
,  // measure 48
0010
0100
0010
0100
0001
0010
0001
0010
,  // measure 49
0001
1000
0001
1000
0001
0010
0100
0010
,  // measure 50
0100
0010
0001
0100
1000
0100
1000
0010
,  // measure 51
0100
0010
0001
1000
0100
1000
0010
0100
,  // measure 52
0001
0010
0100
0010
1000
0100
1000
0001
,  // measure 53
1000
0010
0100
0001
0010
0001
0010
1000
,  // measure 54
0001
1000
0001
0100
0010
0100
0010
0001
,  // measure 55
1000
0100
1000
0001
0010
0010
0100
0100
,  // measure 56
1000
0010
0001
0010
0100
0010
1000
1000
,  // measure 57
0001
0100
0010
0010
1000
0100
1000
0001
,  // measure 58
0010
0100
0010
1000
1000
0010
0100
0000
,  // measure 59
1001
0000
1001
0000
0100
0010
0001
0001
,  // measure 60
1000
0100
1000
0010
0010
0000
1100
0000
,  // measure 61
0110
0000
0101
0000
0011
0000
1000
0001
,  // measure 62
1000
0000
0100
0000
0010
0000
0001
1000
0100
0000
0000
1000
0000
0000
0100
0010
,  // measure 63
0000
0001
1000
0000
0000
1000
0000
0100
0000
0000
0100
0010
0000
1000
0000
0000
,  // measure 64
0000
1000
0010
0000
0100
0001
0000
0000
0001
1000
0100
0000
1000
0010
0000
0000
,  // measure 65
0010
0100
0000
0000
0100
0001
0000
1000
0000
0000
1000
0000
0000
0100
0000
0000
,  // measure 66
0100
0010
0000
0000
0010
1000
0000
0000
1100
0000
0001
0000
0100
0000
0000
0000
,  // measure 67
0110
0000
0010
0100
0011
0000
0001
0010
,  // measure 68
1001
0000
0010
0100
0100
0001
1000
0001
,  // measure 69
1000
0000
0000
0000
0100
0000
0010
0100
0000
0010
0200
0000
0000
0000
0300
0000
,  // measure 70
0001
0000
0000
0011
0000
0000
0010
0000
1000
0000
0000
1100
0000
0010
0000
0000
,  // measure 71
1010
0000
0000
0100
0000
0000
0110
0000
0001
0000
0000
1001
0000
0000
0010
0000
,  // measure 72
0100
0010
0100
0010
0100
1000
1000
0010
,  // measure 73
2002
3003
0000
0000
0000
0000
0000
0000
,  // measure 74
0000
0000
0001
1000
0001
1000
0001
0000
,  // measure 75
0010
0010
0100
0100
1000
0100
1000
0001
,  // measure 76
0001
0010
0100
0100
0010
1000
0100
1000
,  // measure 77
0001
0010
0100
0000
0022
0033
0100
1000
,  // measure 78
0000
0100
0010
0100
1000
0000
2020
3030
,  // measure 79
0000
0001
0100
0010
0100
0000
0000
0000
,  // measure 80
2002
3003
0000
0100
0010
0001
1000
1000
,  // measure 81
0001
0100
0100
0001
0010
0001
0100
0100
,  // measure 82
1000
1000
0010
0100
1001
0000
0000
0000
,  // measure 83
1000
0000
1000
0000
0000
0000
0000
0100
0000
0000
0000
0000
1010
0000
0000
0000
,  // measure 84
1000
0100
0000
0010
0100
0010
0100
0000
,  // measure 85
0200
0000
0320
0000
0030
0000
0000
0100
0000
0001
0000
1000
0000
0000
1000
0000
,  // measure 86
0001
0000
0010
0000
0100
0000
0010
1000
0000
0000
1000
0001
0000
0000
0001
0000
,  // measure 87
0100
0010
0000
0000
0100
0000
0010
0000
1000
0000
0100
0000
0000
1000
0000
0010
,  // measure 88
0000
0001
0000
0000
0100
0000
0010
0000
0100
0000
1000
0001
0000
0010
0100
0000
,  // measure 89
0000
0010
0000
0001
1000
0000
0100
0000
1000
0000
0010
0100
0001
0000
0000
0001
,  // measure 90
0000
0100
0000
0010
1000
0000
0000
0100
1000
0000
0010
0000
1000
0000
0000
0010
,  // measure 91
0000
0001
0000
0100
0000
0010
1000
0000
0100
1000
0001
0000
0000
0001
0000
0100
,  // measure 92
0000
0010
1000
0000
0000
1000
0000
0100
0000
0000
0001
0000
0010
0000
1000
0000
,  // measure 93
0110
0000
0000
0000
1000
0000
0100
0000
0000
0100
0000
0000
0001
0000
0010
0000
,  // measure 94
1000
0000
0100
1000
0000
0000
0010
0000
0000
0001
1100
0000
0000
1000
0010
0000
,  // measure 95
0000
0100
0000
0000
1010
0000
0000
0001
0000
0100
0000
0000
1000
0010
0000
0000
,  // measure 96
0100
0010
0000
0000
0001
1000
0000
0000
1000
0010
0000
0000
0100
0010
0000
0001
,  // measure 97
1000
0000
0100
0000
0000
1000
0010
0000
0100
0000
0000
0010
0001
1000
0000
0000
,  // measure 98
0100
1000
0000
0000
0010
0100
0000
0000
0010
0001
1000
0000
0000
1000
0001
0100
,  // measure 99
0000
0010
0100
0000
1000
0000
0001
0000
0100
0000
0010
1000
0000
0100
0000
0000
,  // measure 100
1000
0001
0000
0000
0001
0000
0100
0000
0010
0000
0100
0000
1000
0000
0000
1000
,  // measure 101
0010
0000
0100
0000
0000
0010
0001
0000
1000
0000
0100
0000
2001
0000
0000
0000
,  // measure 102
0000
0001
0000
3001
,  // measure 103
2020
0000
3030
0000
0000
0000
0220
0000
0330
0000
0000
2002
0000
3003
0000
0000
,  // measure 104
0220
0000
0000
0330
,  // measure 105
1000
0000
1010
0000
0000
0100
0000
1000
,  // measure 106
0000
0010
0000
0100
0000
1000
0000
0000
,  // measure 107
0001
0011
0010
0110
,  // measure 108
2000
0000
0010
0010
3010
0000
0000
0000
,  // measure 109
0000
0000
0000
0000
0001
1000
0001
1000
,  // measure 110
0010
0100
0010
0100
0001
1000
0001
1000
,  // measure 111
0010
0000
0010
0100
1000
0001
0010
0001
,  // measure 112
0100
1000
0100
0001
0010
0001
1000
0100
,  // measure 113
1000
0010
0100
0001
1000
0010
0100
0001
,  // measure 114
1000
0010
1000
0100
0001
0010
0100
0001
,  // measure 115
1000
0000
1000
0100
0010
0100
0001
1000
,  // measure 116
0001
0010
0100
0010
1000
0100
1000
0001
,  // measure 117
0010
0100
0010
0100
1000
0001
1000
0001
,  // measure 118
0010
0100
0010
1000
0100
1000
0001
0010
,  // measure 119
0100
0010
0001
1000
0100
1000
0010
0100
,  // measure 120
0001
0010
0001
1000
0100
1000
0001
0100
,  // measure 121
0010
1000
0100
1000
0000
0000
2020
0000
,  // measure 122
0000
3030
0220
0000
0000
0000
0000
0330
,  // measure 123
0022
0000
0000
0000
0000
0033
2002
0000
,  // measure 124
0000
0000
0000
0000
,  // measure 125
0000
0000
0000
0000
,  // measure 126
3003
0000
0000
0000
;

//---------------dance-single - ----------------
#NOTES:
     dance-single:
     :
     Medium:
     14:
     0.775975,0.957147,0.535155,0.276497,0.098112,609.000000,549.000000,60.000000,31.000000,0.000000,0.000000,0.775975,0.957147,0.535155,0.276497,0.098112,609.000000,549.000000,60.000000,31.000000,0.000000,0.000000:
0000
0000
0000
0000
,
0000
0000
0000
0000
,
0000
0000
0000
0000
,
0000
0000
0000
0000
,
0000
0000
0000
0000
,
0000
0000
0000
0000
,
0010
0100
0000
0000
0000
0000
0001
1000
,
0000
1100
0100
0110
,
0010
0011
1000
1100
,
0010
0100
1100
1000
,
0011
0010
0100
2000
,
0001
0000
0001
3001
,
0000
0000
0010
0100
0010
0000
1000
0000
,
1100
0100
0010
0011
,
0100
0010
1000
0000
1100
0001
0000
0001
,
0100
0010
0000
1000
0000
1000
0001
0000
,
0002
1000
0000
1000
,
0000
0000
1003
0000
1000
0000
0100
0010
,
0100
0001
0000
1000
0100
1000
0010
0000
,
0011
0000
1000
0010
0100
0000
0010
1000
,
0100
1000
0001
0000
0010
0100
0011
0000
,
0000
0000
0000
0000
0000
1000
0000
0010
0000
0100
0000
0000
0000
0100
0000
0001
,
0000
0010
0000
0000
0000
0010
0000
1000
0000
0000
0000
1000
0000
0010
0000
0100
,
0000
0000
0000
0100
0000
0001
0000
0000
0000
0001
0000
1000
0000
0010
0000
0000
,
0000
0100
0000
0010
0000
0000
0000
0001
0000
1000
0000
0000
0000
1000
0000
0010
,
0000
0100
0000
0001
0010
0000
1000
0100
,
0000
0010
0100
0000
1000
0010
0000
0100
,
0010
0000
0001
1000
0000
0100
0010
0000
,
0100
0001
0000
0010
0100
0010
0100
0010
,
0000
0000
1100
0000
0010
0100
0010
0000
,
0001
1000
0100
0000
1000
0010
0000
0100
,
0001
0010
0000
1000
0100
0000
1000
0010
,
0100
0000
0100
0010
0001
1000
0100
0000
,
1000
0010
0100
0001
1000
0100
1000
0010
,
0100
0000
1000
0010
0100
0000
0002
0000
,
0003
1000
1100
0220
,
0330
0000
0001
0010
0001
0000
1000
0100
,
1000
0010
1010
1001
,
0000
0010
0010
0000
0100
0010
0100
0010
,
1000
0001
0100
0000
1100
0000
2020
0000
,
3030
0100
0010
0010
,
0002
0003
1000
0100
,
0020
0230
0300
0001
,
0002
0003
1000
1100
,
0000
0010
0100
0000
1000
0001
0010
0000
,
2000
0000
3000
0000
0010
0100
0002
0000
,
1003
0000
0010
0010
0000
0100
0000
1000
,
0100
1000
0100
0000
0001
0010
0001
0010
,
1000
0100
1000
0100
0000
0010
0100
0010
,
0100
0000
0001
1000
0001
1000
0000
0100
,
0010
1000
0000
1000
0001
0010
0100
0000
,
0100
0010
1000
0000
0101
1000
0000
0001
,
0000
0001
0000
0010
0100
0000
0010
1100
,
0000
1000
0010
0100
0000
0010
0001
0000
,
0100
1000
0000
1000
0010
0100
0000
0010
,
0100
0000
1000
0000
1100
0000
0000
0010
,
0100
0000
0010
1000
0000
1000
0002
0000
,
0003
0000
0010
0100
1000
0000
0000
1000
,
0100
0010
0001
0000
1000
0100
0000
0010
,
0100
0011
0010
0110
,
0100
1100
1000
1100
,
0100
0110
0010
0011
,
1000
1000
0000
0010
0100
0010
1000
0000
,
1000
0100
0001
0000
0110
0000
1000
0100
,
0000
0010
0001
1000
0100
0000
1000
0010
,
0100
0000
0100
0000
1001
0000
0000
0010
,
0000
1000
1100
0100
,
0110
0010
0011
0001
,
1001
0000
1000
0000
1100
0000
0000
0010
,
0010
0000
1000
0100
1000
0010
0100
0010
,
0000
0001
0000
0011
1000
0000
1100
0010
,
0000
0110
0001
0000
1001
0100
0000
0100
,
0010
1000
0001
0100
0000
1000
0010
0100
,
0002
0003
0000
0000
,
0000
0000
0010
0010
0010
0000
2002
3003
,
0000
0010
0100
0000
1000
0001
0010
0001
,
0000
0100
1000
0000
0010
0100
0000
0010
,
0001
1000
0200
0000
0310
0000
0000
0000
,
1001
1001
0110
0000
,
0000
1010
1010
0000
,
0010
1000
0100
1000
0010
0000
0001
1000
,
0000
0100
1000
0000
0010
0001
0000
0100
,
0010
1000
0000
0000
1001
0000
0000
0000
,
0100
0010
0100
0000
0000
0000
0110
0000
,
0000
0000
1000
0001
1000
0000
0000
0000
,
1000
0100
0010
0000
0001
0000
0100
1000
,
0010
0000
0100
0010
0000
0001
0100
1000
,
0000
0100
1000
0000
0010
0100
0000
0010
,
0001
1000
0000
1000
0010
0000
0100
0010
,
0000
0100
1000
0000
0001
1000
0000
0001
,
0000
0100
0010
1000
0000
0100
1000
0000
,
0010
0000
0010
0000
0100
1000
0001
0000
,
1000
0000
0100
0010
0100
0010
0000
0000
,
1001
0000
0100
0010
0000
1000
0100
0000
,
1000
0001
0100
0000
0010
0100
0000
1000
,
0001
0000
0100
0010
0100
0000
1000
0010
,
0000
0010
0000
1000
0010
0000
0100
0001
,
0000
1000
0010
0000
0100
0010
0000
0100
,
1000
0001
0000
0100
0001
0000
1000
0010
,
0100
0000
1000
0000
1000
0000
0010
0100
,
0000
1000
0001
0010
0000
0100
0000
0010
,
1000
0000
0100
1000
0000
0000
2001
0000
,
0000
0001
0000
3001
,
1100
0100
0110
0010
,
0022
0000
0000
0033
,
1100
0000
1000
0001
0000
0100
0020
0000
,
0000
0100
0000
0100
,
0000
0130
1100
0110
,
0002
0000
1000
1000
1003
0000
0000
0000
,
0000
0000
0000
0000
0000
0000
0100
0010
,
0100
0000
1000
0100
0000
0000
0010
0100
,
0000
0000
0100
1000
0010
0100
0000
0010
,
0001
0000
1000
0100
1000
0000
0001
0010
,
0001
0000
1000
0010
0100
0000
0010
1000
,
0100
0000
1000
0001
0000
0100
0010
0000
,
0100
1000
0000
0110
,
0000
0001
1000
0000
0010
0000
0000
0100
,
0010
0000
0100
0000
1000
0001
0000
0100
,
0000
0000
0010
0100
0000
0001
0010
0100
,
0000
0000
1000
0010
0000
0000
0001
0000
,
0100
0010
0000
0000
1000
0100
0000
0001
,
0000
0000
0010
0100
0010
0000
2002
0000
,
0000
3003
0000
0000
2020
0000
0000
0000
0000
3030
0000
0000
0220
0000
0000
0000
,
0000
0000
0000
0330
2002
0000
0000
0000
,
0000
0000
0000
0000
,
0000
0000
0000
0000
,
0000
3003
0000
0000
;

//---------------dance-single - ----------------
#NOTES:
     dance-single:
     :
     Easy:
     7:
     0.663847,0.900845,0.802733,0.214062,0.000000,521.000000,431.000000,90.000000,24.000000,0.000000,0.000000,0.663847,0.900845,0.802733,0.214062,0.000000,521.000000,431.000000,90.000000,24.000000,0.000000,0.000000:
0000
0000
0000
0000
,
0000
0000
0000
0000
,
0000
0000
0000
0000
,
0000
0000
0000
0000
,
0000
0000
0000
0000
,
0000
0000
0000
0000
,
0000
0000
0000
0000
,
0000
1100
0100
0110
,
0010
0011
1000
1000
,
1001
0010
0010
1010
,
0100
0010
2000
0000
,
0001
0000
0001
0000
,
3001
0000
1001
1001
,
0100
0110
0010
1000
,
0100
1001
0010
0100
,
0011
1000
1100
0010
,
2000
0000
0001
0000
,
0001
0001
3001
0110
,
1000
0100
1000
0010
,
0110
0000
0011
1000
,
1100
0010
1010
0200
,
0000
0300
0000
1000
0000
0001
0000
0010
,
0000
0100
0000
1000
0000
0010
0000
0100
,
0000
0010
0000
1000
0000
0001
0000
0100
,
0000
0010
0000
0001
0000
1000
0000
0010
,
0000
1001
0001
0110
,
1000
0101
0100
1010
,
0001
1100
0010
1001
,
0010
0110
1000
1010
,
0100
0101
0010
1000
,
0001
0100
0010
0010
,
1000
0100
1000
0001
,
0100
0100
0010
0001
,
1000
1000
0100
0010
,
0100
0010
1000
0002
,
0003
1000
0000
0110
,
0011
0000
0100
1000
,
0010
0110
0110
1100
,
0000
0011
0000
1000
,
0100
0000
1001
1000
,
1001
0000
0000
0100
0000
0000
0010
0000
,
0110
0000
0100
0000
0000
0001
0000
0000
,
1000
0000
1100
0000
0100
0000
0000
0010
,
0001
2000
3000
0110
,
0002
1003
1000
0100
,
2020
3030
0001
0220
,
0330
0000
0001
0010
,
0100
1000
1001
0010
,
0100
1100
0001
1000
,
0100
0001
0001
1000
,
0100
1000
0011
0000
,
0000
0010
1000
1000
,
0001
0100
1000
0010
,
0100
0010
0001
0100
,
0001
0001
1010
0100
,
0001
0110
0001
0100
,
1000
0100
0020
0030
,
0110
1000
0100
1010
,
0001
0110
0100
1010
,
0000
1100
0110
0011
,
1010
2200
3300
0011
,
0110
1100
1001
0010
,
0010
0100
1000
0001
,
0010
0100
0010
1000
,
1000
0001
0010
0100
,
0001
0100
1010
0001
,
0100
1001
0010
0110
,
1000
1100
0001
0011
,
0100
1010
0100
0001
,
0001
1000
1000
0010
,
1001
0010
0101
1000
,
0100
0010
0001
0010
,
0100
1000
0100
0010
,
0002
0003
0000
0000
,
0000
1000
1000
1000
,
0110
0001
0100
1000
,
0001
0001
0010
0001
,
0100
0010
0200
0300
,
0010
0100
0001
0010
,
0100
0100
0010
1000
,
0100
1001
0000
0001
,
0100
0010
0001
1000
,
1000
0020
0130
0001
,
0000
0100
0100
1001
,
0000
0001
0100
0010
,
1000
0000
1010
0000
0001
0000
0100
1000
,
0010
0000
0001
0010
0100
0000
0010
0000
,
0010
0000
1000
0001
0100
0000
1000
0000
,
0001
0000
0001
1000
0100
0000
0010
0000
,
0100
0000
1000
0010
1000
0000
0100
0000
,
1000
0000
0010
0001
0010
0000
0100
0000
,
0001
0100
0010
0000
1000
0000
0010
0000
,
1000
1000
1000
1000
,
0110
0000
1000
0000
0001
0010
1000
0100
,
1000
0000
0010
0000
0100
1000
0001
0000
,
1000
0010
0100
0000
0010
0000
0001
0100
,
0001
0000
1000
0000
0100
0001
0010
0000
,
0100
1000
0001
0000
0100
0000
0010
0000
,
1000
0010
1000
0000
0010
0000
0001
0000
,
0010
0000
0100
0000
1000
0010
1000
0000
,
0100
0010
0100
0010
,
0001
0001
1000
0100
,
0020
0000
0000
0130
,
1100
1010
0001
1000
,
0012
0000
0010
0013
,
1000
0100
1000
0010
,
0100
0100
0001
0001
,
1100
1010
0110
0001
,
0102
0000
0100
0103
,
0000
0000
0000
1100
,
0010
0001
0001
1000
,
0100
1000
0010
0100
,
0101
0010
0010
0000
,
1100
0100
0010
0011
,
1000
1100
0001
0100
,
0110
0000
0000
0001
0000
0000
1100
0000
,
0000
0010
1010
0000
,
0100
0110
0000
0001
,
1001
0200
0000
0310
,
1000
0101
0001
0010
,
1010
0100
0010
1000
,
1100
0010
0011
2000
,
0000
3000
0020
0000
0000
0000
0000
0030
,
0200
0000
0000
0300
0002
0000
0000
0000
,
0000
0000
0000
0000
,
0000
0000
0000
0000
,
0000
0003
0000
0000
;

//---------------dance-single - ----------------
#NOTES:
     dance-single:
     :
     Beginner:
     4:
     0.493107,0.675634,0.570832,0.160547,0.000000,387.000000,323.000000,64.000000,18.000000,0.000000,0.000000,0.493107,0.675634,0.570832,0.160547,0.000000,387.000000,323.000000,64.000000,18.000000,0.000000,0.000000:
0000
0000
0000
0000
,
0000
0000
0000
0000
,
0000
0000
0000
0000
,
0000
0000
0000
0000
,
0000
0000
0000
0000
,
0000
0000
0000
0000
,
0000
0000
0000
0000
,
0000
0001
0001
0010
,
0000
1000
0100
0010
,
0010
0100
0100
0001
,
0010
1000
0200
0000
,
0000
0000
0000
0000
,
0310
0000
1000
0100
,
0000
0010
0100
0000
,
0001
0000
0010
0100
,
0000
0001
1000
0001
,
0200
0000
0000
0000
,
0000
0300
1001
0000
,
0010
0110
0000
0100
,
1010
0000
0110
0001
,
1000
0000
0010
2002
,
3003
0000
0000
0001
0000
0100
0000
0010
,
0000
1000
0000
0000
0000
0100
0000
0010
,
0000
0100
0000
0001
0000
0000
0000
1000
,
0000
1000
0000
0010
0000
0100
0000
0010
,
0000
1100
0000
1010
,
0000
0110
0000
0101
,
0000
0011
0000
1001
,
0000
1100
0000
1000
,
1000
0110
0001
0010
,
0100
0010
1000
0100
,
1000
0000
1000
0001
,
0010
0100
0010
0000
,
0100
1000
0000
0010
,
0100
0000
1000
0002
,
0003
0100
0110
0000
,
1001
0010
0000
1010
,
0000
0100
0100
0011
,
0000
1000
0100
1000
,
0010
0000
0010
0001
,
1001
0000
0100
0110
,
0000
0010
0100
1010
,
0000
1100
0010
1000
,
0011
0000
1100
0010
,
0011
0000
0110
0000
,
1010
0000
1100
0000
,
1001
0010
0010
0010
,
0110
1000
0100
1000
,
0010
0100
0010
0001
,
0010
0001
0100
0010
,
0100
1000
0001
0010
,
0000
1000
1000
0001
,
0100
0100
0010
0001
,
0100
0010
1000
1000
,
0001
0010
0100
0000
,
0001
1000
0100
0000
,
1001
0010
0200
0300
,
1000
0011
0000
1010
,
0000
0110
0001
0101
,
0000
0000
1100
0100
,
0110
0010
0011
0001
,
1001
0000
0000
0010
,
0010
0100
1000
0001
,
0010
0100
0110
0000
,
1000
0110
0000
0001
,
0000
0100
1010
0000
,
0110
0000
1000
1100
,
0100
0110
0010
0011
,
1000
1100
0000
0010
,
0010
1000
0100
0000
,
1000
1100
0100
0110
,
0010
0011
0001
0000
,
0010
0100
0010
0000
,
2000
3000
0000
0000
,
0000
0010
0010
0010
,
0100
0010
0100
0000
,
0001
1000
0000
0010
,
0100
0000
1001
0000
,
0010
0110
0000
1100
,
0000
0001
0011
0000
,
1001
0000
0010
0000
,
0100
0010
0000
1000
,
0100
0020
0130
0000
,
0010
0010
0000
1001
,
0000
0100
0100
0000
,
0010
1000
0010
0100
,
0000
1000
0010
0001
,
0000
0100
0010
0000
,
0100
1000
0000
0010
,
0000
1000
0100
0000
,
0010
0100
0000
0010
,
0100
1000
0000
0100
,
0001
1000
0000
0010
,
0100
0000
0001
1000
,
0001
0000
0001
0000
,
0100
0010
0000
0100
,
0000
1000
0010
0000
,
0100
0010
0000
0001
,
0100
0000
1000
0010
,
0000
0100
0010
0000
,
0100
1000
0001
0000
,
0010
0100
0000
2002
,
0000
0000
3003
0000
,
0011
0010
0110
0200
,
0000
0000
0000
0300
,
0010
0100
0000
2000
,
0010
0000
0010
0000
,
3010
0001
0110
0100
,
2200
0000
0000
3300
0010
0000
0010
0000
,
0000
0000
0000
0110
,
0000
0010
0001
0000
,
1000
0100
0000
0010
,
1000
0000
1001
0000
,
0000
0010
0100
0000
,
0010
1000
0000
0100
,
0100
0000
0110
0001
,
0000
1000
0010
0000
,
0100
0010
0000
1000
,
1000
0001
0000
0110
,
0000
1000
0010
0000
,
0100
0001
0000
1000
,
0010
0010
0200
0000
,
0300
0002
0000
0003
,
2000
0000
0000
3000
0020
0000
0000
0000
,
0000
0000
0000
0000
,
0000
0000
0000
0000
,
0000
0030
0000
0000
;
