#VERSION:0.83;
#TITLE:Rosetta Stone;
#SUBTITLE:;
#ARTIST:TAG;
#TITLETRANSLIT:;
#SUBTITLETRANSLIT:;
#ARTISTTRANSLIT:;
#GENRE:;
#ORIGIN:;
#CREDIT:PaperBox440;
#BANNER:Rosetta Stone.png;
#BACKGROUND:Rosetta Stone-BG.png;
#PREVIEWVID:;
#JACKET:Rosetta Stone-jacket.png;
#CDIMAGE:;
#DISCIMAGE:;
#LYRICSPATH:;
#CDTITLE:cdtitle.png;
#MUSIC:Rosetta Stone.mp3;
#OFFSET:0.000000;
#SAMPLESTART:81.401787;
#SAMPLELENGTH:12.562500;
#SELECTABLE:YES;
#BPMS:0.000=140.000,
4.000=160.000;
#STOPS:;
#DELAYS:;
#WARPS:;
#TIMESIGNATURES:0.000=4=4;
#TICKCOUNTS:0.000=4;
#COMBOS:0.000=1;
#SPEEDS:0.000=1.000=0.000=0;
#SCROLLS:0.000=1.000;
#FAKES:;
#LABELS:0.000=Song Start;
#BGCHANGES:;
#KEYSOUNDS:;
#ATTACKS:
;

//---------------dance-single - ----------------
#NOTEDATA:;
#CHARTNAME:;
#STEPSTYPE:dance-single;
#DESCRIPTION:;
#CHARTSTYLE:;
#DIFFICULTY:Hard;
#METER:14;
#RADARVALUES:0.728728,0.907819,0.436997,0.268921,0.554650,607.000000,555.000000,52.000000,32.000000,0.000000,1.000000,0.000000,0.000000,0.000000,0.728728,0.907819,0.436997,0.268921,0.554650,607.000000,555.000000,52.000000,32.000000,0.000000,1.000000,0.000000,0.000000,0.000000;
#CREDIT:;
#NOTES:
0000
0000
0000
0000
,
0000
0000
0000
0000
,
0110
1000
1001
0001
0100
0010
1000
0000
,
1001
0100
0010
0001
1000
1000
0110
0000
,
1010
0100
0001
0001
0100
1000
0110
0000
,
1001
0000
0100
0010
0001
1000
0001
1000
,
0010
0100
0010
0001
1000
0100
0010
1000
,
0100
1000
0001
0010
0001
1000
0100
1000
,
0010
0100
0010
0001
1000
0010
0100
0000
,
0110
0000
0000
0000
1000
0000
0100
0010
0001
0000
1000
0000
0100
0000
0000
1000
,
0010
0000
0001
0000
1000
0000
0000
0010
0100
0000
0010
0000
1000
0000
0000
0100
,
1000
0000
0000
0001
0100
0000
0010
0000
1000
0100
0000
0001
0010
0000
1000
0000
,
0100
0000
0010
0000
0001
0000
0000
0100
1000
0000
0010
0000
0100
0010
0000
0000
,
1001
0000
0000
0100
1000
0000
0001
0000
0010
0000
0100
0000
0010
0000
0001
0000
,
1000
0100
0000
0000
0010
0001
1000
0000
0100
0000
1000
0000
0010
0100
0001
0000
,
0000
0010
1000
0000
0010
0001
0100
0000
0000
0100
0010
0000
1000
0000
0001
0100
,
0001
0000
0000
0000
1000
0001
0010
0000
0100
0010
0000
0000
2000
0000
3002
0000
,
0123
0030
0200
0001
0010
1000
0320
0001
,
1000
1000
0030
0001
0210
1300
0001
0001
,
1000
0100
1000
0010
2010
3000
0210
0000
,
0320
0032
0023
0030
0110
0001
1000
0100
,
0010
0010
2100
0000
0000
3100
0200
0000
,
0000
0300
0011
0001
1000
0100
1000
0210
,
0010
0001
0310
1000
0120
0001
1000
0130
,
1000
0002
0023
0030
0200
0300
2000
0000
,
0020
3030
0000
0010
0100
1000
1001
0100
,
0010
0000
0100
0001
0100
1000
0000
0000
1010
0000
0100
0000
0000
0010
0100
0010
,
0000
0000
0000
0100
0000
0000
0010
0010
,
0000
0000
1000
0000
0000
0000
1001
0000
0000
0000
0010
0000
0010
0100
1000
0000
,
0000
0000
0000
0000
0000
0000
0000
1000
0000
0000
0100
0000
0110
0000
0000
0000
,
0000
0000
0000
0000
0010
1010
0000
0100
,
0100
0000
0100
0000
0010
0001
0010
0000
0000
0000
0100
0000
0110
0000
0220
0000
,
0330
0000
0000
0000
,
1000
0010
0100
0000
0001
0010
0100
0000
0000
0000
0000
1000
0010
0100
0000
0000
,
0000
0000
0100
0010
1000
0000
0001
0010
0100
0000
0100
0000
0010
0100
0000
1000
,
0100
0000
0000
0000
0010
0100
0001
0000
0000
0000
0000
1000
0100
0010
0000
0000
,
0000
0010
0100
0001
0000
0000
0000
1000
0010
0100
0000
0220
0330
0000
0000
0000
,
1000
0001
0010
0000
0000
0000
0100
0010
1000
0000
0000
0100
0001
0010
0000
0000
,
0000
1000
0001
0010
0000
0000
0100
0000
0000
0000
0100
0000
0000
0000
0110
0000
,
0001
1000
0100
0100
0010
0001
1000
0010
,
0020
0030
2000
0000
,
3020
0000
0030
0001
1000
0100
0010
0001
,
1000
0100
1000
0000
0100
0000
0100
0000
,
0100
0010
0110
0001
,
1000
1000
1001
0000
,
0110
0000
0000
1000
0010
0001
0100
1000
0010
0001
0100
1000
0010
0001
0000
0100
,
1000
0001
0010
0000
0100
0001
1000
0010
0100
0001
1000
0000
0010
0100
0001
1000
,
0000
0010
0100
0001
1000
0010
0000
0000
0100
0010
1000
0001
0000
0100
0010
1000
,
0000
0100
1000
0001
0000
0010
0001
1000
0010
0000
0100
0001
1000
0010
0100
0000
,
1001
0000
0100
0000
0010
0100
0001
0000
1001
0000
0100
0010
1000
0001
0100
0000
,
1001
0000
0010
0100
0000
0010
1000
0000
1001
0000
0100
0010
0001
1000
0000
0000
,
0110
0000
0001
0000
1000
0010
0100
0000
0001
1000
0010
0000
0100
0000
0010
0000
,
1000
0100
1001
0000
0100
0010
0100
0010
0001
1000
0100
1000
0010
0000
0100
0000
,
2002
0000
0000
0000
0000
0000
3003
0110
,
0000
0000
1000
0000
1100
0010
0000
1010
,
0100
0000
0100
0010
0001
0000
0010
0100
0010
0000
1000
0000
0100
0000
1000
0001
,
0000
0000
0001
1000
0010
0100
0010
0000
0001
1000
0010
0000
0100
0000
0010
0001
,
0000
0001
1000
0000
0100
1000
0010
0000
0100
0010
0000
0001
1000
0010
0000
0100
,
0010
0000
1000
0001
0100
0010
0000
0010
1000
0000
0001
0010
0100
0000
0100
0000
,
1001
0000
0100
0000
0010
0001
0100
0000
0100
0010
0000
1000
0001
0100
0010
0000
,
0100
1000
0001
0000
0010
0001
1000
0000
0100
1000
0010
0000
0000
0010
0001
1000
,
0100
1000
0000
0010
0100
0000
0001
0000
0001
1000
0000
0100
1000
0010
0100
0000
,
1001
0000
0001
0000
0000
0001
0010
0100
0000
0000
0100
0000
0100
0000
0000
0000
,
1000
0000
1010
0110
0000
0000
0010
0100
,
0020
0000
1000
0030
,
1100
0010
0010
1000
0110
0001
0001
1000
,
0011
1000
0100
0100
1010
0001
0001
1000
,
0110
0001
0010
0100
1001
0010
0100
0001
,
1010
0100
0001
0001
0110
0001
1000
0100
,
1000
0000
0010
0000
0100
1000
0100
0000
0010
0000
0001
0000
1000
0000
0100
0000
,
0010
0000
0010
0000
1000
0001
0100
0000
1000
0000
0001
0100
0001
0000
0010
0000
,
0001
0000
0100
1000
0100
0000
0010
0000
1000
0100
1000
0000
0010
0000
0000
0000
,
0100
0010
1000
0001
0010
0100
0000
0010
0200
0000
0000
0000
0000
0000
0000
0000
,
0310
0000
0001
0100
0010
1000
0001
0000
0200
0000
0000
0000
0000
0000
0000
0000
,
0000
0000
0310
0000
;

//---------------dance-single - ----------------
#NOTEDATA:;
#CHARTNAME:;
#STEPSTYPE:dance-single;
#DESCRIPTION:;
#CHARTSTYLE:;
#DIFFICULTY:Challenge;
#METER:17;
#RADARVALUES:0.913611,1.095643,0.571457,0.327748,1.063079,761.000000,693.000000,68.000000,39.000000,0.000000,0.000000,0.000000,0.000000,0.000000,0.913611,1.095643,0.571457,0.327748,1.063079,761.000000,693.000000,68.000000,39.000000,0.000000,0.000000,0.000000,0.000000,0.000000;
#CREDIT:;
#NOTES:
0000
0000
0000
0000
,
0100
0000
0010
0000
0100
0000
0010
0001
0010
0000
1000
0000
0100
0010
1000
0000
,
0001
0000
0001
0000
0010
0000
0100
0000
0010
0000
1000
0001
1000
0000
0100
0000
,
0002
0013
0100
0010
1000
1000
0101
0010
,
1100
0010
0001
1000
0100
0100
1001
0010
,
0110
0000
0001
0000
1000
0010
0100
0000
1000
0010
0001
0000
0100
0000
0010
0001
,
1000
0000
0100
0000
1000
0000
0011
0000
0100
1000
0010
0000
0100
0001
1000
0010
,
1000
0000
0001
1000
0010
0000
0100
0000
0010
0001
0010
0000
1000
0100
1000
0000
,
0110
0000
0000
0000
1010
0000
0001
0100
0010
0000
0100
0000
0010
0100
0010
0000
,
1001
0000
0000
0000
0010
0100
0100
0001
1000
0100
1000
0010
0100
0001
0000
0001
,
0010
1000
0100
0000
1000
0010
1010
0000
0100
0001
0010
0100
0001
1000
0000
0100
,
0010
0100
0010
0001
0000
1001
1000
0010
0100
0000
0010
1000
0001
0000
0010
0100
,
0000
0001
0100
0010
0000
0001
0010
0001
1000
0100
0010
0000
1000
0010
0100
0000
,
0001
0100
0010
0000
0001
0010
1000
0000
0010
0001
0100
1000
0010
0000
1000
0010
,
0100
0000
0001
1000
0100
0000
0010
0001
1000
0010
0100
0000
1000
0010
0000
0100
,
0001
0000
0000
0000
0000
0000
0010
0000
1000
0010
0000
0000
0100
0000
0000
0000
0000
0000
1000
0000
0000
0001
0000
0000
0010
0000
0000
0000
0000
0000
0100
0000
0000
0100
0000
0000
1000
0000
0000
0000
0001
0000
0010
0000
0000
0000
0000
0000
,
0100
0010
0000
0001
1000
0100
0010
0000
0001
0000
0100
0000
0001
0000
0000
1000
,
2000
3020
0230
0300
0000
0001
0100
0010
0001
1000
0100
0000
1020
0000
0230
0000
,
0300
1000
0010
0010
0100
0001
1000
0010
0001
0100
0000
0010
1000
0100
1000
0000
,
0010
0010
0001
0100
0100
0010
1000
0000
0100
1000
0001
0011
0000
0100
0010
1000
,
0100
0000
0001
0001
0100
0010
1000
0100
0010
1000
0000
0100
1000
0001
0001
0000
,
0200
0320
2030
3000
0000
0000
0100
0010
0001
1000
0100
1000
0010
0200
0300
0000
,
0200
0000
0000
0300
0000
0000
0000
0000
0011
0000
0000
0000
0010
0000
0000
0000
0000
0000
1100
0000
0000
0000
0000
0000
1000
0000
0000
0001
0000
0000
0010
0000
0000
0000
0000
0000
0001
0000
0000
0000
0000
0000
0100
0000
0000
1000
0000
0000
,
0100
0010
0010
0000
1000
0001
1000
0000
0020
0000
0030
0000
1010
0100
0010
0001
,
0000
0001
1000
0100
1000
0001
0010
0010
0001
0100
0020
0000
1030
0100
1000
0000
,
0220
0330
0000
0000
0000
0000
0000
0000
1000
0000
0100
0000
1100
0000
0000
0000
,
0000
0000
0000
0000
1010
0010
0000
0000
,
0100
0001
0010
0000
0000
0000
0000
0000
1000
0000
1000
0000
0110
0000
0000
0000
,
1001
0000
0000
0000
0010
0000
0000
0000
0100
0000
0000
0000
0100
0010
0100
0000
,
0000
0000
0000
0000
0010
0100
0200
0000
,
0000
0300
0010
0010
,
1000
1000
1000
0010
0100
0100
0011
0011
,
0000
0000
0000
0000
0010
0100
0010
0000
0000
0100
0000
0000
1000
0010
0100
0000
,
0000
0000
0000
0000
0010
0100
0001
0000
0000
0000
0000
1000
0010
0100
0000
0000
,
0001
0010
0100
0000
0000
0000
1000
0000
1000
0000
0100
0000
0100
0000
0010
0001
,
0100
0000
0000
0000
0000
1000
0010
0100
0000
0000
0000
0000
0010
0001
0100
0000
,
0000
1000
0010
0100
0000
0000
0001
0000
1001
0000
0100
0000
0000
0010
0100
0001
,
0000
0000
0000
0000
1000
0010
0100
0000
0000
0000
0000
0001
0010
1000
0000
0000
,
0100
0010
0100
0000
0000
0000
0001
0000
0001
0000
0010
0000
0110
0000
0000
0000
,
0201
0000
0310
0000
2100
3000
0012
0003
0120
0000
0030
0000
1100
0000
2020
0000
,
0000
0000
0000
0000
0000
0000
0000
3030
0220
0000
0000
0000
0330
0000
0202
0000
,
0000
0000
0000
0000
,
0000
0000
0303
0100
,
0100
0100
0110
0010
,
0010
1000
1001
0000
,
0110
0000
1000
0100
0010
0100
0001
0010
0100
0010
1000
0000
0100
1000
0001
0010
,
0100
0010
0001
1000
0001
1000
0100
0000
0010
0100
0001
1000
0100
1000
0010
0000
,
0001
0010
0100
0010
0100
1000
0100
1000
0001
0010
0100
0010
0001
0010
1000
0001
,
1000
0100
1000
0010
0100
0001
0010
0001
1000
0100
1000
0100
1000
0000
0110
0000
,
0000
0001
0010
0001
0100
0010
0100
0000
1001
0000
0100
0010
0100
0000
0010
0000
,
1010
0000
0000
0100
0010
0100
0001
0000
1001
0000
0100
0000
0110
0000
0001
0010
,
1100
0000
1000
0100
1001
0010
0001
0100
0011
0000
0100
0010
0101
0000
0010
1000
,
0110
0000
1000
0001
1010
0000
0100
0010
1100
0000
0011
0000
0110
0000
1100
0000
,
2002
0000
0000
0000
0000
0000
0000
3000
,
1003
0000
0000
0000
0100
0000
0000
0010
0100
0000
0010
0000
0001
0000
0100
0000
,
0010
0100
0010
1000
0001
0010
0001
0010
1001
0100
1000
0001
0010
0001
0100
0010
,
0001
0000
0101
1000
0000
0001
0010
0010
0000
1000
0100
1000
0010
0100
0000
0000
,
0011
0001
0000
1000
0100
0000
1000
0010
0100
0010
0001
0000
1100
1000
0010
0000
,
0100
0100
0010
0000
0010
0001
1000
0000
0100
1000
0010
0000
0200
0000
0300
0110
,
1000
0001
0000
0010
0001
0100
0000
1000
0110
0000
0100
0010
0001
1000
0100
1000
,
0100
0011
0000
0100
0010
1000
0100
1000
0010
0010
0001
0010
0001
0100
0010
0100
,
1000
0000
0100
0001
0010
0100
0010
0001
1000
0100
1000
0010
0001
0010
0100
1000
,
0100
0010
0001
1000
0200
0000
0000
0000
0310
0000
0010
0000
0000
0000
0000
0000
,
1100
0000
1000
0000
1010
0000
0000
0000
0000
0000
1000
0100
1000
0000
0001
0000
,
0010
0100
0000
0010
0000
0000
0000
0000
1020
0000
0000
0001
1000
0100
1000
0000
,
0230
0010
0000
0000
0001
1000
0010
0000
0302
0100
0000
0000
0100
1000
0000
0010
,
0103
0001
1000
0000
0100
0000
1000
0000
0021
0000
0031
0000
2100
0000
0010
0000
,
0010
0000
0100
0000
3000
0010
0001
0000
0020
0100
0000
0001
1000
0000
0100
0000
,
0130
0000
0010
0000
0010
1000
0100
1000
0011
0000
0100
0010
1000
1000
0001
0110
,
0000
0100
0001
0010
1000
0010
1100
0000
1000
0010
0100
0010
0001
0001
1000
0100
,
1000
0010
0100
0001
0010
0001
1000
0000
0100
0010
0011
0000
1000
0001
1000
0010
,
0100
0010
0001
1000
1000
0100
1000
0001
0010
0001
0100
0010
0100
0000
0000
0000
,
1000
0001
1000
0001
1000
0001
0000
0000
0220
0000
0000
0000
0000
0000
0000
0000
,
0330
0010
1000
0001
0100
0010
0010
1000
0200
0000
0000
0000
0000
0000
0000
0000
,
0000
0000
0310
0000
;

//---------------dance-single - ----------------
#NOTEDATA:;
#CHARTNAME:;
#STEPSTYPE:dance-single;
#DESCRIPTION:;
#CHARTSTYLE:;
#DIFFICULTY:Medium;
#METER:11;
#RADARVALUES:0.558251,0.688690,0.268921,0.218498,0.016808,465.000000,433.000000,32.000000,26.000000,0.000000,1.000000,0.000000,0.000000,0.000000,0.558251,0.688690,0.268921,0.218498,0.016808,465.000000,433.000000,32.000000,26.000000,0.000000,1.000000,0.000000,0.000000,0.000000;
#CREDIT:;
#NOTES:
0000
0000
0000
0000
,
0000
0000
0000
0000
,
0110
1000
0100
1000
0010
0100
0010
0100
,
1001
0010
0100
0010
0100
0010
1001
0000
,
0110
0000
0010
0100
0010
0100
0010
0100
,
1001
0100
0001
0010
1000
0100
0010
0100
,
0001
0010
0100
0010
1000
0100
1000
0001
,
1000
0001
0010
0100
1010
0001
1000
0100
,
0010
0100
1000
0010
0100
0010
0001
0000
,
0110
0000
1000
0100
0001
0010
1000
0100
,
0001
0100
0010
1000
0001
0100
0001
1000
,
0010
0001
0100
1000
0010
0100
0001
1000
,
0010
0001
0100
1000
0010
0100
0001
1000
,
0110
0000
0001
1000
0010
0100
0001
1000
,
0010
0001
0100
1000
0001
0100
0010
1000
,
0001
0010
1000
0100
0001
0010
1000
0001
,
0100
1000
0010
0001
0100
0010
1000
1000
,
2002
3003
0100
0010
0010
0100
0001
1000
,
0010
0100
0100
0000
0010
1000
0100
0000
,
1000
0001
0100
0010
0010
1000
0100
1000
,
0001
0010
0001
0000
1000
0010
0100
0010
,
0000
1000
0001
0001
0100
0010
0100
1000
,
2000
3000
0010
1000
0100
1000
0001
0100
,
0010
0000
1000
0001
0100
0010
0010
1000
,
0100
1000
0010
0001
0001
0100
1000
0000
,
0110
0000
0010
0010
,
0000
0000
1001
0001
,
0010
0010
0000
0000
0100
0000
0100
0100
,
0000
0010
0001
0000
0001
0000
1001
1001
,
0000
0000
0000
0000
0010
0010
0110
0000
,
0000
0000
0000
0000
0100
0100
0000
0000
,
0010
0000
0010
0000
0001
0000
0001
0000
1000
0010
1000
0000
0100
0000
0200
0000
,
0000
0000
0000
0300
,
0100
0010
0000
0001
1000
0000
0100
0010
,
0000
0001
1000
0000
0100
0100
1001
0010
,
0100
0000
0000
1000
0001
0000
0100
1000
,
0000
0010
0001
0100
0110
0000
0000
0000
,
0010
0100
0000
1000
0001
0000
0100
1000
,
0000
0010
0001
0000
0100
0100
0100
0001
,
0010
0100
1000
0100
0010
0001
0010
0200
,
0320
0000
0000
0000
2030
0000
0000
3000
,
0002
0000
1003
0010
,
0001
0010
0100
1000
,
0100
0010
1001
0010
,
0100
1000
1001
0000
,
0110
0000
0100
1000
0001
0100
0010
1000
,
0001
0100
0010
0001
1000
0010
0100
0001
,
1000
0010
0001
0100
1000
0010
0001
0100
,
1000
0100
0010
0001
0100
1000
0010
0010
,
1001
0010
0100
0010
1100
0000
0010
0100
,
0011
0000
1000
0010
1100
0001
0010
0000
,
0110
0000
1000
0000
1000
0000
0001
0010
0001
0000
0100
0000
0010
0000
0100
0000
,
0100
0000
1000
0010
1000
0000
0001
0000
0001
0000
0010
1000
0010
0000
0100
0000
,
2002
0000
0000
0000
,
3003
0000
1000
0000
1100
0010
0000
1010
,
0000
0010
0100
1000
0001
0100
0010
0100
,
0010
0010
0001
0100
0100
1000
0001
0010
,
0100
0010
1000
1000
0001
0010
0100
0010
,
0001
1000
0100
0100
0010
0010
0000
0100
,
2002
3003
0010
1000
0100
1000
0010
0010
,
0100
0010
0001
1000
0100
0010
0100
0010
,
0001
0001
1000
0100
1000
0010
0010
0100
,
2002
3003
0000
1000
0010
0100
0010
0000
,
1001
1000
1001
0000
1001
0000
0020
0230
,
0000
0320
0000
0032
,
0000
0000
2003
0000
,
3020
0000
0200
0302
,
0033
1000
0100
1000
0001
0010
0100
0000
,
0010
0100
0010
0200
0000
0300
1000
0010
,
0100
0100
1000
1000
0010
0001
0000
0100
,
0010
1000
0100
1000
0010
0001
0100
0000
,
0020
0000
0000
0030
,
1000
0001
1000
0001
2000
0000
0000
3000
,
0010
0010
0100
0010
0200
0000
0000
0000
,
0000
0000
0310
0000
;

//---------------dance-single - ----------------
#NOTEDATA:;
#CHARTNAME:;
#STEPSTYPE:dance-single;
#DESCRIPTION:;
#CHARTSTYLE:;
#DIFFICULTY:Easy;
#METER:7;
#RADARVALUES:0.410585,0.594778,0.268921,0.226902,0.000000,342.000000,310.000000,32.000000,27.000000,0.000000,0.000000,0.000000,0.000000,0.000000,0.410585,0.594778,0.268921,0.226902,0.000000,342.000000,310.000000,32.000000,27.000000,0.000000,0.000000,0.000000,0.000000,0.000000;
#CREDIT:;
#NOTES:
0000
0000
0000
0000
,
0000
0000
0000
0000
,
0110
1000
0100
0001
,
1001
0100
0010
0110
,
1001
0010
0100
1000
,
1001
0001
0100
1000
,
0010
0100
0001
0010
,
0100
1000
0010
0100
,
0010
0001
0100
1000
,
0110
0000
0001
1000
0010
0100
0000
0001
,
0100
0010
1000
0000
0100
0010
0001
1000
,
0010
0100
0001
1000
0010
0001
0100
1000
,
0010
0001
0100
1000
0000
0010
0100
0000
,
1001
0000
0010
1000
0100
0001
0010
1000
,
0001
0100
0010
1000
0001
0100
1000
0010
,
0001
1000
0100
0001
0010
1000
0001
0100
,
0000
0010
0001
0100
1000
0000
0020
0000
,
0130
1000
0010
0001
,
1000
0100
1000
0010
,
0001
0000
0100
0010
0100
0000
0010
0000
,
1000
0100
1000
0010
0001
0000
0001
0000
,
0220
0330
1000
0000
1000
0000
0010
0000
,
0100
1000
0010
0100
,
0010
0000
0001
0010
0001
0000
0100
0000
,
1000
0000
0010
0100
0010
0000
0100
0000
,
1001
0000
0010
0110
,
0000
0000
0000
0000
0100
0000
0100
0010
,
0010
0000
0000
0000
1000
0000
0001
0001
,
0100
0000
0010
0000
0010
0000
0010
0010
,
0000
0000
1000
1001
,
0000
0000
0000
0000
0100
0000
0100
0010
,
0010
0001
0001
0100
0100
0000
1000
0000
,
2002
0000
0000
0000
3003
0000
0000
1000
,
0001
0000
0010
0100
0000
0001
0010
0000
,
1000
0100
0000
0010
0010
1000
1000
0001
,
0010
0000
1000
0100
0000
0010
0100
0000
,
0001
1000
0000
0100
0220
0000
0330
0000
,
0001
1000
0000
0100
0010
0000
0001
1000
,
0000
0010
0100
0000
1000
0100
1000
0000
,
1100
0000
0110
0000
0011
0000
0001
0010
,
0002
0000
2003
0000
,
3020
0100
0100
0100
,
0130
1000
1000
1000
,
0100
0100
0110
0001
,
0001
0001
1001
0000
,
0110
1000
0010
0100
,
0010
0001
0100
1000
,
1000
0010
0010
0100
,
1000
0000
0010
0000
0100
0000
0001
0010
,
1001
0100
0110
0001
,
1001
0100
1100
0010
,
0011
0110
1100
1000
,
1010
0001
0010
0100
0110
0001
0010
0100
,
2002
0000
0000
3003
,
0000
0000
1000
0000
1100
0010
0000
0011
,
0100
0010
1000
0100
,
1000
0001
0010
0010
,
0100
0010
0100
0000
1000
0000
1000
0001
,
0010
0000
0001
0100
0010
0000
0200
0000
,
0300
1000
0100
0010
,
0100
0001
0010
1000
,
0100
0000
1000
0010
0100
0000
0010
0010
,
0200
0000
0000
0000
0000
0000
0000
0300
,
0010
0010
1010
0000
0000
0000
0010
0200
,
0000
0000
0000
0300
0020
0000
0000
0000
,
0032
0000
2003
0000
,
0000
0000
3020
0000
,
0230
0000
0320
0000
,
2030
0000
3002
0000
,
0203
0000
0310
0001
,
0001
0010
0100
0010
,
1000
2000
0000
3000
,
0001
0010
0100
1000
0020
0000
0000
0030
,
0100
0010
0100
0010
0200
0000
0000
0000
,
0000
0000
0310
0000
;

//---------------dance-single - ----------------
#NOTEDATA:;
#CHARTNAME:;
#STEPSTYPE:dance-single;
#DESCRIPTION:;
#CHARTSTYLE:;
#DIFFICULTY:Beginner;
#METER:3;
#RADARVALUES:0.318143,0.406953,0.193287,0.176479,0.000000,265.000000,242.000000,23.000000,21.000000,0.000000,0.000000,0.000000,0.000000,0.000000,0.318143,0.406953,0.193287,0.176479,0.000000,265.000000,242.000000,23.000000,21.000000,0.000000,0.000000,0.000000,0.000000,0.000000;
#CREDIT:;
#NOTES:
// measure 0
0000
0000
0000
0000
,  // measure 1
0000
0000
0000
0000
,  // measure 2
1001
0100
0010
0100
,  // measure 3
1001
0010
0001
0110
,  // measure 4
0110
1000
0100
0010
,  // measure 5
1001
0010
0100
1000
,  // measure 6
0100
0010
0001
0010
,  // measure 7
0100
1000
0100
0010
,  // measure 8
0001
0010
0100
1000
,  // measure 9
0110
0001
0001
1000
,  // measure 10
1000
0010
0010
0100
,  // measure 11
0100
0001
0001
0010
,  // measure 12
0010
1000
1000
0100
,  // measure 13
0110
0001
0001
1000
,  // measure 14
1000
0100
0100
0010
,  // measure 15
0010
0001
0001
0010
,  // measure 16
0010
0100
0100
1000
,  // measure 17
1001
0010
0100
0020
,  // measure 18
0000
0030
0100
0100
,  // measure 19
0001
1000
0100
1000
,  // measure 20
0010
0100
0200
0300
,  // measure 21
1001
0010
0010
1000
,  // measure 22
0100
1000
0001
0100
,  // measure 23
0100
0010
0020
0030
,  // measure 24
1000
1000
0100
0100
,  // measure 25
1001
0000
0010
0010
,  // measure 26
0000
0000
0100
0010
,  // measure 27
1000
1000
0000
0000
0100
0000
0010
0000
,  // measure 28
0010
0001
0010
0100
,  // measure 29
0100
0000
1000
1001
,  // measure 30
0000
0000
1000
1000
,  // measure 31
0010
0100
0010
1000
,  // measure 32
1001
0000
0000
0000
,  // measure 33
0001
0010
0000
0100
,  // measure 34
1000
0000
0010
0010
,  // measure 35
0001
1000
0000
0100
,  // measure 36
0010
0001
0001
0000
,  // measure 37
1000
0100
0000
0010
,  // measure 38
0001
0000
1000
1000
,  // measure 39
0100
0100
0100
0010
,  // measure 40
0020
0030
0002
0000
,  // measure 41
2003
0000
0000
0000
,  // measure 42
0010
0000
0010
0000
,  // measure 43
3010
0000
0110
0000
,  // measure 44
1000
0000
1001
0000
,  // measure 45
0110
1000
0100
0010
,  // measure 46
0001
0010
0100
1000
,  // measure 47
0100
0010
0001
0010
,  // measure 48
0100
1000
0100
0010
,  // measure 49
0001
0010
0100
0010
,  // measure 50
0100
1000
1000
0001
,  // measure 51
0010
0100
0001
0001
,  // measure 52
0010
0010
1000
0100
,  // measure 53
2000
0000
0000
0000
,  // measure 54
3000
1000
1001
0110
,  // measure 55
1000
1000
0010
0010
,  // measure 56
0001
1000
1000
0010
,  // measure 57
0100
0010
0100
0001
,  // measure 58
0100
0010
1001
0100
,  // measure 59
1000
0010
0010
0001
,  // measure 60
0100
0010
1000
0001
,  // measure 61
1000
0010
0100
0001
,  // measure 62
0001
0010
0200
0300
,  // measure 63
1001
1001
1001
0000
,  // measure 64
0010
0100
2000
0000
,  // measure 65
3200
0000
0320
0000
,  // measure 66
0032
0000
2003
0000
,  // measure 67
3200
0000
0320
0000
,  // measure 68
0032
0000
0003
0010
,  // measure 69
1000
0100
1000
0001
,  // measure 70
0010
0100
0010
0010
,  // measure 71
1000
1000
0220
0330
,  // measure 72
0010
0100
0010
0000
2002
0000
3003
0000
,  // measure 73
0010
0100
0200
0000
,  // measure 74
0000
0000
0310
0000
;
