#TITLE:Romi to robo no uchuuhikou;
#SUBTITLE:;
#ARTIST:onoken;
#TITLETRANSLIT:;
#SUBTITLETRANSLIT:;
#ARTISTTRANSLIT:;
#GENRE:;
#CREDIT:PaperBox440;
#BANNER:Romi to robo no uchuuhikou.png;
#BACKGROUND:Romi to robo no uchuuhikou-bg.png;
#LYRICSPATH:;
#CDTITLE:;
#MUSIC:Romi to robo no uchuuhikou.mp3;
#OFFSET:0.000000;
#SAMPLESTART:47.441864;
#SAMPLELENGTH:12.558140;
#SELECTABLE:YES;
#BPMS:0.000000=172.000000
;
#STOPS:
;
#BGCHANGES:;
#KEYSOUNDS:;
#ATTACKS:;

//---------------dance-single - ----------------
#NOTES:
     dance-single:
     :
     Hard:
     13:
     0.600568,0.599374,0.630212,0.184452,0.257465,547.000000,465.000000,82.000000,24.000000,0.000000,0.000000,0.600568,0.599374,0.630212,0.184452,0.257465,547.000000,465.000000,82.000000,24.000000,0.000000,0.000000:
0000
0000
0000
0000
0000
0000
1000
1000
,
0001
1000
0000
0100
0010
0000
0110
0000
,
1000
0000
1001
0000
0010
0100
0010
0000
,
1000
0000
0000
0100
0010
0100
0010
0000
,
0001
0000
1000
0000
0001
0001
0000
1001
,
0000
0000
0000
0100
0010
0000
0001
1000
,
1000
0000
0000
0001
0010
0000
0110
0000
,
0000
1001
0000
1000
1000
0000
0001
0000
,
0000
0110
0000
0000
0000
1001
0000
0010
,
0000
1001
0000
1000
0001
0000
0000
0100
,
0010
0000
0110
0000
2000
0000
0000
3000
,
0000
1001
0000
1000
0001
0000
0000
0100
,
0010
0000
0110
0000
1100
0000
0001
0001
,
1000
0100
0000
0110
0000
0000
0001
1000
,
0000
0110
0000
0000
0001
1000
1000
0010
,
0000
1001
0000
0100
0010
0000
1000
0001
,
0000
0110
0000
0000
1100
0000
0010
0001
,
0000
1001
0000
0100
0010
0000
1000
0001
,
0000
1100
0000
0000
0100
0010
1000
0001
,
1000
0000
0110
0000
1010
0000
1000
0001
,
0000
0110
0000
1000
0001
1000
1000
0001
,
0110
1000
1010
0001
,
1001
0000
0100
0000
0001
1000
0001
1000
,
0000
0000
0100
0010
1000
0001
0000
1100
,
0000
0000
0001
0000
1000
0100
0010
0100
,
0001
0000
0001
1000
1000
0000
0110
0000
,
1000
0001
1000
0000
0000
0100
0010
0000
0000
0000
1001
0000
0000
0000
1000
0001
,
1000
0010
0000
0100
0000
1001
0000
1100
,
0000
0000
0100
0000
0000
0010
0001
0000
1100
0000
0000
0000
1000
0000
0001
0000
,
0000
0100
0010
0000
0000
0000
0100
0000
1000
0001
0000
0000
0001
0000
0100
0000
,
1000
0000
0000
0000
1001
0000
0000
0000
0100
0000
0000
0000
1000
0000
0010
0100
,
0000
0000
0001
0000
1000
0000
0000
0010
0100
0000
0000
0000
0001
0000
1000
0000
,
0000
0000
1001
0000
0000
0000
0100
0010
0000
0000
0001
0000
0000
0001
1000
0000
,
0000
1000
0000
0000
0010
0000
0100
0000
0001
0000
1000
0000
0000
0000
0110
0000
,
1000
0000
1000
0000
0001
0000
0010
0000
0100
0000
0000
0000
1000
0001
1000
0000
,
0000
0000
0100
0000
0000
0100
0010
0000
0000
0010
0000
0000
1000
0001
1000
0000
,
0000
0100
0010
0000
0000
0000
0001
0000
1000
0000
0000
1000
0001
0000
0000
0001
,
0100
0000
0000
0000
0110
0000
0000
0000
1000
0000
1000
0000
0000
0000
0001
0100
,
0001
0000
1000
0000
0000
0000
0010
0000
0100
0000
0010
0000
0000
0000
1000
0001
,
1000
0000
0001
0100
0010
0100
0000
0001
,
1000
0000
0000
0000
0100
0010
0100
0000
0001
0000
0000
0000
0001
0000
1000
0000
,
0000
0000
1000
0000
0000
0000
0100
0010
0100
0000
0000
0000
0010
0000
0001
0000
,
0000
1000
1000
0000
0110
0000
1000
1000
,
0001
1001
1100
0010
,
0110
0000
1000
0001
1000
0000
0100
0010
,
0100
0000
1001
0000
0100
0000
0010
0001
,
0000
0000
0100
0000
0000
0010
0100
0000
0000
0000
0000
0000
1000
0000
0000
0001
,
1000
0000
0001
0000
0110
0000
0000
0100
,
0010
0000
0000
0000
1000
0001
0000
0000
0000
0000
1000
0000
0001
0000
0010
0000
,
0001
0000
0100
0000
0000
0000
0100
0000
1000
0000
0000
0000
0001
1000
0001
0000
,
0100
0000
0000
0000
1000
0000
0001
0000
0001
0000
0000
0000
1000
0001
0000
0000
,
0000
0000
0110
0000
0000
0001
1000
0000
0000
0000
0100
0010
0000
0000
1001
0000
,
1000
0000
0000
0000
0100
0000
0001
0000
0001
0000
0000
0000
0000
0100
0010
0000
,
0000
1000
1000
0000
1001
0000
0110
0000
,
0000
1000
0001
1000
0000
0001
0010
0000
,
0000
0100
0010
0000
0000
0000
0000
0000
1000
0001
0000
0000
0000
0000
0010
0100
,
0000
0000
0000
0000
0000
0000
1001
0000
1001
0000
0000
0000
0100
0010
0000
0000
,
0000
0000
1000
0001
1000
0000
0000
0000
1001
0000
0000
0000
0010
0100
0000
0000
,
0000
0000
1000
0000
0001
0000
1001
0000
0000
0000
0100
0000
0000
0100
0010
0000
,
0000
0000
1000
0001
0000
0000
0000
0000
0100
0000
0100
0000
0000
0000
1001
0000
,
0000
0000
0010
0100
0000
0000
0000
0000
1000
0001
0000
0000
1000
0000
0000
0000
,
0000
0000
0001
0000
0001
0000
0000
0000
1001
0000
0000
0000
1000
0100
0000
0000
,
0110
0000
0000
0000
0010
0100
0010
0000
0000
0000
0000
0000
0001
1000
0000
0000
,
0000
0000
1000
0000
1000
0000
0000
0000
0001
0010
0000
0000
0100
0000
0100
0000
,
1001
0000
0000
0000
0000
0000
1000
0000
1000
0000
0000
0000
0001
0010
0000
0000
,
0000
0000
0100
0010
0100
0000
0000
0000
1000
0000
0000
0001
0000
1000
0001
0000
,
0000
2000
0000
0000
0000
3000
0001
0001
,
0020
0000
0000
0000
0000
0000
0130
0000
0000
0000
1001
0000
0000
1000
0000
0000
,
0220
0000
0000
0000
0330
0000
2002
0000
0000
0000
3003
0000
0100
0010
0000
0000
,
2002
0000
3003
0000
1000
1000
0000
1001
,
0000
0000
0100
0110
0000
1000
1000
0000
,
1001
0000
0000
0000
2200
3300
0000
0001
,
0010
0000
1000
0001
0001
1000
0000
1001
,
0000
0110
0000
1000
1000
0000
0001
0000
,
0010
0100
1000
0000
0000
0000
1001
0000
0000
0000
0110
0000
0000
0000
1001
0000
,
2002
3003
0020
0230
,
0320
0000
2030
0000
3000
0001
1001
0000
,
2200
3300
0000
0000
0001
1000
0001
0000
,
0110
0000
0000
1100
0000
0000
1001
1001
,
0000
0000
0110
0000
0000
0000
0000
0000
1000
0001
1000
0000
0000
0000
1000
0000
,
0002
0000
0000
0000
0003
0000
0100
0010
0000
0000
0000
0000
0110
0000
0000
0000
,
0000
0000
1001
0000
0000
0000
1000
0001
0000
0000
0000
0000
0200
0000
0000
0000
,
0000
0300
0000
0000
0001
0010
1000
0000
0000
1000
0100
0010
0000
0001
0000
0000
,
0220
0000
0000
0000
0330
0000
1000
1000
,
0001
0000
0010
0000
0000
0000
1000
0001
1000
0000
0000
0000
0001
1000
0001
0000
,
0000
0000
0110
0000
0000
0000
1000
0100
0000
0000
0000
0000
0010
0100
0000
0000
,
0000
0000
1001
0000
0000
0000
0100
0000
0100
0000
0001
1000
0001
0000
0000
0000
,
1001
0000
0000
0000
0100
0010
0000
0000
0000
0000
1000
0001
0000
0000
0100
0000
,
0000
0000
0110
0000
0000
0000
0001
0000
0001
0000
0000
1000
0100
1000
0000
0000
,
0000
0110
0000
0001
1000
0000
0100
0010
,
0002
0000
0000
0000
,
0000
0000
0000
0003
;

//---------------dance-single - ----------------
#NOTES:
     dance-single:
     :
     Medium:
     10:
     0.387569,0.423087,0.315106,0.046113,0.000000,353.000000,312.000000,41.000000,6.000000,0.000000,0.000000,0.387569,0.423087,0.315106,0.046113,0.000000,353.000000,312.000000,41.000000,6.000000,0.000000,0.000000:
0000
0000
0000
0000
0000
0000
1000
0001
,
1000
0000
0000
0010
0000
0000
1000
0000
,
1000
0000
0000
0001
0000
0010
0100
0000
,
1000
0000
0000
1000
0001
1000
0000
0000
,
0100
0000
0000
0110
0000
1000
1000
0000
,
0001
0000
0100
0010
0000
0000
1000
0000
,
1001
0000
0000
0010
0100
0000
1001
0000
,
0000
0110
0000
1000
1000
0000
0001
0000
,
0000
0100
0000
0000
0000
0010
0000
0000
,
1000
0000
0000
0000
1001
0000
0000
0110
,
0000
1000
0000
0001
,
0000
0000
0001
0000
0000
1001
0000
0000
,
0010
0000
1000
0000
0001
0001
0000
0000
,
1000
0100
0000
0000
0010
0100
0000
0000
,
1000
0000
0000
0010
0100
0000
0000
0000
,
0000
1000
0000
0000
1001
0000
0000
0110
,
0000
0000
1000
0000
1001
0000
0000
0100
,
0000
0110
1001
1100
,
0001
0000
0000
0000
0100
0000
0000
1000
,
0000
1000
0010
0000
,
1001
0000
1000
0000
0000
0100
0010
0100
,
0010
0000
0001
0000
1000
0000
0000
1001
,
0000
0000
0100
0000
0000
0001
0000
0000
,
0000
0110
0000
0000
1000
0000
0000
1001
,
0000
1000
1001
0000
,
0200
0000
0000
0300
,
0001
0001
0000
1000
1000
0000
0100
0010
,
0000
0000
0010
0100
0000
1001
0000
0000
,
0100
0010
0000
1000
0000
0001
0010
0000
,
1000
1000
0000
0100
0110
0000
0000
0000
,
1001
0000
0000
0100
1000
0000
0001
0001
,
0000
0000
0100
0010
0000
0000
1000
0001
,
0000
0000
0110
0000
1000
0000
0000
0010
,
0001
0000
1000
0100
0000
0000
0001
0010
,
0000
1000
0000
0010
0100
0000
0001
0000
,
1000
0000
1000
0000
0001
0000
0000
0010
,
0100
0000
0000
1000
0000
0001
0000
0001
,
0100
0100
0000
0001
,
1000
0000
0000
0010
0100
0010
0000
1000
,
0000
1000
0001
0000
0100
0000
0100
0000
,
0000
0010
0001
0000
1000
0000
1000
0001
,
0000
0000
0100
0010
0000
0000
1000
0001
,
1000
0000
0010
0000
0110
0000
0000
1000
,
0000
0001
0000
0000
0100
0000
0000
0010
,
0000
1001
0000
0000
0000
0000
0000
0100
,
0000
1001
0000
0000
1000
0000
0001
0000
,
0000
1001
0000
0000
0110
0000
0000
1100
,
0000
0000
1001
0000
0000
0011
0000
0000
,
0110
0000
1000
0001
0000
0000
1000
0000
,
1001
0000
0000
1000
0000
1000
0000
0010
,
0000
0000
0100
0100
0000
0000
0001
0000
,
0000
1000
1000
0000
0000
0100
0000
0000
,
0010
0010
0000
1000
0001
0000
0100
0010
,
0000
1000
1000
0000
0001
0000
0110
0000
,
0000
0000
0001
0001
0000
0000
1000
0001
,
0000
0000
0100
0010
0000
0000
1000
1000
,
0000
0000
0001
1000
0000
0000
0100
0010
,
0000
0001
0001
0000
1000
0000
0100
0010
,
0000
0000
1001
0000
0000
0000
0000
0010
,
0000
0000
0000
0010
0100
0000
0000
0001
,
0000
0001
0000
0000
1000
0000
1000
0000
,
0000
0010
0000
0100
0000
0000
0001
0000
,
0000
1000
0000
1000
0000
0000
0001
0000
,
0000
0000
0010
0100
0000
0000
0000
0100
,
0000
0001
1000
1000
,
0000
0001
0000
0100
0100
0000
0000
1000
,
0001
2000
0000
3001
,
0001
0000
0100
0001
,
1000
0000
0000
0110
0000
1000
0001
0000
,
0100
0000
0000
0000
0010
0100
0010
0000
,
0000
0001
0000
1001
0000
1000
0100
0000
,
0000
0010
0000
0100
0000
0000
0000
1000
,
0010
0000
0000
0100
0000
0001
0000
0000
,
0000
0100
1000
0000
0001
0001
0000
0000
,
0100
0000
0100
0000
0001
1000
0000
0000
,
2002
3003
0010
0110
,
0100
0000
1001
1000
,
0001
0000
0000
0000
0010
0100
0000
0000
,
1001
0000
0001
0000
0000
0000
0100
0010
,
0000
0000
1000
0000
0001
0000
0100
0010
,
0000
0000
0001
0000
0000
1000
1000
0000
,
0000
0000
0001
0000
0000
0010
0000
0000
,
0100
0000
0000
1000
0001
1000
0000
0002
,
0000
0000
0000
0003
0000
0010
0100
0000
,
0000
0001
1000
0000
0000
0001
0000
0000
,
0100
0000
0000
0001
1000
0000
0100
0000
,
0000
0010
0000
0000
1000
0001
0000
0000
,
0000
0100
0010
0000
0000
0000
0100
0000
,
0000
1001
0000
1000
0000
0001
0001
0000
,
0010
0000
0000
0100
0000
0000
0010
0000
,
2000
0000
0000
0000
,
0000
0000
0000
3000
;

//---------------dance-single - ----------------
#NOTES:
     dance-single:
     :
     Easy:
     6:
     0.356827,0.449602,0.576413,0.015371,0.000000,325.000000,250.000000,75.000000,2.000000,0.000000,0.000000,0.356827,0.449602,0.576413,0.015371,0.000000,325.000000,250.000000,75.000000,2.000000,0.000000,0.000000:
0000
0000
0000
0010
,
0100
0000
1000
0001
,
0100
0010
0000
1000
,
1001
0000
0100
0100
,
1001
0000
1000
0001
,
0001
0000
0100
0010
,
1001
0000
1000
0001
,
1001
0000
0100
0000
,
0110
0000
1000
0000
,
0001
0000
0001
1000
,
1001
0000
0000
0000
,
0000
0100
0000
0010
,
0000
1000
0001
1000
,
1001
0000
0110
0000
,
1000
1001
0100
0110
,
0000
1001
1000
0001
,
0000
0110
1000
0000
,
1001
0000
0110
0000
,
1000
0010
0000
0100
,
0000
1001
0000
1000
,
0000
1001
0001
1000
,
0110
0000
1001
0000
,
1100
0000
0001
0000
,
1000
0000
0100
0000
,
0010
1001
1000
0000
,
0001
2000
0000
3000
,
0001
0001
0001
1000
,
0000
0100
0110
0000
,
0001
0001
1000
0100
,
0001
0000
0100
0100
,
1001
0000
1000
1000
,
1001
0010
0100
0010
,
0110
1000
0010
0001
,
0100
0100
0001
1000
,
0110
0000
0001
1000
,
0000
0000
0110
0000
,
0000
1001
0110
0000
,
0000
0000
1001
1000
,
0000
0000
0001
0000
,
0000
0110
0000
0000
,
1001
0000
0100
0110
,
0000
0001
1001
0000
,
0110
1000
0001
0000
,
0100
0110
0001
1000
,
1001
0000
0000
0000
,
0110
1001
1000
0001
,
0110
0000
1001
0000
,
1100
0000
0110
0000
,
1001
0000
1000
1001
,
0000
0000
0000
0000
,
0000
0010
0100
1000
,
0001
0001
0100
0100
,
0010
1000
1001
0010
,
0100
0000
1000
1001
,
0000
0001
0001
0100
,
0010
0000
1000
0001
,
0000
0100
0110
0001
,
1000
1001
0100
0010
,
1001
1000
1000
0001
,
0010
0110
0001
1000
,
0000
0001
1001
0100
,
0010
1000
0001
1001
,
1000
0010
0100
0001
,
0001
1000
0001
1001
,
0100
0000
1000
1001
,
0000
0010
0100
0001
,
1001
0200
0000
0300
,
0000
0000
0100
0010
,
1001
0000
0100
0110
,
1001
0000
0100
0010
,
0110
0000
1001
0001
,
1000
0000
0100
0010
,
0000
0000
0001
1000
,
0001
0110
1000
1000
,
0001
0010
0100
0010
,
0000
1000
0100
1000
,
0000
0010
0001
0000
,
1000
1001
0010
0100
,
1001
0000
1100
0110
,
1001
0001
1000
0000
,
0100
0110
0001
0000
,
1001
0000
0100
0010
,
1000
1000
0001
0100
,
0010
0000
1001
0110
,
0001
0000
0001
0000
,
1000
0001
0000
1000
,
0000
0110
1001
0000
,
0000
0100
0000
0010
,
0000
1001
0000
0010
,
0000
0100
0110
0000
,
1001
0000
0000
0000
;

//---------------dance-single - ----------------
#NOTES:
     dance-single:
     :
     Beginner:
     3:
     0.219586,0.312992,0.276678,0.000000,0.000000,200.000000,164.000000,36.000000,0.000000,0.000000,0.000000,0.219586,0.312992,0.276678,0.000000,0.000000,200.000000,164.000000,36.000000,0.000000,0.000000,0.000000:
// measure 0
0000
0000
0000
0010
,  // measure 1
0100
0000
1000
0001
,  // measure 2
0100
0010
0000
1000
,  // measure 3
1001
0000
0000
0100
,  // measure 4
1001
0000
0000
0001
,  // measure 5
1001
0000
0100
0000
,  // measure 6
1001
0000
1000
0001
,  // measure 7
0000
1001
0000
0000
,  // measure 8
0110
0000
1000
0000
,  // measure 9
0000
0000
0001
1000
,  // measure 10
0000
0000
0010
0000
,  // measure 11
0000
0100
0000
0010
,  // measure 12
0000
1000
0000
1000
,  // measure 13
1001
0000
0110
0000
,  // measure 14
1000
1001
0001
0000
,  // measure 15
0000
1001
1000
0001
,  // measure 16
0000
0110
1001
0000
,  // measure 17
0000
0100
0110
0000
,  // measure 18
1000
0010
0000
0100
,  // measure 19
0000
0001
0000
1000
,  // measure 20
0000
0001
0001
0000
,  // measure 21
0000
0110
0000
0001
,  // measure 22
0000
0001
0000
0000
,  // measure 23
0100
0000
0010
0000
,  // measure 24
0000
1001
1001
0000
,  // measure 25
0000
0000
0000
0010
,  // measure 26
0000
0000
0000
0010
,  // measure 27
0000
0000
1000
1000
,  // measure 28
0000
0000
0001
0000
,  // measure 29
0000
0001
0001
0000
,  // measure 30
0000
0000
0000
0100
,  // measure 31
0000
0000
0010
0000
,  // measure 32
0000
0000
1000
1000
,  // measure 33
0000
0000
0001
0000
,  // measure 34
0000
0010
0000
0000
,  // measure 35
0100
0000
0000
0010
,  // measure 36
0000
1000
1001
0000
,  // measure 37
0000
0000
1001
0000
,  // measure 38
0000
0000
0000
0000
,  // measure 39
0000
0110
0000
0000
,  // measure 40
1001
0000
0100
0000
,  // measure 41
0000
0000
0010
0010
,  // measure 42
0000
0000
0000
1000
,  // measure 43
0000
0000
0000
0000
,  // measure 44
0001
0000
0000
0000
,  // measure 45
1000
0000
1001
0000
,  // measure 46
0000
0001
1000
0001
,  // measure 47
0000
1001
0100
0000
,  // measure 48
0000
0100
0110
0000
,  // measure 49
1000
0000
1000
0001
,  // measure 50
0000
0000
0001
0000
,  // measure 51
1000
0000
0000
1000
,  // measure 52
0000
0001
0001
0000
,  // measure 53
0001
0000
0000
0100
,  // measure 54
0000
0000
0100
0000
,  // measure 55
0010
0000
0001
0000
,  // measure 56
1001
0000
0000
0110
,  // measure 57
0000
0000
0001
1001
,  // measure 58
0000
0000
0100
0000
,  // measure 59
0000
0000
0010
0000
,  // measure 60
0000
0000
1000
0000
,  // measure 61
0000
1000
0000
0000
,  // measure 62
0001
0000
0000
0001
,  // measure 63
0000
0000
1000
0000
,  // measure 64
1000
0000
0000
0001
,  // measure 65
0000
0100
0000
0100
,  // measure 66
0000
0000
0000
0001
,  // measure 67
1000
0000
0100
0010
,  // measure 68
0100
0000
0000
0001
,  // measure 69
1001
0000
0100
0000
,  // measure 70
0001
0000
1000
0000
,  // measure 71
0110
0000
0001
0000
,  // measure 72
0000
1000
0000
0000
,  // measure 73
0000
0001
0000
0000
,  // measure 74
0001
0000
1000
0000
,  // measure 75
1001
0000
0010
0100
,  // measure 76
0110
0000
1000
0000
,  // measure 77
1001
0000
0001
0000
,  // measure 78
1000
0000
1000
0000
,  // measure 79
0110
0000
0001
0000
,  // measure 80
1000
0000
0001
0000
,  // measure 81
0000
0100
0000
0000
,  // measure 82
1000
0001
0001
0000
,  // measure 83
1000
0000
0000
0010
,  // measure 84
0000
0000
0001
1001
,  // measure 85
0000
0100
0000
0010
,  // measure 86
0110
0000
1000
0001
,  // measure 87
0001
0000
0100
0000
,  // measure 88
1000
0000
1001
0000
,  // measure 89
0100
0000
1000
0000
,  // measure 90
1001
0000
1000
0000
;
