#VERSION:0.83;
#TITLE:Rinne no karasu;
#SUBTITLE:;
#ARTIST:BEMANI Sound Team "dj TAKA";
#TITLETRANSLIT:;
#SUBTITLETRANSLIT:;
#ARTISTTRANSLIT:;
#GENRE:;
#ORIGIN:;
#CREDIT:PaperBox440;
#BANNER:Rinne no karasu.png;
#BACKGROUND:Rinne no karasu-bg.png;
#PREVIEWVID:;
#JACKET:Rinne no karasu-jacket.png;
#CDIMAGE:;
#DISCIMAGE:;
#LYRICSPATH:;
#CDTITLE:;
#MUSIC:Rinne no karasu.mp3;
#OFFSET:0.000000;
#SAMPLESTART:21.818182;
#SAMPLELENGTH:17.575758;
#SELECTABLE:YES;
#BPMS:0.000=198.000;
#STOPS:;
#DELAYS:;
#WARPS:;
#TIMESIGNATURES:0.000=4=4;
#TICKCOUNTS:0.000=4;
#COMBOS:0.000=1;
#SPEEDS:0.000=1.000=0.000=0;
#SCROLLS:0.000=1.000;
#FAKES:;
#LABELS:0.000=Song Start;
#BGCHANGES:;
#KEYSOUNDS:;
#ATTACKS:
;

//---------------dance-single - ----------------
#NOTEDATA:;
#CHARTNAME:;
#STEPSTYPE:dance-single;
#DESCRIPTION:;
#CHARTSTYLE:;
#DIFFICULTY:Hard;
#METER:14;
#RADARVALUES:0.742471,0.846286,0.389797,0.170536,0.328891,640.000000,592.000000,48.000000,21.000000,0.000000,0.000000,0.000000,0.000000,0.000000,0.742471,0.846286,0.389797,0.170536,0.328891,640.000000,592.000000,48.000000,21.000000,0.000000,0.000000,0.000000,0.000000,0.000000;
#CREDIT:;
#NOTES:
0000
0000
0000
0000
,
1001
1000
0001
1000
,
0001
0000
1000
0000
0001
0001
0000
1000
,
1001
0100
0010
0001
,
0010
0000
0000
1000
1000
0000
0010
0010
,
0100
0110
0010
0100
,
0100
0000
1000
0000
0001
0010
0001
0000
,
1001
0001
1000
0001
,
1100
0110
1001
0100
,
0110
0000
0001
0010
0100
0100
0001
0010
,
0001
1000
0110
0100
0001
0001
1000
0000
,
0110
0000
1100
0000
0010
1000
1000
0001
,
0010
0000
0001
0000
0100
0000
0100
0000
0000
0000
0001
1000
0001
0000
0000
0000
,
1001
0000
0010
0001
0100
0100
0010
0000
,
0010
1000
0100
1000
0001
0001
0100
0010
,
0100
0000
0000
0000
0100
0000
1000
0000
1000
0000
0001
0010
0001
0000
0000
0000
,
2000
0000
0000
0000
,
3001
0000
0100
0001
0010
0001
1000
0000
,
0100
0010
0100
0001
0000
0001
1000
0100
,
1000
0010
0100
0100
0001
0010
0001
1000
,
0000
1000
0100
0010
0100
0010
0001
0001
,
2000
0000
3000
0100
0000
0100
1000
0010
,
0001
0010
0100
0000
0100
0000
1000
0001
,
1000
0000
0000
0000
0001
0010
0100
0000
0000
1000
0100
0010
0000
0000
0001
0000
,
0100
0000
0000
0010
0001
0000
0000
0100
1000
0000
0000
0000
0110
0000
0000
0000
,
0000
1001
0000
1000
1000
0001
0001
0100
,
0010
0100
0000
0100
0001
0010
0001
1000
,
0000
1000
0100
0010
0100
0001
0001
1000
,
0100
1000
1000
0100
0010
0100
0001
0001
,
2000
0000
0000
3010
0000
0010
1000
0000
,
1000
0000
0010
0100
0001
0000
0001
0100
,
0010
0000
0010
0000
0100
1000
0100
1000
,
0001
0001
0100
0000
0110
0000
1100
0000
,
0001
0010
0100
0100
0000
0010
0100
1000
,
0000
1000
0001
0010
0001
0100
0000
0100
,
0010
0000
0010
1000
0100
1000
0001
0000
,
0001
0000
0000
0000
0100
0000
0010
0000
0100
0000
0000
0000
1000
0001
1000
0001
,
1000
0100
0000
0010
1000
0100
1000
0001
,
0010
0000
0000
0000
0001
0000
0100
0000
0100
0000
0000
0000
1000
0001
1000
0001
,
0000
0000
0010
0100
0100
0000
0011
0000
,
1001
0000
0110
0000
2200
0000
0000
3300
,
0000
0002
0000
0013
0010
1000
1000
0001
,
0010
0001
0100
0100
0010
1000
0010
0001
,
0001
0100
1000
0100
0010
0000
0100
0010
,
0000
0010
1000
0100
1000
0001
0001
0000
,
0110
0000
1100
0000
0010
0100
0001
0010
,
0001
0100
0000
0100
1000
0000
1000
0000
,
0011
0000
0000
0000
0110
0000
0000
0000
1000
0000
1000
0000
0000
0001
0000
0001
,
0100
0000
0100
0000
0000
0010
0000
0010
0000
0000
1000
0000
1000
0000
0000
0000
,
0001
0000
0000
0001
0010
0000
0100
0010
0000
1000
0000
0000
1000
0000
0100
0000
,
0000
0100
0001
0000
0010
0001
0000
1000
0000
0000
1000
0000
0001
0000
0000
0000
,
0010
0100
0000
0000
1000
0000
0000
1000
0001
0000
0000
0001
0100
0000
0010
0100
,
0000
0000
0001
0000
1000
0001
0000
0000
0100
0000
0000
0100
0010
0000
0000
0000
,
1001
0000
0000
0000
0100
0000
0000
0100
0010
0000
0000
0010
0100
0000
0000
0000
,
1001
0000
0000
0001
0000
0010
0000
0000
0010
1000
0000
0000
1000
0000
0000
0000
,
1100
0000
0000
0000
1000
0000
0000
1000
0000
0000
0100
0000
0010
0001
0000
0000
,
0002
0000
0000
0000
0000
0000
0000
0000
0000
0000
0000
0000
0000
1000
0100
0013
,
0000
0000
1000
1000
0001
0100
0010
0000
,
0010
0100
0000
0100
1000
0001
1000
0000
,
1001
0000
0100
0010
1000
0000
1000
0001
,
0001
0100
0010
0100
0001
1000
0001
0000
,
2002
0000
0000
0000
0000
3003
0000
0100
,
0000
1000
0010
0100
0100
0001
0000
0001
,
1000
0000
0100
0000
1000
0000
0000
0000
0001
1000
0001
0000
0000
0000
0010
0000
,
0100
1000
0001
0010
0100
0000
0100
0000
,
0001
0010
1000
0100
0001
0010
0001
1000
,
0010
0100
0000
0100
0001
0001
1000
0001
,
0100
0000
0100
0010
0001
0000
1000
0001
,
1000
0000
2200
3300
0001
0000
0022
0033
,
0100
0000
0220
0330
0000
1000
0001
0010
,
0001
2000
0000
0000
3000
0100
0001
0000
,
1001
0010
0100
0000
0110
0001
1000
0000
,
1100
0000
0220
0000
0330
0000
0010
0100
,
0001
0000
0001
1000
0100
1000
0001
0000
,
0110
0000
0100
0010
0001
1000
1000
0000
,
1001
0000
0100
0100
0001
0010
0001
1000
,
0000
0000
1000
0000
0001
0010
0100
0010
0000
0000
0001
0000
0100
0000
0000
0000
,
1000
0000
1000
0001
0010
0001
0000
0000
1000
0000
0000
0000
0100
0010
0100
0010
,
0000
0000
1000
0010
0100
0001
1000
0000
,
1010
0011
0110
1100
,
0001
1000
0001
0000
0100
0010
0001
1000
,
0000
0110
0000
0100
0001
0010
0001
1100
,
0010
0100
0001
0001
1000
0100
1000
0010
,
0010
0100
0000
0100
0001
0010
0001
0000
,
0110
0000
1100
0000
0001
0010
1000
0100
,
0010
0100
1000
0000
0100
0010
0001
0000
,
0001
1000
0100
1000
0010
0000
2000
0000
,
3100
0000
0001
0000
0010
0000
0001
1000
0000
0000
1000
0000
0000
0100
0010
0000
,
0000
0000
0001
0000
0000
0001
0010
0100
0010
0000
0000
1000
0000
1000
0001
0000
,
0000
0001
0000
0100
0010
0100
0000
1000
0000
0000
1000
0001
0000
0000
0001
0000
,
0000
0010
0100
0010
0000
1000
0000
0000
1000
0000
0100
0000
0010
0000
0000
0010
,
0000
0100
0000
0000
0100
0001
0000
0000
0001
0000
1000
0000
1000
0010
0100
0010
,
0001
0000
0000
1000
0000
0000
1000
0001
0000
0000
0001
0100
0010
0100
0000
0001
,
0000
1000
0001
0000
0100
0000
0000
0100
0010
0000
0001
1000
0000
0001
0000
0110
,
0000
0000
1000
0000
0000
1000
0000
0001
0010
0100
0010
1000
0000
0000
0000
0001
,
0000
0000
0100
0000
0010
0100
0001
0000
0000
0001
0000
0010
0100
1000
0000
0000
,
2002
0000
0000
0000
,
0000
0000
0000
0000
,
0000
0000
0000
0000
,
0000
3003
0000
0000
;

//---------------dance-single - ----------------
#NOTEDATA:;
#CHARTNAME:;
#STEPSTYPE:dance-single;
#DESCRIPTION:;
#CHARTSTYLE:;
#DIFFICULTY:Medium;
#METER:10;
#RADARVALUES:0.577735,0.604490,0.609058,0.073087,0.008121,498.000000,423.000000,75.000000,9.000000,0.000000,0.000000,0.000000,0.000000,0.000000,0.577735,0.604490,0.609058,0.073087,0.008121,498.000000,423.000000,75.000000,9.000000,0.000000,0.000000,0.000000,0.000000,0.000000;
#CREDIT:;
#NOTES:
// measure 0
0000
0000
0000
0000
,  // measure 1
1001
1000
0001
1000
,  // measure 2
0001
1000
0001
1000
,  // measure 3
1001
0010
0100
0010
,  // measure 4
0100
0010
0100
0010
,  // measure 5
1001
1000
0001
1000
,  // measure 6
0001
1000
0001
1000
,  // measure 7
1001
0001
1000
0001
,  // measure 8
1100
1010
1001
0010
,  // measure 9
0110
1000
1100
0001
,  // measure 10
1001
0100
0110
0001
,  // measure 11
1001
0100
0110
1000
,  // measure 12
1001
0001
0010
1000
,  // measure 13
1001
0100
0110
0001
,  // measure 14
1001
0100
1100
0010
,  // measure 15
0011
1000
1010
0001
,  // measure 16
2002
0000
0000
3003
,  // measure 17
1001
0001
0100
0010
,  // measure 18
0100
0000
0001
0100
0001
0000
1000
0001
,  // measure 19
1000
0010
0100
0010
,  // measure 20
0001
1000
0001
0000
0010
0000
0100
0000
,  // measure 21
2000
0000
3001
0010
,  // measure 22
0100
0010
0010
1000
,  // measure 23
1000
0001
0011
0100
,  // measure 24
0010
0100
1010
1100
,  // measure 25
0000
1001
0000
1100
0000
0000
0001
1000
,  // measure 26
0001
0000
0100
0000
1000
0010
0001
0000
,  // measure 27
0010
0000
0100
0010
0100
0000
0001
0000
,  // measure 28
0010
0000
0001
0000
1000
0100
1000
0000
,  // measure 29
0001
0001
1000
0000
0010
0000
0100
0000
,  // measure 30
0010
0001
1000
0001
0000
1000
0000
0000
,  // measure 31
0110
1010
0001
0001
,  // measure 32
0010
0100
0010
0000
1001
0000
1001
0000
,  // measure 33
0110
0000
1000
0001
1000
0000
0100
0000
,  // measure 34
1000
0001
0001
0110
,  // measure 35
0100
0001
0010
0001
,  // measure 36
1000
0000
1100
0000
0001
0000
0100
0010
,  // measure 37
0100
0010
1001
0000
0010
0000
0100
0000
,  // measure 38
0010
0000
1100
0000
0001
0010
0001
0010
,  // measure 39
0001
0000
0000
0000
1100
0000
0000
0000
0000
1010
0000
0000
0000
0000
0110
0000
,  // measure 40
0000
0000
0000
1001
0000
0000
0000
0000
2200
0000
0000
0000
0000
0000
0000
0000
,  // measure 41
3300
0002
0000
0013
0100
0000
1000
0000
,  // measure 42
0001
0000
1000
0000
0010
0100
0010
0000
,  // measure 43
0001
1000
0100
1000
,  // measure 44
0001
1000
0001
0000
0010
0010
0000
0000
,  // measure 45
0110
1100
1000
0010
,  // measure 46
0010
1000
0100
1000
0001
0001
0000
0000
,  // measure 47
0011
0000
0110
0000
1000
0001
1000
0010
,  // measure 48
0100
0100
0001
0010
,  // measure 49
0001
0000
1000
0001
1000
0001
0100
0000
,  // measure 50
0100
0000
0010
0100
0010
0100
0001
0000
,  // measure 51
0001
0000
1000
0001
1000
0001
1000
0000
,  // measure 52
0010
0000
0010
0000
0001
1000
0001
0000
,  // measure 53
0110
1100
0010
0100
,  // measure 54
0110
0000
1000
0000
0001
1000
0001
0000
,  // measure 55
1100
0000
0001
0010
0001
1000
0100
1000
,  // measure 56
0000
0002
0000
0000
0000
0000
0000
0100
,  // measure 57
0013
0000
0100
0000
0100
0000
1000
0001
,  // measure 58
1000
0001
0001
1100
,  // measure 59
1001
0100
0010
0001
,  // measure 60
1000
0010
0001
1000
,  // measure 61
1001
0001
1000
1000
,  // measure 62
0100
0000
0010
0000
,  // measure 63
0100
0000
1000
0001
1000
0001
0000
0000
,  // measure 64
0100
0110
0001
1000
,  // measure 65
0010
0100
1000
1000
,  // measure 66
0001
1000
0001
0100
,  // measure 67
0010
0000
0100
0000
0001
1000
0001
0000
,  // measure 68
1100
0010
1010
0001
,  // measure 69
0100
0110
0001
1000
,  // measure 70
0001
0000
0100
0010
0100
0000
1000
0000
,  // measure 71
0110
0100
1100
1000
,  // measure 72
1001
0100
0010
0010
,  // measure 73
0100
0000
0001
0000
0001
0000
0100
1000
,  // measure 74
0001
0010
0100
0010
,  // measure 75
1000
0000
0100
0000
0001
1000
0001
0000
,  // measure 76
1000
0000
0001
0000
1000
0100
0010
0000
,  // measure 77
0100
0000
0001
1000
0001
0000
1000
0000
,  // measure 78
1000
0001
0001
0100
,  // measure 79
0110
0001
0011
1000
,  // measure 80
1100
0000
0001
0000
1000
0010
0100
0000
,  // measure 81
1000
0000
0001
0000
0010
0000
0001
1000
,  // measure 82
0100
0100
1000
0010
,  // measure 83
0100
0000
0100
0000
0001
1000
0001
0000
,  // measure 84
0100
0100
0001
0000
1000
0000
0001
0000
,  // measure 85
1000
1000
0001
0000
1000
0000
1000
0000
,  // measure 86
0001
0000
0010
0000
0100
0100
0002
0000
,  // measure 87
0000
1003
1000
0000
0001
0010
0001
0000
,  // measure 88
0110
1000
1100
0001
,  // measure 89
0011
0100
0110
1000
,  // measure 90
1001
0010
0110
1000
,  // measure 91
1001
0000
0100
0001
0010
0001
0100
0100
,  // measure 92
0010
1010
1000
1001
,  // measure 93
1000
0110
0010
0100
,  // measure 94
0110
1000
1100
0001
,  // measure 95
1001
0000
0100
0010
0010
1000
1000
0001
,  // measure 96
0200
0000
0000
0000
,  // measure 97
0000
0000
0000
0000
,  // measure 98
0000
0000
0000
0000
,  // measure 99
0000
0300
0000
0000
;

//---------------dance-single - ----------------
#NOTEDATA:;
#CHARTNAME:;
#STEPSTYPE:dance-single;
#DESCRIPTION:;
#CHARTSTYLE:;
#DIFFICULTY:Easy;
#METER:5;
#RADARVALUES:0.395598,0.483592,0.487246,0.081208,0.000000,341.000000,281.000000,60.000000,10.000000,0.000000,0.000000,0.000000,0.000000,0.000000,0.395598,0.483592,0.487246,0.081208,0.000000,341.000000,281.000000,60.000000,10.000000,0.000000,0.000000,0.000000,0.000000,0.000000;
#CREDIT:;
#NOTES:
// measure 0
0000
0000
0000
0000
,  // measure 1
1001
1000
0001
1000
,  // measure 2
0001
1000
0001
1000
,  // measure 3
1001
0010
0100
0010
,  // measure 4
0100
0010
0100
0010
,  // measure 5
0110
1000
0001
1000
,  // measure 6
0001
1000
0001
1000
,  // measure 7
1001
0100
0010
0100
,  // measure 8
0010
0010
0100
0100
,  // measure 9
0110
0000
1001
0000
,  // measure 10
1100
0000
1001
0000
,  // measure 11
0011
0000
0110
0000
,  // measure 12
1100
0000
1001
0000
,  // measure 13
0110
0000
1100
0000
,  // measure 14
1001
0000
0110
0000
,  // measure 15
1010
0000
0110
0000
,  // measure 16
2002
0000
0000
0000
,  // measure 17
3003
0000
0000
0000
,  // measure 18
0010
0100
0010
1000
,  // measure 19
1000
0000
0000
0001
,  // measure 20
0100
0010
0100
1000
,  // measure 21
1001
0000
0010
0000
,  // measure 22
0100
0000
0100
0000
,  // measure 23
0001
0000
0001
1000
,  // measure 24
0000
1000
1000
0000
,  // measure 25
0110
0000
0001
0001
,  // measure 26
0000
1000
1000
0000
,  // measure 27
0010
0100
0010
0000
,  // measure 28
0001
1000
0000
1000
,  // measure 29
0000
0001
0010
0100
,  // measure 30
0010
0000
1000
0001
,  // measure 31
0001
0000
0100
0010
,  // measure 32
0100
0000
1000
1001
,  // measure 33
0000
0110
0010
0100
,  // measure 34
0010
0000
0001
1000
,  // measure 35
1000
0000
0100
0010
,  // measure 36
0100
0000
0001
1000
,  // measure 37
1001
1000
0000
0010
,  // measure 38
0010
0100
0010
0001
,  // measure 39
1100
0000
0000
1001
0000
0000
0110
0000
,  // measure 40
0000
1100
0000
0000
2002
0000
0000
0000
,  // measure 41
0000
3003
0000
0100
,  // measure 42
0010
0100
0010
1000
,  // measure 43
0000
1000
0001
1000
,  // measure 44
0001
0010
0100
0000
,  // measure 45
1001
1001
0000
0010
,  // measure 46
0001
1000
1000
0000
,  // measure 47
0110
0110
0001
1000
,  // measure 48
1000
0001
0001
0000
,  // measure 49
1001
0001
0110
0000
,  // measure 50
1100
0100
0110
0000
,  // measure 51
1001
1000
1100
0000
,  // measure 52
0110
0001
1001
0000
,  // measure 53
0100
1001
0100
0000
,  // measure 54
1001
0000
0010
0010
,  // measure 55
1100
0010
0100
0010
,  // measure 56
0001
2002
0000
0000
,  // measure 57
3003
0100
0010
0000
,  // measure 58
0100
0010
0100
1000
,  // measure 59
1001
0100
0001
0001
,  // measure 60
0000
0100
0010
0100
,  // measure 61
0110
0000
1000
0001
,  // measure 62
0100
0100
0010
0000
,  // measure 63
0001
1000
1001
0010
,  // measure 64
0100
0000
0010
1000
,  // measure 65
1000
0001
0001
0000
,  // measure 66
0100
0010
0000
0100
,  // measure 67
1001
0000
0010
0000
,  // measure 68
1100
0000
1001
0000
,  // measure 69
0110
0000
1001
0000
,  // measure 70
0010
0000
1100
1001
,  // measure 71
0010
0110
1000
0001
,  // measure 72
2000
0000
3000
0001
,  // measure 73
0010
0010
0100
0000
,  // measure 74
1000
0001
1000
0000
,  // measure 75
0100
0100
0010
0000
,  // measure 76
1000
1000
0001
0001
,  // measure 77
0000
0010
0000
0010
,  // measure 78
0000
0100
0000
0100
,  // measure 79
0011
0000
1100
0001
,  // measure 80
2002
0000
0000
3003
,  // measure 81
0010
0100
0010
0000
,  // measure 82
1000
0001
0000
0000
,  // measure 83
0100
0010
0100
0000
,  // measure 84
1000
0001
1000
0000
,  // measure 85
1001
0000
0001
0001
,  // measure 86
1000
0000
1000
0000
,  // measure 87
0010
0000
0100
0100
,  // measure 88
0010
0001
0001
1000
,  // measure 89
1000
0100
0100
1000
,  // measure 90
0001
0001
1000
1000
,  // measure 91
0010
0010
0100
0100
,  // measure 92
0010
0001
0001
1000
,  // measure 93
1000
0010
0010
0100
,  // measure 94
0100
0001
0001
1000
,  // measure 95
0100
0100
0010
0010
,  // measure 96
0002
0000
0000
0000
,  // measure 97
0000
0000
0000
0000
,  // measure 98
0000
0000
0000
0000
,  // measure 99
0000
0003
0000
0000
;
