#TITLE:凛として咲く花の如く スプーキィテルミィンミックス;
#SUBTITLE:;
#ARTIST:マチゲリータ;
#TITLETRANSLIT:Rin to shite saku hana gotoku Spooky theremin mix;
#SUBTITLETRANSLIT:;
#ARTISTTRANSLIT:;
#GENRE:;
#CREDIT:PaperBox440;
#BANNER:Rin to shite saku hana no gotoku Spooky theremin mix.jpg;
#BACKGROUND:Rin to shite saku hana no gotoku Spooky theremin mix-bg.png;
#LYRICSPATH:;
#CDTITLE:;
#MUSIC:Rin to shite saku hana no gotoku Spooky theremin mix.mp3;
#OFFSET:-1.380000;
#SAMPLESTART:52.545643;
#SAMPLELENGTH:13.987728;
#SELECTABLE:YES;
#BPMS:0.000000=163.000000
;
#STOPS:
;
#BGCHANGES:;
#KEYSOUNDS:;
#ATTACKS:;

//---------------dance-single - ----------------
#NOTES:
     dance-single:
     :
     Hard:
     9:
     0.574551,0.644974,0.486445,0.347460,0.108581,463.000000,407.000000,56.000000,40.000000,0.000000,0.000000,0.574551,0.644974,0.486445,0.347460,0.108581,463.000000,407.000000,56.000000,40.000000,0.000000,0.000000:
0000
0000
0000
0000
,
0000
0000
0000
0000
,
0000
0000
0000
0000
,
0000
0000
0000
0000
,
0010
0100
0010
0001
0000
0001
0000
0010
,
1000
0100
0000
0100
0000
2000
0000
3000
,
0000
0100
0001
0000
0001
0000
1000
0010
,
0000
0010
0200
0000
0300
0000
1001
0000
,
0010
0000
1010
0000
1100
0001
0010
0000
,
0110
0000
0001
0100
0100
0001
0010
0002
,
0000
0000
1000
0100
0013
0000
0001
0010
,
0100
0000
1000
1000
0010
0100
0001
0000
,
0010
0100
0100
0001
0010
0001
1000
1000
,
0001
0010
0001
0100
1000
0001
1000
0010
,
0010
0100
0100
0000
1001
0000
0100
0010
,
0000
0010
1000
1000
0001
0001
0100
0010
,
0100
0001
0001
1000
1000
0010
0110
0000
,
1000
0001
0001
0000
0010
0100
0010
1000
,
1000
0001
0010
0001
0000
1000
1001
0000
,
1000
0010
0100
0010
0001
0000
0001
0100
,
0010
0100
1000
0000
0110
0000
0001
0010
,
0000
0100
0000
0100
0000
0001
1000
0001
,
0200
0000
0000
0300
0000
0000
0000
0010
,
0010
0000
1000
1000
0001
0010
0001
0100
,
0100
0000
1010
0001
0000
0010
1100
0000
,
0100
0001
0010
0001
1000
0000
1000
0010
,
0200
0000
0300
0000
0010
0001
0001
0000
,
1100
1010
0110
0000
,
0011
1001
1100
0000
,
0010
0000
1010
0000
1100
0000
1001
0001
,
0010
0000
2200
3300
0000
0000
2020
3030
0000
0000
0220
0330
1000
0000
1000
0000
,
0000
0000
0001
0010
0000
0110
0000
0000
,
1000
1000
0010
0100
0000
0110
0000
0000
,
0000
0100
0001
0010
0001
1000
1000
0000
,
2002
3003
0000
0000
2200
3300
0000
0000
2020
3030
0000
0000
0001
0000
0000
0000
,
0100
0110
0000
1000
0001
1000
0010
0010
,
0100
0000
0100
0000
0001
0000
0010
0000
0001
0000
1000
0000
1000
0000
0000
0001
,
0110
0000
0000
0000
0001
0010
0001
0000
1000
0000
0100
0000
1000
0000
0010
0100
,
0010
0000
0100
0000
0010
1001
0000
0010
,
0100
0000
0110
0000
0000
0000
0001
0000
0001
0000
1000
0010
0000
0000
1000
0000
,
0001
0000
0010
0000
0100
0000
0000
1000
0100
0000
0001
0000
0001
0000
1000
0000
,
1000
0010
0000
0000
0010
0000
0000
0000
0100
0010
0100
0000
0001
0000
0001
0000
,
2000
0000
0000
0000
0000
0000
0000
3000
,
0200
0000
0000
0000
0000
0000
0000
0000
0000
0000
0000
0000
0300
0000
0000
0010
,
0100
0010
0000
0000
1001
0000
0000
0000
1100
0000
0010
0000
0010
0000
0100
0000
,
0100
0000
0000
0000
1100
0000
0010
0000
1010
0000
0000
0000
0100
0010
0100
0010
,
0000
1000
1001
0000
1100
0010
0010
1000
,
0001
0000
0010
0000
0001
0000
0100
0000
0100
0000
0010
1000
0000
0000
1000
0000
,
0002
0000
0000
0000
0000
0000
0000
0000
0000
0000
0010
0000
0013
0100
1000
0000
,
0000
0000
1001
0000
0000
0000
0100
0000
0001
0010
0001
0000
0100
0000
0000
0000
,
0100
0000
0010
0000
0010
0000
1000
0001
1000
0000
0000
0000
0110
0000
0000
0000
,
1000
1000
0001
0010
0001
0100
0010
0100
,
0000
0000
2200
3300
0000
0000
2020
3030
0000
0000
0220
0330
0000
0000
0002
0000
,
1000
0103
0100
0000
0010
0000
0110
0000
,
0001
0010
0001
1000
0000
1001
0000
0000
,
0100
0000
0010
0000
0100
0001
0010
0100
,
0200
0000
0300
0000
2002
3003
0000
0000
2200
3300
0000
0000
0100
0000
0100
0000
,
0010
0000
0000
0000
0110
0000
0000
0000
0001
0000
0001
0000
1000
0000
0100
0010
,
0100
0010
0000
0000
0000
0001
0000
0010
0001
0000
1100
0000
0000
0000
0100
0000
,
0010
0000
0000
0000
1000
0000
0000
0000
1000
0000
0010
0000
0100
0001
0000
0000
,
0001
0000
1000
0000
0000
1000
0000
0010
0000
0000
0110
0000
0000
0000
0010
0000
,
0001
1100
0000
0010
0100
0010
0000
0001
,
0001
1000
0100
1000
0001
0001
0100
0100
,
0010
1000
0100
0000
1001
0010
0010
0100
,
2000
0000
0002
0003
0020
0030
0200
3300
0000
0000
2002
3003
0000
0000
0000
0000
,
1010
0000
0000
0000
0100
0000
0010
0000
0100
0000
0000
0000
0001
0000
1000
0010
,
1000
0000
0000
0000
0100
0000
1000
0000
0001
0010
0001
0000
0100
0000
0000
0000
,
0100
0000
0010
0000
0000
0000
0010
0000
1000
0000
1000
0000
0001
0000
0000
0100
,
0010
0100
0001
0001
1100
0000
0000
0010
,
0100
0100
0011
0000
0100
1000
0100
1000
,
0001
0001
0000
0100
0010
0100
0000
0001
,
1000
0001
0000
0010
0100
0100
0000
1000
,
0002
0000
0000
0000
,
0000
2000
0003
0000
0000
0000
3000
0010
,
0010
0100
1001
0000
0000
0000
0000
0000
;
