#VERSION:0.83;
#TITLE:Raspberry Heart;
#SUBTITLE:(JP version);
#ARTIST:Jun;
#TITLETRANSLIT:;
#SUBTITLETRANSLIT:;
#ARTISTTRANSLIT:;
#GENRE:;
#ORIGIN:;
#CREDIT:;
#BANNER:Raspberry Heart (Japanese version).png;
#BACKGROUND:Raspberry Heart (Japanese version)-bg.png;
#PREVIEWVID:;
#JACKET:Raspberry Heart (Japanese version)-jacket.png;
#CDIMAGE:;
#DISCIMAGE:;
#LYRICSPATH:;
#CDTITLE:cdtitle.png;
#MUSIC:Raspberry Heart (Japanese version).mp3;
#OFFSET:0.000000;
#SAMPLESTART:24.000000;
#SAMPLELENGTH:13.875000;
#SELECTABLE:YES;
#BPMS:0.000=160.000;
#STOPS:;
#DELAYS:;
#WARPS:;
#TIMESIGNATURES:0.000=4=4;
#TICKCOUNTS:0.000=4;
#COMBOS:0.000=1;
#SPEEDS:0.000=1.000=0.000=0;
#SCROLLS:0.000=1.000;
#FAKES:;
#LABELS:0.000=Song Start;
#BGCHANGES:;
#KEYSOUNDS:;
#ATTACKS:
;

//---------------dance-single - ----------------
#NOTEDATA:;
#CHARTNAME:;
#STEPSTYPE:dance-single;
#DESCRIPTION:;
#CHARTSTYLE:;
#DIFFICULTY:Beginner;
#METER:1;
#RADARVALUES:0.213483,0.296362,0.105373,0.009579,0.000000,156.000000,145.000000,11.000000,1.000000,0.000000,0.000000,0.000000,0.000000,0.000000,0.213483,0.296362,0.105373,0.009579,0.000000,156.000000,145.000000,11.000000,1.000000,0.000000,0.000000,0.000000,0.000000,0.000000;
#CREDIT:;
#NOTES:
0000
0000
0000
0000
,
0000
0000
0000
0000
,
0000
0000
0000
0000
,
0000
0000
0000
0000
,
0000
0000
0000
0000
,
0000
0000
0000
0000
,
0000
0000
0000
0000
,
0000
0000
0000
0000
,
0010
0000
1000
0000
,
1000
0000
0010
0000
,
0001
0000
0010
0000
,
0100
0000
1000
0000
,
1001
0000
0010
0010
,
0000
0001
0000
0010
,
0000
0100
0000
0000
,
0100
0100
0010
0000
,
0001
0010
0000
0100
,
1000
0000
1001
0000
,
0010
0010
0000
1000
,
0010
0000
0100
1000
,
1001
0000
0010
0010
,
0000
0010
0000
0000
,
1000
0000
0001
0000
,
1000
0000
0100
0000
,
0010
0001
0000
0010
,
0000
1000
0000
0010
,
0000
0010
0000
0100
,
0001
0001
1000
0100
,
0110
0000
0000
0000
,
0010
1000
0010
0000
,
0100
0001
0000
0001
,
1001
0000
0100
0000
,
0010
0000
1000
0000
,
0100
0100
0000
0010
,
0000
0001
0000
1000
,
0000
0000
0100
0100
,
0000
0010
0000
0001
,
0000
0000
0100
0000
,
0010
1000
0000
0001
,
0000
1000
0000
0000
,
0100
0010
0000
0001
,
1000
0000
0100
0000
,
0010
1000
0001
0000
,
0010
0100
0000
1000
,
0001
0001
0010
0010
,
0100
0000
1001
0000
,
0100
0000
0010
0000
,
0100
0000
1000
0000
,
0010
0000
2000
0000
0000
0000
0000
3000
,
0100
0010
0001
0010
,
0100
1000
1001
0000
,
0100
0100
0000
0010
,
0010
0000
0100
0000
,
1001
0000
0010
0010
,
0000
0100
1000
0000
,
1000
0010
0100
0000
,
0001
0001
1000
1000
,
0110
0000
0100
0000
,
1000
0000
0110
0000
,
0001
0000
0001
0000
,
0010
0000
0100
0000
,
1001
0000
0000
0000
,
0100
0001
0000
1000
,
0010
0000
0100
0000
,
0001
0100
0000
0010
,
0000
0001
0000
1000
,
0000
1000
0000
0010
,
0000
0100
0000
1000
,
0000
0001
0001
0001
;

//---------------dance-single - ----------------
#NOTEDATA:;
#CHARTNAME:;
#STEPSTYPE:dance-single;
#DESCRIPTION:;
#CHARTSTYLE:;
#DIFFICULTY:Easy;
#METER:5;
#RADARVALUES:0.276433,0.362220,0.210746,0.009579,0.000000,202.000000,180.000000,22.000000,1.000000,0.000000,0.000000,0.000000,0.000000,0.000000,0.276433,0.362220,0.210746,0.009579,0.000000,202.000000,180.000000,22.000000,1.000000,0.000000,0.000000,0.000000,0.000000,0.000000;
#CREDIT:;
#NOTES:
0000
0000
0000
0000
,
0000
0000
0000
0000
,
0000
0000
0000
0000
,
0000
0000
0000
0000
,
0000
0000
0000
0000
,
0000
0000
0000
0000
,
0000
0000
0000
0000
,
0000
0000
0000
0000
,
0001
0010
0100
1000
,
0100
0010
1001
0000
,
0010
0010
0100
0010
,
0001
1000
0010
0100
,
1001
0000
0100
0010
,
0100
0001
1000
1000
,
0010
0100
0000
0000
,
1000
1001
0010
0110
,
0000
0100
0010
0001
,
0001
0010
0100
0000
,
1000
1000
0010
0100
,
0001
0100
0010
1000
,
1001
0000
0100
0100
,
0010
1000
0001
0000
,
0100
0000
0010
0010
,
0000
0100
0000
1000
,
0100
0000
0000
0010
,
0000
0100
0000
1000
,
0110
0000
1001
0000
,
0010
0110
1000
1001
,
0001
0000
0000
0000
,
0100
0110
0010
0010
,
1000
0000
0001
0010
,
0100
0000
0100
0000
,
0010
0000
0001
0001
,
0000
0100
1000
0000
,
0010
0010
0001
0100
,
1000
0000
0001
0010
,
1000
0000
0010
0100
,
0100
0000
0010
0100
,
1000
0001
0000
0010
,
1001
0000
0100
0000
,
1001
0010
0000
1000
,
0001
0000
0100
0010
,
0000
0100
1000
0010
,
0001
0000
0100
1000
,
0010
0010
0000
0001
,
0001
0000
0010
0100
,
0010
0000
1000
0010
,
0001
0000
0100
1000
,
0110
0000
0002
0000
,
0003
1000
1000
0010
,
0001
0100
1001
0000
,
0010
0100
1000
0000
,
0010
0001
0000
0100
,
1001
0000
0010
0010
,
0000
0001
0001
1000
,
0000
0010
0100
0000
,
1000
0100
0010
0000
,
1001
1000
0100
0000
,
0010
1000
1001
0000
,
0010
0010
0001
0001
,
0000
0010
0100
0000
,
1001
0000
0000
0010
,
0010
0001
0000
0100
,
0010
1000
1001
0000
,
0010
0100
1000
0000
,
0001
0001
0000
0100
,
0010
1000
0000
0001
,
0000
1000
0010
0100
,
0000
1001
1001
1001
;

//---------------dance-single - ----------------
#NOTEDATA:;
#CHARTNAME:;
#STEPSTYPE:dance-single;
#DESCRIPTION:;
#CHARTSTYLE:;
#DIFFICULTY:Medium;
#METER:8;
#RADARVALUES:0.372227,0.459331,0.565183,0.019159,0.000000,272.000000,213.000000,59.000000,2.000000,0.000000,0.000000,0.000000,0.000000,0.000000,0.372227,0.459331,0.565183,0.019159,0.000000,272.000000,213.000000,59.000000,2.000000,0.000000,0.000000,0.000000,0.000000,0.000000;
#CREDIT:;
#NOTES:
0000
0000
0000
0000
,
0000
0000
0000
0000
,
0000
0000
0000
0000
,
0000
0000
0000
0000
,
0000
0000
0000
0000
,
0000
0000
0000
0000
,
0000
0000
0000
0000
,
0000
0000
0000
0000
,
0010
1010
1100
0010
,
0100
0101
1001
0000
,
0011
0100
1100
0001
,
0010
0100
0110
0100
,
1001
0000
0010
0100
,
0010
1000
0011
0001
,
0010
0100
0100
0000
,
1000
1100
0100
0110
,
0001
0011
0010
0001
,
0100
1000
0110
0000
,
0100
0100
0010
0001
,
1000
0110
0010
1000
,
1001
0000
0100
0100
,
0001
0010
0100
1000
,
0011
0100
1100
0001
,
0020
0000
0000
0000
,
0130
1000
1000
1000
,
0100
0010
0010
0010
,
1001
0110
0000
0000
,
1000
1100
0100
0110
,
0011
0000
0000
0000
,
0100
0100
0010
1000
,
1000
0000
0000
0010
,
0100
0000
0001
0000
,
1001
0100
0100
0010
,
0001
0100
1000
0000
,
0010
0100
0100
0010
,
0001
1000
1000
0010
,
0110
0001
0001
1000
,
0100
0001
0100
0010
,
1000
0001
0001
0100
,
0000
0010
1001
0000
,
0100
1000
0001
0100
,
0010
0001
1000
0000
,
0100
0100
0010
0010
,
1000
0001
0010
0000
,
0100
0100
0010
0001
,
0100
0010
1000
1001
,
0010
0001
0100
0100
,
0010
0001
1000
0100
,
0110
0000
2000
0000
0000
0000
0000
3000
,
0010
1010
0011
0100
,
0010
1100
1001
0000
,
0100
0110
1001
0001
,
0110
0100
0010
1000
,
1001
0000
0100
0100
,
0011
1010
1100
0001
,
0011
0100
1100
0000
,
0010
1010
0110
1010
,
1000
1001
0011
0100
,
0010
1000
1001
0000
,
0010
1010
1100
0100
,
0001
0011
0110
1000
,
1001
0000
0000
0010
,
1010
0100
1000
0001
,
0011
0010
0100
0001
,
1100
1000
0010
0011
,
0100
0010
1100
1000
,
0001
0001
0100
1000
,
1000
0010
0100
0100
,
1001
1001
1001
0000
;

//---------------dance-single - ----------------
#NOTEDATA:;
#CHARTNAME:;
#STEPSTYPE:dance-single;
#DESCRIPTION:;
#CHARTSTYLE:;
#DIFFICULTY:Hard;
#METER:11;
#RADARVALUES:0.403702,0.557759,0.392754,0.047897,0.000000,295.000000,254.000000,41.000000,5.000000,0.000000,0.000000,0.000000,0.000000,0.000000,0.403702,0.557759,0.392754,0.047897,0.000000,295.000000,254.000000,41.000000,5.000000,0.000000,0.000000,0.000000,0.000000,0.000000;
#CREDIT:;
#NOTES:
0000
0000
0000
0000
,
0000
0000
0000
0000
,
0000
0000
0000
0000
,
0000
0000
0000
0000
,
0000
0000
0000
0000
,
0000
0000
0000
0000
,
0000
0000
0000
0000
,
0000
0000
0000
0000
,
1000
0110
1001
0001
,
0110
1000
1010
0000
,
0100
1010
1100
0001
,
0011
0100
0010
1010
,
0110
0000
0000
0001
0010
0001
1000
0000
,
0100
0000
0100
0000
0010
0000
0000
1000
,
1100
0000
0010
1010
0000
0000
0000
0000
,
1000
1100
0010
0100
,
0010
0010
0001
0000
1100
0000
0101
0000
,
1000
0001
0010
0000
1100
0000
0000
0010
,
0010
0000
0100
0000
1000
0010
0001
0000
,
0001
0000
0100
1000
0010
0000
0100
0100
,
2002
3003
0000
0000
0010
0010
0100
0000
,
0001
1000
0000
0100
1000
0010
0010
0000
,
1100
0000
1000
0011
0000
0100
0100
0000
,
2000
0000
0000
0000
,
3001
0010
0010
0100
0010
0001
1000
0100
,
1000
1000
1000
0001
0001
0010
0100
0000
,
0110
0000
0001
1000
1010
0000
0000
0000
,
0010
0000
0010
1000
0100
0010
0001
0000
,
0110
0000
0000
0000
,
1000
0000
0001
0100
0010
0000
0001
0000
,
1001
0000
0000
0000
0000
1000
0010
0100
,
0000
0000
1001
0000
,
1010
0000
0000
0000
0000
0000
0010
0010
,
0100
0000
1000
0100
1000
0000
0001
0000
,
0010
0000
0100
0000
0010
1000
0000
0000
,
0000
0000
0000
0000
,
1001
0000
0000
0010
,
0001
1000
0001
0000
0100
0000
0010
0000
,
1000
0000
1000
0100
0020
0000
0000
0000
,
0030
0000
0000
0000
,
1000
1100
0010
0110
,
0001
1001
0001
0000
,
1000
0100
0100
0010
,
0100
0000
0100
1000
0010
0001
0000
0000
,
0100
0001
0010
0010
,
0100
1000
1001
0000
,
0100
0000
1000
0010
1000
0000
0001
0010
,
0100
0000
0010
0000
1000
0001
1000
0000
,
0210
0000
0010
0000
0010
0000
0010
0300
,
0001
0001
0010
0000
0010
0001
1000
0000
,
1000
0100
0010
0000
0100
1001
0000
0000
,
0010
0000
0100
0000
0010
1000
0100
1000
,
0000
0001
1000
0010
0100
0000
0010
0100
,
1001
0000
0000
0000
0010
0010
0000
0100
,
0001
0000
1000
0010
0100
0010
1000
0000
,
1100
0000
0001
0000
0011
0000
0000
1000
,
0100
0000
0001
0000
0010
0100
1000
0000
,
1001
0000
0100
1000
0010
0000
0100
0000
,
0010
0100
1000
0000
1001
0000
0000
0000
,
0010
0010
0100
1000
,
0010
0000
0001
1000
0001
0000
0100
0000
,
1001
0000
0000
0000
,
0010
0000
0001
0000
1000
0010
1000
0000
,
0100
0000
0010
1000
0100
0000
0001
1000
,
0010
0000
0000
0000
0000
0000
1000
0100
,
1000
0001
1000
0110
,
0000
0000
0000
0010
,
0010
0000
1000
0000
1000
0100
0000
0000
,
0011
0001
1010
0100
0110
0000
0000
0000
;

//---------------dance-single - ----------------
#NOTEDATA:;
#CHARTNAME:;
#STEPSTYPE:dance-single;
#DESCRIPTION:;
#CHARTSTYLE:;
#DIFFICULTY:Challenge;
#METER:13;
#RADARVALUES:0.551498,0.590568,0.392754,0.038317,0.000000,403.000000,362.000000,41.000000,4.000000,0.000000,0.000000,0.000000,0.000000,0.000000,0.551498,0.590568,0.392754,0.038317,0.000000,403.000000,362.000000,41.000000,4.000000,0.000000,0.000000,0.000000,0.000000,0.000000;
#CREDIT:;
#NOTES:
// measure 0
0000
0000
0000
0000
,  // measure 1
0000
0000
0000
0000
,  // measure 2
0000
0000
0000
0000
,  // measure 3
0000
0000
0000
0000
,  // measure 4
0000
0000
0000
0000
,  // measure 5
0000
0000
0000
0000
,  // measure 6
0000
0000
0000
0000
,  // measure 7
0000
0000
0000
0000
,  // measure 8
0010
0100
0100
0001
0010
1100
1000
0001
,  // measure 9
0010
0000
0110
1000
1001
0000
0000
0000
,  // measure 10
0010
0000
0001
0010
0100
0000
0100
0010
,  // measure 11
1000
0100
1000
0001
0010
0100
0010
1000
,  // measure 12
1001
0000
0000
0000
0100
0010
0010
0000
,  // measure 13
0100
1000
0001
0010
0100
0000
0100
0010
,  // measure 14
1000
0001
0011
1000
1100
0000
0000
0000
,  // measure 15
0010
0000
0100
0000
0010
0000
1000
0100
,  // measure 16
0001
0010
0010
0100
1000
0001
0100
0000
,  // measure 17
0010
0100
0010
1000
1001
0000
0000
0000
,  // measure 18
1000
0100
0010
0000
0010
0100
0001
0010
,  // measure 19
0001
0100
1000
0000
0100
0010
0100
0010
,  // measure 20
1001
0000
0000
0000
1000
1000
1000
0010
,  // measure 21
0100
0010
0000
0001
1000
0100
1000
0001
,  // measure 22
0011
0000
0010
1000
1100
0000
0010
0000
,  // measure 23
1002
0100
0010
0000
0100
0010
1003
0000
,  // measure 24
0100
0100
0100
0010
0001
1000
0100
1000
,  // measure 25
0010
0100
0100
0100
0001
0001
0000
0010
,  // measure 26
1000
1000
1000
0100
0100
0100
1000
0000
,  // measure 27
0010
0011
1100
0110
,  // measure 28
0011
1000
0000
0100
0000
0010
0000
0010
,  // measure 29
1000
0001
1100
0000
0100
0000
0010
0000
,  // measure 30
1000
0001
0000
0100
0000
0010
0001
0000
,  // measure 31
0011
0100
0000
0010
1001
0100
0000
0010
,  // measure 32
1100
0000
0000
0000
0000
0000
1000
1000
,  // measure 33
0010
0100
0001
0010
0001
0100
1000
0000
,  // measure 34
1000
0010
0100
0010
0001
1000
1000
0000
,  // measure 35
0120
0030
1000
0000
1001
0000
0010
0000
,  // measure 36
0110
0000
0000
0000
0000
1000
1000
0010
,  // measure 37
0001
0000
0001
0100
0010
0010
1000
0100
,  // measure 38
0001
1000
0010
0001
0010
0001
0100
0000
,  // measure 39
1000
0010
1010
0000
,  // measure 40
0100
0100
0001
0100
0010
1000
0100
1000
,  // measure 41
0011
0000
0100
0010
1000
0000
1100
0000
,  // measure 42
0010
0010
0100
0000
0010
0100
1000
0001
,  // measure 43
0001
0100
0010
1000
1001
0000
0000
0100
,  // measure 44
0100
0000
1000
0001
0010
0100
0000
1000
,  // measure 45
0001
1000
0010
0001
0010
1000
1000
0000
,  // measure 46
0100
0010
0100
0000
1000
0100
0010
1000
,  // measure 47
0001
0000
0010
0001
0100
0010
0100
0000
,  // measure 48
1002
0000
1000
0000
1000
0000
1000
0003
,  // measure 49
0010
0000
1010
0000
0001
0010
0001
0100
,  // measure 50
0010
1000
0100
0000
1001
0000
0000
0010
,  // measure 51
0010
0001
0100
0010
1000
0100
1000
0001
,  // measure 52
0000
0001
0100
0010
0000
0100
0010
1000
,  // measure 53
1001
0000
0000
0000
0100
0100
0000
0010
,  // measure 54
1000
0000
0100
1000
0001
0001
0000
1000
,  // measure 55
1100
0010
1000
0001
0011
0000
0000
1000
,  // measure 56
1000
0000
0100
0010
1000
0001
1000
0010
,  // measure 57
0110
0000
1010
0000
0100
0001
1100
0000
,  // measure 58
1000
0010
0100
0010
1001
0000
0000
0000
,  // measure 59
0010
1000
0001
0000
0001
0100
0010
1000
,  // measure 60
0100
1000
0001
0001
0100
0010
0100
0010
,  // measure 61
1001
0010
1000
0100
,  // measure 62
0001
0010
1000
0100
1000
0001
0010
0100
,  // measure 63
0100
0010
2001
0000
3001
0000
0001
1000
,  // measure 64
0010
0100
0000
0100
1000
0001
0010
0100
,  // measure 65
0010
0001
1000
1000
0010
0100
0010
0000
,  // measure 66
0001
0000
0100
0000
1000
0000
0010
0010
,  // measure 67
1000
0001
0010
0100
0010
0000
0100
0000
,  // measure 68
0001
0011
0010
0110
1100
0000
0000
0000
;
