#TITLE:Raspberry Heart Japanese;
#SUBTITLE:(Full Version);
#ARTIST:jun;
#TITLETRANSLIT:;
#SUBTITLETRANSLIT:;
#ARTISTTRANSLIT:;
#GENRE:;
#CREDIT:PaperBox440;
#BANNER:Raspberry Heart Japanese (Full Version).png;
#BACKGROUND:Raspberry Heart Japanese (Full Version)-bg.png;
#LYRICSPATH:;
#CDTITLE:;
#MUSIC:Raspberry Heart Japanese (Full Version).mp3;
#OFFSET:0.000000;
#SAMPLESTART:73.500000;
#SAMPLELENGTH:12.000000;
#SELECTABLE:YES;
#BPMS:0.000000=160.000000
;
#STOPS:
;
#BGCHANGES:;
#KEYSOUNDS:;
#ATTACKS:;

//---------------dance-single - ----------------
#NOTES:
     dance-single:
     :
     Hard:
     13:
     0.583356,0.946537,0.460112,0.199382,0.009586,1065.000000,945.000000,120.000000,52.000000,0.000000,0.000000,0.583356,0.946537,0.460112,0.199382,0.009586,1065.000000,945.000000,120.000000,52.000000,0.000000,0.000000:
// measure 0
0000
0000
0000
0000
,  // measure 1
0110
1000
0010
0100
,  // measure 2
0001
0001
0100
1001
,  // measure 3
0000
0010
0010
0100
,  // measure 4
0001
1000
0010
1000
,  // measure 5
0001
1001
0000
0000
,  // measure 6
0001
0000
0001
0010
0100
0010
1000
0000
,  // measure 7
1000
0100
0000
0100
0010
0020
0000
0000
,  // measure 8
0000
0000
0130
0110
,  // measure 9
0000
0000
1000
0000
1000
0100
0000
0100
,  // measure 10
0010
0000
0100
0010
0001
0000
1001
0000
,  // measure 11
0000
0010
0100
1000
0000
1000
0100
0010
,  // measure 12
0100
0001
0000
0001
0010
0100
1000
0100
,  // measure 13
1000
0010
0110
0000
1000
0000
0010
0001
,  // measure 14
0000
0001
0100
0010
0100
1000
0000
1000
,  // measure 15
0001
0002
0000
0013
0100
0010
1000
0000
,  // measure 16
0100
0000
1000
0000
1100
0010
0001
0010
,  // measure 17
0100
0000
0110
0000
0001
0100
0010
0001
,  // measure 18
0000
0001
1000
0100
1000
0000
1001
0000
,  // measure 19
0000
0010
0001
0001
0100
1000
0000
1000
,  // measure 20
0010
0100
0010
0001
0000
0001
0100
1000
,  // measure 21
0100
0000
1010
0000
0000
0001
0001
0010
,  // measure 22
0010
1000
0100
1000
0010
0010
0100
0001
,  // measure 23
0010
0001
0100
2000
0000
0000
3002
0000
,  // measure 24
0000
0003
0020
0000
0000
0000
0000
0130
,  // measure 25
0000
0000
1000
0000
1000
0001
0010
0001
,  // measure 26
0100
0100
0010
1000
0100
1000
0001
0001
,  // measure 27
0000
1001
0010
0010
0000
1100
0001
0001
,  // measure 28
0010
0000
1010
0000
1000
0001
0010
0001
,  // measure 29
0100
1001
0000
0100
0100
0001
0010
0100
,  // measure 30
0100
0000
1000
0000
1001
0000
0010
0100
,  // measure 31
1000
0001
0100
0200
0000
0300
0000
0001
,  // measure 32
0001
0010
1000
0000
0000
1001
0000
0100
,  // measure 33
0100
0000
1001
0000
0010
0000
0010
0100
,  // measure 34
1000
0000
1000
0001
0010
0001
0100
0000
,  // measure 35
0100
0000
0001
0010
0000
0010
1000
0100
,  // measure 36
1000
0010
0001
0000
0001
0100
0010
0100
,  // measure 37
0000
1001
0100
0000
0100
1000
0001
1000
,  // measure 38
0010
0001
1000
0100
0100
0001
0010
0001
,  // measure 39
0000
1000
0100
0000
0002
0000
0000
0003
,  // measure 40
0010
1000
1000
0100
,  // measure 41
0000
0100
1000
0100
0010
0000
0010
0001
,  // measure 42
0001
1000
0100
1000
0010
0000
0010
0000
,  // measure 43
0001
0010
0001
1000
0000
1000
0010
0001
,  // measure 44
0000
0001
0010
0100
0010
0000
1001
0000
,  // measure 45
0000
0000
1000
0000
1100
0010
0001
0010
,  // measure 46
0100
1001
0100
0110
,  // measure 47
0001
0010
0001
0100
0010
0000
0010
1000
,  // measure 48
0100
1000
0001
0000
0001
0100
0200
0000
,  // measure 49
0300
0010
0010
1000
0000
1000
0001
0010
,  // measure 50
0001
0100
0000
0100
0010
1000
0000
1000
,  // measure 51
0001
0010
0001
0100
0000
0100
0010
0000
,  // measure 52
1000
0000
0010
0100
0100
0001
0010
0001
,  // measure 53
1000
0000
1100
0000
0000
0001
0001
0010
,  // measure 54
0100
0010
1000
0000
1000
0100
0100
0001
,  // measure 55
0010
0100
0100
1000
0000
1001
0000
0000
,  // measure 56
0000
0100
0010
1000
0000
1000
0001
0010
,  // measure 57
0001
0000
1001
0000
0010
0100
0010
0001
,  // measure 58
0000
0001
1000
0100
1000
0000
1100
0000
,  // measure 59
0000
0010
0100
0100
0001
0010
0001
0100
,  // measure 60
1000
0000
1000
0100
0010
0100
0001
0001
,  // measure 61
1000
0000
1001
0000
0000
0100
0100
1000
,  // measure 62
0000
1000
0010
0100
0010
0001
0000
0001
,  // measure 63
1000
0100
1000
0000
2000
0000
0000
0000
,  // measure 64
3000
0000
0100
0000
0010
0100
0001
0000
,  // measure 65
0001
0000
0010
0100
0010
0000
1001
0000
,  // measure 66
0010
0100
0001
0000
0001
1000
0100
1000
,  // measure 67
0010
0100
0000
0100
0001
0010
0001
0100
,  // measure 68
0000
0100
1000
0000
1000
0000
0001
0002
,  // measure 69
0013
0020
0130
0200
0000
0000
0300
0000
,  // measure 70
1000
0000
1000
0001
0010
0001
0100
0000
,  // measure 71
0100
0010
1000
0001
0001
0100
0010
1000
,  // measure 72
0100
1000
0001
0000
0010
2000
0001
3001
,  // measure 73
0000
1001
0000
0010
0000
0110
0000
0000
,  // measure 74
0000
0000
1000
0000
1000
0100
0010
0100
,  // measure 75
0001
0000
0001
0010
0010
0000
1100
0010
,  // measure 76
1010
0000
0001
1000
0100
1000
0001
0000
,  // measure 77
0001
0000
0000
0010
0100
0000
0110
0000
,  // measure 78
1000
1000
0001
0010
0001
0100
0100
0010
,  // measure 79
0000
0010
1000
0100
1000
0001
0000
0001
,  // measure 80
0010
0200
0000
0300
0000
0001
0010
0001
,  // measure 81
0100
0000
0100
0010
0010
0000
1001
0000
,  // measure 82
1000
0100
1000
0000
1001
0000
1000
0010
,  // measure 83
0100
0000
0011
0000
1000
0010
0100
0000
,  // measure 84
0100
0010
1001
0000
1000
0001
0010
0100
,  // measure 85
0010
0000
1100
0000
0000
0001
0010
0000
,  // measure 86
1010
0000
0001
0001
1000
0000
0100
0100
,  // measure 87
0010
0010
1001
0000
0010
0100
0010
0001
,  // measure 88
0000
0001
1000
0100
1000
0010
0020
0000
,  // measure 89
0130
0200
0000
0300
0000
0000
0120
0000
,  // measure 90
0100
0100
0130
1001
,  // measure 91
0010
1000
0001
0010
0100
0000
0100
0001
,  // measure 92
0001
0000
1100
0000
0000
0001
0000
0001
,  // measure 93
1000
0100
1000
0010
0000
0010
0100
0100
,  // measure 94
0001
0010
0001
1000
1000
0000
0110
0000
,  // measure 95
0000
0001
1000
0001
0100
0100
0010
1000
,  // measure 96
0100
1000
0001
0000
0001
0010
1100
0000
,  // measure 97
0101
0000
0000
0000
0000
0100
1000
0001
,  // measure 98
0001
0010
0100
0000
0010
0010
0000
1000
,  // measure 99
0000
1000
0010
0100
0001
0001
1000
0100
,  // measure 100
1000
0000
1001
0000
0010
0100
0001
0000
,  // measure 101
0100
0010
0000
0010
0001
1000
0100
1000
,  // measure 102
0000
1000
0010
0001
0010
0000
0011
0000
,  // measure 103
0000
0100
0100
0010
0001
0010
1000
1000
,  // measure 104
0000
0100
0000
0100
0001
0002
0000
1003
,  // measure 105
2000
0000
0000
0000
3000
0001
0002
0000
,  // measure 106
0000
0000
0000
0000
0003
0000
1000
1000
,  // measure 107
0100
0010
0010
0000
0100
0100
0001
0010
,  // measure 108
0001
0000
1001
0000
0100
0100
0010
0000
,  // measure 109
0100
0000
1001
0000
0010
0010
1000
1000
,  // measure 110
0001
0001
0000
0000
0000
1000
1000
0001
,  // measure 111
0010
0001
0000
0000
0100
0100
0010
1000
,  // measure 112
0000
1001
0000
0100
0000
0010
0100
0010
,  // measure 113
0000
0110
1000
0001
1000
0100
0000
0100
,  // measure 114
0020
0000
0000
0000
0030
0000
0000
0000
0000
0000
0000
0000
1001
0000
0000
0100
,  // measure 115
0001
0000
0001
0000
0010
0000
0100
0000
0100
0000
1000
0000
0100
0000
1000
0010
,  // measure 116
0001
0000
0001
0000
0010
0000
0100
0000
0100
0000
0010
0000
1000
0000
1000
0100
,  // measure 117
0001
0010
0001
0100
0100
0010
1000
1000
,  // measure 118
0001
0000
1010
0000
0110
0000
0100
1000
,  // measure 119
0001
0001
0200
0000
0000
0000
0300
0000
,  // measure 120
0001
0100
0001
0001
,  // measure 121
0100
0001
1000
2000
,  // measure 122
0002
0000
0000
0000
0000
0000
3003
0010
,  // measure 123
0010
1000
1100
1100
0001
0010
0110
0110
,  // measure 124
0001
0001
1000
1000
1100
1100
0010
0100
,  // measure 125
0101
0001
0011
1000
1000
0100
0100
0011
,  // measure 126
0011
0000
1001
1000
0010
0010
0100
1000
,  // measure 127
0001
1000
1001
0100
1010
0110
0110
0001
,  // measure 128
0001
1100
1100
0011
0011
0001
0110
0100
,  // measure 129
0011
1010
1100
1000
0100
0100
0010
0001
,  // measure 130
0001
0100
0100
0020
0000
0030
0100
0000
,  // measure 131
0101
0000
0011
1000
0100
0100
2000
0000
,  // measure 132
0000
3001
0000
0001
0000
0001
2000
0000
,  // measure 133
0000
3000
0020
0230
0302
0003
0001
0001
,  // measure 134
1000
1000
2000
0000
3000
0000
1001
0000
,  // measure 135
0000
1000
1100
1100
0001
0001
1010
0110
,  // measure 136
0001
1001
1001
0100
0110
0110
0001
1001
,  // measure 137
1001
0100
1010
1010
0001
0000
0101
0000
,  // measure 138
0110
0000
1010
0000
1001
0000
0100
1000
,  // measure 139
0000
1000
0010
0100
0010
0001
0001
0100
,  // measure 140
0100
0000
1001
0000
0010
0001
0100
0000
,  // measure 141
0100
0010
0100
0001
0001
1000
0100
1000
,  // measure 142
0001
0001
0100
0010
0010
0000
1100
0000
,  // measure 143
0000
0100
0000
0100
0010
0010
1000
0100
,  // measure 144
1000
0001
0001
0000
1010
0000
0110
0000
,  // measure 145
0100
0000
0010
1010
,  // measure 146
0001
0010
0001
0100
0100
0000
0001
0000
,  // measure 147
1001
0000
1000
0000
1000
0100
0010
0100
,  // measure 148
0001
0001
1100
0000
0001
0010
0100
0001
,  // measure 149
0001
0100
0010
0010
1000
0100
1000
0001
,  // measure 150
0000
0001
0010
0100
0010
0000
2020
0000
,  // measure 151
3030
0000
0000
0000
1000
0100
1000
0001
,  // measure 152
0010
0100
0100
0001
0010
0001
1000
0100
,  // measure 153
0200
0000
0000
0300
0000
0010
0010
0001
,  // measure 154
1000
0100
1000
0001
0010
0000
1010
0000
,  // measure 155
0220
0330
1001
1100
,  // measure 156
0202
0000
0303
0000
0010
0100
0010
1000
,  // measure 157
2020
0000
3030
0000
0100
0001
0100
0000
,  // measure 158
0202
0000
0303
0000
1000
0010
0100
0001
,  // measure 159
0001
0000
2000
0000
0000
0000
3000
0000
0000
0000
0000
0000
0001
0010
0001
0000
,  // measure 160
1000
0100
1000
0000
0100
0000
0010
0000
0100
0000
0001
0000
0002
0000
1000
0000
,  // measure 161
2003
3000
0010
0100
,  // measure 162
0100
0000
0000
0000
1001
0000
1000
0010
,  // measure 163
0010
0200
0000
0300
1001
0000
0001
0010
,  // measure 164
0010
0200
0000
0300
1000
1000
0001
0010
,  // measure 165
0200
0300
1000
1000
0001
0010
1100
0000
,  // measure 166
0200
0000
0300
0000
1000
0001
1000
0100
,  // measure 167
0020
0030
0100
0100
,  // measure 168
0002
0000
1003
0000
1000
0100
0010
0100
,  // measure 169
0200
0000
0300
0000
0010
0000
1001
1001
,  // measure 170
1001
1001
1001
0000
0000
0000
0000
0000
;
