#TITLE:RINNE;
#SUBTITLE:;
#ARTIST:GeMiNioN;
#TITLETRANSLIT:;
#SUBTITLETRANSLIT:;
#ARTISTTRANSLIT:;
#GENRE:;
#CREDIT:PaperBox440;
#BANNER:RINNE.png;
#BACKGROUND:RINNE-bg.png;
#LYRICSPATH:;
#CDTITLE:;
#MUSIC:RINNE.mp3;
#OFFSET:0.000000;
#SAMPLESTART:59.090908;
#SAMPLELENGTH:16.363636;
#SELECTABLE:YES;
#BPMS:0.000000=198.000000
;
#STOPS:
;
#BGCHANGES:;
#KEYSOUNDS:;
#ATTACKS:;

//---------------dance-single - ----------------
#NOTES:
     dance-single:
     :
     Hard:
     14:
     0.610192,0.657973,0.512868,0.505213,0.000000,558.000000,491.000000,67.000000,66.000000,0.000000,0.000000,0.610192,0.657973,0.512868,0.505213,0.000000,558.000000,491.000000,67.000000,66.000000,0.000000,0.000000:
// measure 0
0000
0000
0000
0000
,  // measure 1
1001
0000
0100
0000
0110
0000
0001
0010
,  // measure 2
0100
0000
1000
0001
1000
0000
0100
0010
,  // measure 3
0100
2000
0100
3100
,  // measure 4
0001
1001
1100
0100
,  // measure 5
0110
0000
0001
0000
1001
0000
2200
3300
,  // measure 6
0220
0330
0022
0000
0033
0000
2002
0000
,  // measure 7
3003
0000
0100
0010
0100
0010
0000
0001
,  // measure 8
0100
0100
1000
1000
0001
0010
0001
1000
,  // measure 9
1000
1001
1100
0100
,  // measure 10
0100
0001
1000
0001
0000
0010
0100
0100
,  // measure 11
0002
0000
0000
0003
,  // measure 12
0010
0100
1000
1000
0100
0010
0100
0001
,  // measure 13
0000
0001
2000
0000
0010
0000
0100
3000
,  // measure 14
0000
0100
0001
0010
0001
0000
1000
0010
,  // measure 15
0100
0001
0000
0001
1000
0000
1000
0000
,  // measure 16
0010
0100
0100
0001
0010
0001
1000
1000
,  // measure 17
0000
2002
0000
3003
,  // measure 18
0010
0100
0010
0000
1000
0001
1000
0000
,  // measure 19
0002
0000
0000
0000
0003
0000
0000
0100
,  // measure 20
0010
0000
1000
0000
1000
0010
0100
0000
,  // measure 21
2000
0000
0000
0000
0000
3000
0100
0010
,  // measure 22
1000
1000
0000
0001
1000
0010
0010
0000
,  // measure 23
0100
0001
0001
1000
1000
0001
0010
0001
,  // measure 24
1000
1000
0100
0010
0100
0000
1001
1001
,  // measure 25
0000
0200
0000
0310
0000
0001
0100
0000
,  // measure 26
0100
0000
0010
1000
0100
1000
0001
0000
,  // measure 27
0001
0000
1100
0000
1010
0000
0001
0100
,  // measure 28
1000
0000
1000
0001
0001
0000
2000
0000
,  // measure 29
3001
0000
0100
0001
1000
1000
0001
0010
,  // measure 30
0001
0000
0010
0100
1000
0000
1000
0001
,  // measure 31
0001
0000
2000
0000
3002
0000
0003
0200
,  // measure 32
0000
0000
0320
0000
0000
2030
0000
0000
,  // measure 33
0000
0000
0000
0000
3001
0010
0100
0000
,  // measure 34
1001
0000
0100
1000
0001
0001
0000
0100
,  // measure 35
1000
0001
0100
0100
0000
0000
0010
0001
,  // measure 36
1000
1000
0000
0001
0100
0100
0000
0010
,  // measure 37
0001
1000
1000
0000
0002
0000
0000
0003
,  // measure 38
0100
0100
0010
0000
0001
0000
1000
1000
,  // measure 39
0001
0100
0010
0000
1100
0000
1001
0000
,  // measure 40
0000
0110
0000
1010
0000
0000
0110
0000
,  // measure 41
0000
2002
0000
0000
0000
0000
0000
0000
,  // measure 42
3003
0000
0000
0010
0100
0000
1000
0001
,  // measure 43
1000
0010
0110
1100
,  // measure 44
1001
0000
0000
0010
0100
0010
0000
1000
,  // measure 45
0001
0110
1010
1100
,  // measure 46
2002
0000
0000
0000
3003
0000
0100
0010
,  // measure 47
0100
0000
0001
1000
1000
0000
0010
0100
,  // measure 48
0100
0001
2000
0000
0000
3000
0100
0001
,  // measure 49
0001
0000
0020
0000
0000
0030
0100
0000
,  // measure 50
0100
1000
1000
0001
0010
0001
1000
1000
,  // measure 51
0000
0100
0010
0100
0001
0000
0001
1000
,  // measure 52
1000
0000
2002
0000
0000
3003
0000
0010
,  // measure 53
0000
1100
0000
1001
0000
0100
0100
0000
,  // measure 54
0110
0000
1010
0000
1000
1000
0000
0100
,  // measure 55
0010
0100
0001
0001
1000
1000
0001
0000
,  // measure 56
0011
0110
1010
0110
,  // measure 57
0001
1000
2002
0000
0000
3003
0000
0010
,  // measure 58
0100
0010
0200
0000
0000
0320
0000
0000
,  // measure 59
0000
2030
0000
0000
3001
0000
0100
1000
,  // measure 60
0001
1000
2000
0000
0000
3010
0100
0000
,  // measure 61
0100
0000
0010
0000
0100
0001
0001
1000
,  // measure 62
0000
1000
0010
0000
0010
0000
0100
0001
,  // measure 63
0001
0000
0010
0100
0010
0000
1001
0000
,  // measure 64
0110
0011
1001
0110
,  // measure 65
2000
0000
0000
0000
0001
0010
3100
0000
,  // measure 66
1000
0000
1000
0000
0001
0010
0100
0000
,  // measure 67
0100
0010
1000
0000
1000
0001
0000
1000
,  // measure 68
0010
0001
0100
0100
0000
0100
0001
1000
,  // measure 69
0001
0000
0220
0000
0330
2020
0000
3030
,  // measure 70
0000
0001
1000
0000
1000
0001
0100
0000
,  // measure 71
0010
0010
0000
1000
0001
1000
0000
0000
,  // measure 72
0001
0100
0100
0000
1000
0001
1000
0000
,  // measure 73
2200
3300
0000
0001
0100
0010
0100
0000
,  // measure 74
2002
3003
0000
0100
1000
0001
0001
0000
,  // measure 75
2200
3300
0000
0010
0001
0100
0001
0000
,  // measure 76
0220
0330
0000
1000
0001
0000
1000
0000
,  // measure 77
2200
3300
0000
0000
2002
3003
0000
0000
,  // measure 78
0220
0330
0000
0000
2002
3003
0000
0000
,  // measure 79
2200
3300
0000
1000
0010
0000
0100
0010
,  // measure 80
0001
1000
0000
0100
0020
0000
0030
0000
,  // measure 81
1000
0001
0001
2000
0000
3000
0001
0000
,  // measure 82
0100
0010
0000
0001
1000
1000
0000
0001
,  // measure 83
0100
0100
0000
0100
0001
1000
1000
0000
,  // measure 84
0010
0200
0000
0300
0000
0001
1000
0000
,  // measure 85
1000
0000
0001
0100
0100
0000
0001
1000
,  // measure 86
0000
1000
0001
0000
0100
0010
0100
0000
,  // measure 87
0001
1000
0000
1000
0001
0000
1000
0000
,  // measure 88
1100
0010
0100
0000
0110
0000
1010
0000
,  // measure 89
1000
0002
0000
0000
1003
0000
1000
0010
,  // measure 90
0100
0000
0100
0001
1000
1000
0001
0000
,  // measure 91
0001
1000
0000
0010
0100
1000
1000
0001
,  // measure 92
0000
0001
1000
0000
1001
0000
0100
0010
,  // measure 93
0000
1000
1000
0001
0010
0000
0110
1000
,  // measure 94
1000
0001
0000
0001
0100
0010
0000
1000
,  // measure 95
1000
0001
0010
0000
1100
0000
0010
0000
,  // measure 96
0110
1000
0011
0110
,  // measure 97
2002
0000
0000
0000
3003
0000
0100
0100
,  // measure 98
0010
0010
0000
0001
0100
0100
1000
1000
,  // measure 99
0001
0010
0001
1000
1000
0000
0010
0100
,  // measure 100
0100
0000
0001
0001
1000
1000
0000
0001
,  // measure 101
1000
0001
0000
0000
0000
0000
0000
0000
;
