#VERSION:0.83;
#TITLE:RED ZONE [error];
#SUBTITLE:;
#ARTIST:4096;
#TITLETRANSLIT:RED ZONE error;
#SUBTITLETRANSLIT:;
#ARTISTTRANSLIT:;
#GENRE:;
#ORIGIN:;
#CREDIT:;
#BANNER:RED ZONE error.png;
#BACKGROUND:RED ZONE error-bg.png;
#PREVIEWVID:;
#JACKET:RED ZONE error-jacket.png;
#CDIMAGE:;
#DISCIMAGE:;
#LYRICSPATH:;
#CDTITLE:cdtitle.png;
#MUSIC:RED ZONE error.mp3;
#OFFSET:0.000000;
#SAMPLESTART:70.199997;
#SAMPLELENGTH:14.181824;
#SELECTABLE:YES;
#BPMS:0.000=165.000,
123.000=100.000,
125.000=165.000;
#STOPS:123.000=1.000;
#DELAYS:;
#WARPS:;
#TIMESIGNATURES:0.000=4=4;
#TICKCOUNTS:0.000=4;
#COMBOS:0.000=1;
#SPEEDS:0.000=1.000=0.000=0;
#SCROLLS:0.000=1.000;
#FAKES:;
#LABELS:0.000=Song Start;
#BGCHANGES:0.000=RED ZONE error.avi=1.000=0=0=0=StretchNoLoop====,
99999=-nosongbg-=1.000=0=0=0 // don't automatically add -songbackground-
;
#KEYSOUNDS:;
#ATTACKS:
;

//---------------dance-single - ----------------
#NOTEDATA:;
#CHARTNAME:;
#STEPSTYPE:dance-single;
#DESCRIPTION:;
#CHARTSTYLE:;
#DIFFICULTY:Hard;
#METER:16;
#RADARVALUES:0.715029,0.930363,0.533414,0.204475,0.737889,563.000000,503.000000,60.000000,23.000000,0.000000,0.000000,0.000000,0.000000,0.000000,0.715029,0.930363,0.533414,0.204475,0.737889,563.000000,503.000000,60.000000,23.000000,0.000000,0.000000,0.000000,0.000000,0.000000;
#CREDIT:;
#NOTES:
// measure 0
0000
0000
0000
0000
,  // measure 1
0000
0000
0000
0020
,  // measure 2
0000
0000
0000
0000
,  // measure 3
0000
0000
0030
0000
,  // measure 4
0000
0000
0000
0000
0000
0000
0000
0000
0000
0000
0000
0000
0010
0000
0010
0100
,  // measure 5
0010
0100
0010
0100
0010
0000
0000
0000
0110
0000
0000
0000
1000
0000
1000
0000
,  // measure 6
0001
0000
0001
0000
0010
0000
0010
1000
0200
0000
0300
0000
0010
0000
0010
0000
,  // measure 7
0001
0000
0001
0000
1000
0000
1000
0100
0010
0000
0000
0000
0010
0000
0010
0000
,  // measure 8
0010
0000
0010
0100
0010
0100
0010
0100
0010
0001
0000
0000
0000
0001
0010
0100
,  // measure 9
0010
0100
0000
0000
1001
0000
1001
0000
1100
0000
1100
0000
0010
0000
0010
0000
,  // measure 10
0010
0100
0010
0100
0000
0000
1000
0000
1000
0000
0000
0010
0100
0000
0100
0000
,  // measure 11
1000
0100
1000
0000
0100
0010
0100
0000
0010
0000
0010
0000
1000
0000
1000
0100
,  // measure 12
1000
0100
1000
0100
1000
0000
0000
0100
0010
1000
0001
1000
0001
0000
0000
0000
,  // measure 13
0110
0010
0110
0000
1000
2000
3000
0000
,  // measure 14
0001
0011
0010
0110
,  // measure 15
0100
0000
0000
0000
1100
0000
0000
0000
1001
0000
1001
0000
0000
0000
0010
0100
,  // measure 16
0010
0100
0010
0000
0010
0001
0000
0001
1000
0001
1000
0000
0010
0100
0010
0100
,  // measure 17
0000
1000
0100
1000
0100
1000
0000
0010
0100
0010
0100
0020
0000
0030
0000
0000
,  // measure 18
0001
0011
1001
1100
,  // measure 19
0100
0101
0001
1001
,  // measure 20
0010
0100
0010
0100
0010
0000
0000
0000
0010
0000
0020
0000
0030
0000
0000
0000
,  // measure 21
1000
0000
2000
3000
0001
0000
0001
0000
0001
0000
0000
0000
0010
0100
0000
0010
,  // measure 22
0100
0000
0000
0000
1001
0000
1001
0000
0000
0100
0010
0000
0100
0010
0000
0000
,  // measure 23
0010
1000
0100
0000
1000
0000
0000
0000
1001
0000
0010
0000
0010
0000
0100
0000
,  // measure 24
0010
0100
0000
0010
0000
0000
0001
0000
0011
0000
0000
0000
1000
0000
1100
0000
,  // measure 25
0010
0100
0000
0010
0100
0000
0000
0000
0110
0000
0001
0000
0001
0000
0000
1000
,  // measure 26
0000
0001
1000
0000
0001
0000
0110
0000
0110
0000
0000
1000
0000
2000
3000
0000
,  // measure 27
0001
0010
0001
0000
0010
0000
0000
0110
0000
0000
0000
1000
0000
0000
1000
0001
,  // measure 28
1000
0000
0001
0000
0001
0000
0020
0000
0030
0000
0000
1000
0001
0000
1000
0001
,  // measure 29
0000
1000
0000
0100
0000
0100
0000
0000
0200
0000
0300
0000
0010
0000
0010
0100
,  // measure 30
0010
0100
0010
0000
0010
0000
0020
0000
0000
0000
0000
0000
0030
0000
0000
0000
,  // measure 31
0000
0000
0001
0001
1000
1000
0100
0100
,  // measure 32
0010
0000
0001
0000
0010
0100
0010
0000
1000
0000
1000
0000
1001
0000
0000
0000
,  // measure 33
1001
0000
0000
0000
0010
0100
0010
0000
0010
0100
0000
0100
0000
0001
1000
0001
,  // measure 34
0000
0000
0010
0000
0100
0010
0100
0000
1000
0001
1000
0001
1000
0000
1000
0000
,  // measure 35
0010
0000
0110
0000
0000
0000
1000
0000
1001
0000
0001
0000
1000
0000
0010
0100
,  // measure 36
0010
0100
0010
0000
0000
0001
0000
0001
0000
0001
0010
0000
1010
0000
0000
0000
,  // measure 37
1100
0220
0000
0000
,  // measure 38
0000
0000
0330
0001
,  // measure 39
0011
0010
0110
0000
1000
0000
0110
0000
,  // measure 40
1010
0000
0000
0200
,  // measure 41
0300
0010
0000
0001
,  // measure 42
2000
3000
0000
0000
0020
0030
0000
0000
,  // measure 43
0000
0000
0100
0000
0000
0010
0000
0000
,  // measure 44
0001
0000
1001
0000
,  // measure 45
1000
0000
0010
0010
0000
0000
0200
0310
,  // measure 46
0000
0000
0000
0000
0001
0010
0000
0000
1000
0100
0000
0000
0001
0020
0000
0030
,  // measure 47
0000
0000
0000
0000
1000
0000
0100
1000
0000
0100
1000
0000
0000
1001
0000
0000
,  // measure 48
0000
0010
0000
0000
0010
0100
0000
0000
0100
0000
0010
0100
0000
0010
0000
0000
,  // measure 49
0001
0000
0001
0000
0010
0000
0100
0010
0000
1000
0100
0000
1000
0000
1001
0000
,  // measure 50
0000
0000
0010
0000
0010
0100
0010
0100
0010
0000
0010
0000
0000
1010
0000
0000
,  // measure 51
1000
0000
1000
0000
0001
0010
0000
0001
0000
0010
0000
0100
0000
0000
0110
0000
,  // measure 52
0000
0000
1000
0001
0000
1000
0001
0000
0010
0000
0000
0110
0000
0000
0110
0000
,  // measure 53
0000
0000
1000
0000
1000
0000
0001
0010
0001
0100
0000
0100
0010
0000
0110
0000
,  // measure 54
0000
0001
1000
0000
1000
0000
1000
0100
0010
0000
0001
0000
0001
0000
0002
0000
,  // measure 55
0000
0000
0000
0003
0010
0000
0010
0000
0100
0010
0100
0000
0001
0000
0001
0000
,  // measure 56
1000
0100
1000
0000
0000
0000
0000
1000
0001
0000
0000
0001
1000
0000
0000
2000
,  // measure 57
0000
0000
3000
0000
0010
0000
0010
0001
0010
1000
0000
1000
0100
1000
0000
0100
,  // measure 58
0000
0000
0110
0000
0000
0010
0000
0000
0001
0000
0001
0010
0001
0010
0000
0000
,  // measure 59
0100
0000
0110
0000
0000
0000
1000
0000
1000
0100
0000
0100
0000
0000
0010
0000
,  // measure 60
0001
1000
0001
1000
0000
0100
0000
0100
0000
0110
0000
0010
0000
0010
0000
0011
,  // measure 61
0000
2002
0000
0000
0000
0000
0000
0000
0000
0000
0000
0000
0000
0000
0000
0000
,  // measure 62
0000
0000
0000
0000
3003
0000
0010
0100
,  // measure 63
0110
2000
0000
0000
,  // measure 64
3000
0000
0000
0000
0001
0010
0100
1000
0001
0010
0100
1000
0001
0010
0100
1000
,  // measure 65
0000
0000
0100
0000
1000
0001
0000
1000
0001
0000
1000
0001
0000
1000
0100
0000
,  // measure 66
0100
0000
0100
0000
0010
0001
0010
0000
0001
0010
0000
0001
0000
1000
1000
0000
,  // measure 67
0010
0000
0100
0010
0000
0001
1000
0100
0000
1000
0010
0000
0010
0100
0001
0000
,  // measure 68
1000
0000
1000
0000
0001
0010
0100
1000
0001
0010
0100
1000
0000
1000
0100
0010
,  // measure 69
1001
0100
0010
0001
0000
0000
0100
0010
0100
0010
0000
0000
0010
1000
0010
0000
,  // measure 70
0100
0000
0100
0000
0000
0001
0010
0100
1001
0010
0100
1001
0010
0100
1000
0000
,  // measure 71
0010
0100
0001
0010
0100
0001
0000
0000
0001
0000
0001
0000
1000
0000
1000
0000
,  // measure 72
1000
0010
0001
0000
0000
0000
0011
0000
0000
0000
0100
0000
0110
0000
0000
0000
,  // measure 73
1000
1100
0000
0010
0110
0000
1000
1001
,  // measure 74
0000
0010
1010
0002
0000
0000
0003
0000
;

//---------------dance-single - ----------------
#NOTEDATA:;
#CHARTNAME:;
#STEPSTYPE:dance-single;
#DESCRIPTION:;
#CHARTSTYLE:;
#DIFFICULTY:Medium;
#METER:14;
#RADARVALUES:0.580405,0.662322,0.515633,0.177805,0.017780,457.000000,399.000000,58.000000,20.000000,0.000000,0.000000,0.000000,0.000000,0.000000,0.580405,0.662322,0.515633,0.177805,0.017780,457.000000,399.000000,58.000000,20.000000,0.000000,0.000000,0.000000,0.000000,0.000000;
#CREDIT:;
#NOTES:
0000
0000
0000
0000
,
0000
0000
0000
0020
,
0000
0000
0000
0030
,
0000
0000
0000
0000
,
0000
0000
0000
0000
0000
0000
1000
1000
,
1000
0100
0010
0001
0010
0100
0100
0000
,
1000
0001
1000
0001
1000
1000
0010
0100
,
0010
0100
0010
0020
0030
0000
0100
0100
,
0001
1000
0001
0100
0100
0010
0000
1000
,
0100
0000
1001
0100
1001
0010
0000
0100
,
0100
0010
0001
1000
0001
1000
0010
0010
,
0100
0010
0100
0001
1000
0001
0010
0100
,
0100
0010
0001
0100
0100
0010
0001
1000
,
0000
1100
0011
0000
1000
1000
1001
0000
,
1100
0110
0011
1001
,
1010
0000
0110
0000
0110
0000
1001
1000
,
0100
0010
0100
0010
0001
1000
0000
0001
,
1000
0001
1000
0100
0010
0001
0001
0000
,
1000
1100
0110
0011
,
1001
0000
1001
0000
0110
0000
0110
1000
,
1000
0100
0010
0001
0010
0000
1001
1000
,
0100
0010
0100
0010
0100
0010
0000
0001
,
1000
0001
0100
0010
0110
0000
1000
1000
,
0010
0100
0010
1100
0011
0000
0100
0100
,
0001
1000
0011
1100
0000
0010
0001
1000
,
0010
0100
1000
0200
0000
0310
0000
1000
,
0001
1000
0001
0100
0110
0000
0001
0001
,
0100
0000
1100
0011
0000
0100
0100
1000
,
0001
0100
0010
1001
0110
0000
1000
0001
,
1000
0010
0010
0020
0130
0200
0000
0000
,
0000
0000
0000
0000
0000
0300
0000
0000
,
0000
0000
0010
0010
1000
0001
1000
0100
,
0010
0100
0010
0001
0001
1000
0001
1000
,
0110
0000
0010
0010
0000
1000
0010
0100
,
1000
0001
0001
0100
1000
0010
0001
1000
,
0110
0000
0000
0001
0001
1000
0000
1000
,
0100
0100
0001
0002
0003
0010
0020
1030
,
2000
3000
0200
0000
0000
0000
0000
0000
,
0000
0000
0000
0300
0000
1000
1100
0010
,
0110
0001
0000
0100
,
0010
0000
0000
0000
0000
0000
2000
3000
,
0000
0010
0000
0100
,
0020
0030
0000
0000
0002
0003
0000
0000
,
0000
0000
1000
0000
0000
0010
0000
0000
,
0010
0000
1001
0000
,
0100
0000
0010
0000
0000
0000
0000
1001
,
0000
0000
0000
0010
0000
0010
0100
0000
0100
0001
0000
0001
,
0000
0000
1000
0001
1000
0001
0010
0110
,
0000
1000
1000
0010
0001
1000
0001
0110
,
0000
0001
0001
0010
0100
0010
1000
0011
,
0000
0000
1000
1000
0001
0010
0110
1001
,
0000
0000
0000
0010
0100
0000
0000
0000
0000
0001
0000
0000
1000
0000
0000
0001
0000
0000
0100
0000
0000
0110
0000
0000
,
0000
0010
0001
1000
1000
0010
0110
0000
,
1000
0001
1000
0100
0010
0001
0010
0110
,
0000
0000
0010
0010
1000
0001
0010
0200
,
0300
0000
0010
0010
0100
0010
0001
0000
,
0010
0010
0100
0000
0110
0001
1000
0200
,
0300
0000
0010
0010
0001
1000
0100
0001
,
0001
0000
0010
0010
0010
0100
0100
0110
,
0000
0000
0001
0001
1000
0100
0010
0100
,
0001
0000
0010
0020
0030
0001
0002
0003
,
1000
2000
0000
0000
0000
0000
0000
0000
,
0000
0000
0000
0000
3000
0000
0010
0100
,
0011
1100
0020
0000
0000
0000
0000
0000
,
0030
0000
0010
0100
0010
0001
0010
0100
,
0010
0100
0010
1000
0100
1000
0100
1000
,
0010
0001
0010
0001
0010
0100
1000
0100
,
1000
0100
0010
0001
0010
0001
1000
0100
,
1000
0010
0100
0100
0011
0000
0001
0001
,
1100
0000
0010
0010
0100
0001
1000
1000
,
0010
0001
0100
0100
0010
1000
1000
0100
,
0010
0001
0100
0100
1000
0001
0001
0010
,
0100
0100
1010
0000
1100
0000
0110
0000
,
0011
0001
1001
1100
,
0010
0220
0330
0000
;

//---------------dance-single - ----------------
#NOTEDATA:;
#CHARTNAME:;
#STEPSTYPE:dance-single;
#DESCRIPTION:;
#CHARTSTYLE:;
#DIFFICULTY:Easy;
#METER:9;
#RADARVALUES:0.421651,0.529858,0.542304,0.097793,0.000000,332.000000,271.000000,61.000000,11.000000,0.000000,0.000000,0.000000,0.000000,0.000000,0.421651,0.529858,0.542304,0.097793,0.000000,332.000000,271.000000,61.000000,11.000000,0.000000,0.000000,0.000000,0.000000,0.000000;
#CREDIT:;
#NOTES:
0000
0000
0000
0000
,
0000
0000
0000
0020
,
0000
0000
0000
0030
,
0000
0000
0000
0000
,
0000
0000
0000
1000
,
1000
0000
1000
0100
0010
0000
0001
1000
,
0001
0010
0110
1000
,
1000
0001
1000
0000
1001
0000
0010
0000
,
0010
0000
0001
0000
1000
0001
1000
0000
,
1000
0110
0110
0001
,
0001
0010
0000
0010
0200
0300
0000
0001
,
0000
0001
0000
1000
0000
1000
0010
0000
,
0010
0000
0100
0000
0001
0000
0010
0010
,
1000
0000
1000
0000
0001
0001
0000
0000
,
0010
0110
1100
0110
,
0011
0001
1001
1001
,
0010
0000
0010
0001
1100
0000
0010
0000
,
0100
0000
1000
0001
1000
0001
1000
0000
,
0010
1010
1100
0110
,
0011
0110
1001
1001
,
0010
0000
0100
0010
0100
0000
0000
0100
,
1000
0000
0010
0001
1000
0100
1000
0000
,
0010
0100
0110
1000
,
0001
1100
0110
0001
,
1000
0000
0010
0000
0110
0000
0001
1000
,
0001
0010
0110
1000
,
1100
0010
0110
0001
,
0001
0011
1100
0010
,
0100
0010
0110
1000
,
1000
0000
0001
0020
0000
0000
0000
0000
,
0000
0000
0000
0030
,
0000
0100
0100
0010
,
0001
1000
1000
0010
,
0100
0001
0001
1000
,
1001
0000
0010
0100
0010
0100
0010
0000
,
0110
1000
1000
0010
,
0001
0001
0010
0000
0100
0000
1100
0000
,
1010
0220
0000
0000
,
0000
0000
0330
1001
,
1000
1001
0000
0010
,
0100
0000
0000
0010
,
0000
1000
0000
0100
,
0010
0000
0001
0000
,
0000
1000
0010
0000
,
0100
0000
0001
0000
,
1000
0010
0000
0100
,
0000
0010
1010
1100
,
0000
0001
0001
1000
,
0001
0100
0100
0010
,
0110
1000
1000
0010
,
0011
1000
1000
0001
,
0010
0010
0100
0000
0010
0000
0100
0000
,
1100
0001
1000
0110
,
1000
1000
0001
0010
,
0110
0000
1000
0001
1000
0000
0220
0000
,
0330
0001
0011
0010
,
0110
0100
1000
0001
,
0010
0100
0100
1000
,
0010
0001
1000
0001
,
1001
0010
0010
1000
,
0100
0001
0011
0110
,
1100
2002
0000
0000
,
0000
0000
3003
0010
,
0110
2000
0000
0000
,
3000
0001
1000
0001
,
1000
0001
0010
0110
,
0100
0000
0001
0010
0000
0000
1000
0100
,
0000
0000
0010
0100
0000
0000
0001
0000
,
1001
0000
0010
0100
0010
0100
0001
1000
,
0001
1000
0010
0000
0010
0100
0010
0000
,
0001
0000
1001
0000
1000
0100
0000
0100
,
0010
0000
0010
0001
0000
0001
1000
0000
,
1000
0110
1010
0101
,
0011
1001
1001
0010
,
0110
0020
0030
0000
;

//---------------dance-single - ----------------
#NOTEDATA:;
#CHARTNAME:;
#STEPSTYPE:dance-single;
#DESCRIPTION:;
#CHARTSTYLE:;
#DIFFICULTY:Beginner;
#METER:4;
#RADARVALUES:0.377200,0.496742,0.506743,0.080012,0.000000,297.000000,240.000000,57.000000,9.000000,0.000000,0.000000,0.000000,0.000000,0.000000,0.377200,0.496742,0.506743,0.080012,0.000000,297.000000,240.000000,57.000000,9.000000,0.000000,0.000000,0.000000,0.000000,0.000000;
#CREDIT:;
#NOTES:
0000
0000
0000
0000
,
0000
0000
0000
0020
,
0000
0000
0000
0000
,
0030
0000
0000
0000
,
0000
0000
0000
1000
,
1000
1000
1001
0010
,
0010
0100
0010
1000
,
0001
1000
0000
0010
,
0010
1000
0110
0001
,
0001
2000
3000
0010
,
0010
0010
0110
1000
,
0001
1000
1001
0010
,
0010
0001
0001
1000
,
0100
0001
0010
0110
,
1000
1001
0110
0001
,
1001
0100
0110
0110
,
0001
0001
1001
0010
,
0010
0100
0010
0110
,
1000
1001
0100
0110
,
0001
1001
0110
0110
,
0001
0001
1001
0000
,
0000
0000
0000
0010
,
0100
0010
0110
1000
,
1000
0001
1000
0010
,
0010
0100
0110
0001
,
0001
0010
0110
0001
,
0001
1000
1001
0010
,
0010
0100
0010
1000
,
1000
0010
0110
0001
,
0001
1000
2002
0000
,
0000
0000
0000
3003
,
0000
0010
0010
0100
,
0010
1000
1001
0001
,
1001
0010
0010
0100
,
0010
1000
1000
0001
,
1001
0010
0010
0100
,
0010
0001
1001
1000
,
1001
0002
0000
0000
,
0000
0000
0003
1001
,
1001
0010
0000
0100
,
0010
0000
0000
1000
,
0000
0010
0000
0100
,
0001
0000
1000
0000
,
0000
0010
0100
0000
,
0100
0000
1001
0000
,
0010
0001
0000
0100
,
0000
0001
1001
1000
,
0000
0010
0010
0100
,
0110
0001
0001
1000
,
1001
0010
0100
0110
,
1001
1000
1000
0110
,
0001
1000
1000
1001
,
0110
0010
0010
0100
,
0110
0001
1000
0001
,
1001
0100
0010
0110
,
0000
0001
0001
1000
,
1000
0100
0010
0001
,
1001
0010
0010
0100
,
0100
0010
0001
1000
,
1001
0100
0100
0010
,
0100
0110
0001
1001
,
1000
2002
0000
0000
,
0000
0000
3003
0110
,
1001
0200
0000
0000
,
0300
0010
0010
1000
,
1001
0001
0010
0010
,
0100
0010
0001
0001
,
1000
1000
0100
0100
,
0010
0001
1001
0010
,
0110
0100
0010
0001
,
0001
1000
1000
0100
,
0100
0010
0010
0010
,
0001
0010
0110
1000
,
1001
0001
1001
0100
,
0110
0020
0030
0000
;
