#VERSION:0.83;
#TITLE:Pure Evil;
#SUBTITLE:-Aya2g Drm'n Tech Rmx-;
#ARTIST:Ayatsugu_Otowa;
#TITLETRANSLIT:;
#SUBTITLETRANSLIT:;
#ARTISTTRANSLIT:;
#GENRE:;
#ORIGIN:;
#CREDIT:PaperBox440;
#BANNER:Pure Evil -Aya2g Drm'n Tech Rmx-.png;
#BACKGROUND:Pure Evil -Aya2g Drm'n Tech Rmx--bg.png;
#PREVIEWVID:;
#JACKET:Pure Evil -Aya2g Drm'n Tech Rmx--jacket.png;
#CDIMAGE:;
#DISCIMAGE:;
#LYRICSPATH:;
#CDTITLE:;
#MUSIC:Pure Evil -Aya2g Drm'n Tech Rmx-.mp3;
#OFFSET:0.000000;
#SAMPLESTART:31.578947;
#SAMPLELENGTH:18.631578;
#SELECTABLE:YES;
#BPMS:0.000=190.000;
#STOPS:;
#DELAYS:;
#WARPS:;
#TIMESIGNATURES:0.000=4=4;
#TICKCOUNTS:0.000=4;
#COMBOS:0.000=1;
#SPEEDS:0.000=1.000=0.000=0;
#SCROLLS:0.000=1.000;
#FAKES:;
#LABELS:0.000=Song Start;
#BGCHANGES:;
#KEYSOUNDS:;
#ATTACKS:
;

//---------------dance-single - ----------------
#NOTEDATA:;
#CHARTNAME:;
#STEPSTYPE:dance-single;
#DESCRIPTION:;
#CHARTSTYLE:;
#DIFFICULTY:Hard;
#METER:16;
#RADARVALUES:0.753180,0.919187,0.906890,0.161396,0.338162,686.000000,568.000000,118.000000,21.000000,0.000000,0.000000,0.000000,0.000000,0.000000,0.753180,0.919187,0.906890,0.161396,0.338162,686.000000,568.000000,118.000000,21.000000,0.000000,0.000000,0.000000,0.000000,0.000000;
#CREDIT:;
#NOTES:
// measure 0
0000
0000
0000
0000
,  // measure 1
0000
0000
2000
3000
,  // measure 2
1001
0000
1100
0001
0000
0001
0000
1000
,  // measure 3
0000
1000
0000
0100
0000
0010
1000
0001
,  // measure 4
1001
1001
0000
1001
0000
0010
0000
0100
,  // measure 5
0000
0100
0000
0001
1000
0000
1100
1100
,  // measure 6
0001
0000
1001
0000
0010
1000
0000
1000
,  // measure 7
0000
0010
0000
0100
1000
0011
0011
0000
,  // measure 8
1000
0000
1001
0000
0100
0000
0100
0010
,  // measure 9
0000
0010
0100
0000
2002
3003
0000
0100
,  // measure 10
0110
2000
0001
0010
,  // measure 11
0100
0010
0001
0001
,  // measure 12
0010
0100
3002
1000
,  // measure 13
0100
2003
0100
0010
,  // measure 14
3000
0000
1001
1001
0000
0001
0000
0001
,  // measure 15
0000
0010
0100
0000
0110
0000
1000
0001
,  // measure 16
0000
0001
1000
0000
1100
0010
0000
0001
,  // measure 17
0000
0200
0000
0300
0000
1001
0000
1100
,  // measure 18
0010
0001
1000
0000
1001
0000
0000
0000
,  // measure 19
1100
0000
1001
0000
,  // measure 20
1010
0000
1100
0000
,  // measure 21
1001
0000
0011
1000
,  // measure 22
1001
1100
1010
0110
,  // measure 23
0101
0011
1001
1100
,  // measure 24
1001
0000
0001
0001
1000
1000
0100
0010
,  // measure 25
0100
0000
0100
0000
0001
1000
0001
1000
0001
0000
0010
0000
0010
0000
1000
0000
,  // measure 26
1100
0010
0001
0001
0010
0001
0100
0100
,  // measure 27
1000
0001
0001
0000
1100
0000
1001
0000
,  // measure 28
0011
0000
1000
1000
0010
0100
0100
0001
,  // measure 29
0001
1000
1000
0000
0110
0000
0110
0000
,  // measure 30
1010
0000
0001
0010
0100
0100
1000
0001
,  // measure 31
0001
1000
0000
0000
1001
0000
1001
0000
,  // measure 32
1100
0000
0000
0000
0010
0000
1000
0100
1000
0000
0001
0000
0010
0000
0010
0000
,  // measure 33
0100
0000
0100
0000
0000
0001
1000
0001
1000
0000
0000
0000
2002
0000
3003
0000
,  // measure 34
0000
0000
0100
0000
0100
0000
0001
0000
0000
0001
0000
1000
0000
0000
1000
0000
,  // measure 35
0001
0000
0000
0100
0010
0100
0001
0000
0001
0000
1100
0000
1100
0000
0000
0000
,  // measure 36
1001
0000
0000
0100
0000
0100
0001
0010
0001
1000
0000
0000
1000
0000
0001
0010
,  // measure 37
0001
0100
0000
0000
0100
0000
1000
0001
1000
0000
0000
0000
0110
0000
0110
0000
,  // measure 38
0000
0000
1100
0000
1001
0000
0010
0000
0100
0000
0100
0000
0001
0010
0001
0000
,  // measure 39
1000
0000
1000
0000
0000
0100
0010
0100
0001
0000
0001
0000
1100
0000
0000
0000
,  // measure 40
1001
0000
0000
1000
0000
1000
0001
0000
0010
0000
0100
0000
0100
0000
0001
0010
,  // measure 41
0001
0000
1000
0000
1000
0000
0000
0000
0001
0010
0100
0000
0010
0100
0000
0000
,  // measure 42
1001
0000
0000
0000
0100
0000
1000
0001
1000
0000
0000
0000
0010
0000
0100
0000
,  // measure 43
0100
0000
0001
0010
0001
0000
1100
0000
1100
0000
0000
0000
2002
0000
0000
0000
,  // measure 44
3003
0000
0000
0000
0100
0000
0001
0010
0001
0000
0100
0000
0100
0000
0000
0001
,  // measure 45
1000
0000
0000
0010
0100
0000
0000
0000
1001
0000
1000
0000
1001
0000
0000
0000
,  // measure 46
0100
0110
0000
0000
1010
0010
1010
0000
,  // measure 47
1001
0000
1100
0000
0010
0000
0110
0001
,  // measure 48
1000
0000
1000
0000
0001
0000
0001
0100
0000
0100
0000
1000
0001
0000
1000
0001
,  // measure 49
0000
1000
0000
0010
0100
0000
0100
0001
0000
0001
1000
0000
0000
1000
0000
0001
,  // measure 50
0010
0001
0100
0000
0000
0100
0000
0000
1010
0000
0000
0000
1100
0000
0001
0010
,  // measure 51
0001
1000
0000
0000
1000
0000
0110
0000
0100
0001
0000
0000
0001
0000
1000
0100
,  // measure 52
1000
0010
0010
0100
0100
0000
1001
0000
,  // measure 53
0010
0010
1100
0000
1001
0000
0110
0100
,  // measure 54
1000
0001
0000
0001
0100
0000
0000
0100
0010
0000
1100
0000
0000
1000
0001
0000
,  // measure 55
0001
0000
0100
0000
0010
0000
1000
0100
1000
0001
0000
0000
0001
0000
0010
0000
,  // measure 56
0100
1000
0010
0000
0100
0000
1000
0000
0010
0000
0100
0000
0100
0000
0001
0010
,  // measure 57
0001
1000
1000
0000
0011
0000
1100
0010
,  // measure 58
1000
0100
1000
0000
0001
0000
0001
0000
0100
0010
0100
0000
0001
0000
0001
0000
,  // measure 59
1000
0100
1000
0000
0010
0000
0100
0000
0100
0000
0000
0000
2002
0000
0000
0000
,  // measure 60
3003
0000
0002
1000
1000
0010
0100
0100
,  // measure 61
0010
1000
0000
1000
0100
1000
1000
0010
,  // measure 62
0100
0000
0100
0010
0100
1000
1000
0010
,  // measure 63
0010
0100
1000
0000
1000
0010
0100
0000
,  // measure 64
0100
0010
1000
1000
0100
0010
1000
1000
,  // measure 65
0000
1000
0010
1000
0100
0000
0103
0000
,  // measure 66
1001
0000
2100
0000
0010
0000
0010
0001
,  // measure 67
0001
0100
0000
0100
3000
0000
1001
0000
,  // measure 68
0002
1000
0100
1000
1000
0010
0010
0100
,  // measure 69
0000
0100
0010
1000
0000
1000
0100
0100
,  // measure 70
1000
0010
0000
0010
0100
0100
0010
1000
,  // measure 71
0000
1000
0100
0100
1000
0010
0000
0010
,  // measure 72
1000
0100
1000
0000
0100
0000
0100
0010
,  // measure 73
0010
1000
0000
1000
0100
0100
0010
0000
,  // measure 74
1003
0000
1001
0000
2010
0100
0000
0100
,  // measure 75
0001
0010
0001
0100
0100
0000
3001
0000
,  // measure 76
0102
0000
0100
0000
1000
0000
1000
0010
0000
0010
0100
0000
,  // measure 77
0100
1000
0000
1000
0010
0000
0010
0100
0000
0100
1000
0000
,  // measure 78
1000
0000
0010
0000
0010
0100
0000
0010
0000
1000
0000
1000
,  // measure 79
0010
0000
0010
0100
0000
0100
0000
0010
0000
1000
0000
1000
,  // measure 80
0010
0000
0010
0100
0000
0100
0000
1000
0000
1000
0010
0000
,  // measure 81
0010
0100
0000
0100
0000
1000
0000
1000
0000
1000
0000
0010
,  // measure 82
0000
0000
0010
0000
0000
0000
0100
0000
0000
0003
0000
0000
2000
0000
0100
0000
0000
0000
0100
0000
0010
0000
0000
0000
,  // measure 83
0010
0000
0000
0000
0001
0000
3000
0000
0000
0000
0000
0000
1001
0000
0000
0000
0000
0000
2200
0000
0000
3300
0000
0000
,  // measure 84
0011
0011
0000
1100
1100
0000
1010
1010
,  // measure 85
0000
1001
1001
0000
0010
1100
1100
0000
,  // measure 86
0011
0011
0000
1001
1001
0000
0100
0110
,  // measure 87
0000
0000
0001
0000
1001
0000
0000
0000
1000
0001
0010
0100
0010
0100
0010
0000
,  // measure 88
1000
1000
1000
0000
1001
0000
1100
1100
,  // measure 89
0000
0011
0011
1000
1000
0001
0110
0110
,  // measure 90
1000
1000
0001
0011
0100
0110
1000
1001
,  // measure 91
0010
0110
1000
1001
0001
1001
1100
0110
,  // measure 92
1001
0000
0000
0000
;
