#TITLE:Progre nazonazo quiz no theme;
#SUBTITLE:;
#ARTIST:Progressive nazonazo seijin;
#TITLETRANSLIT:;
#SUBTITLETRANSLIT:;
#ARTISTTRANSLIT:;
#GENRE:;
#CREDIT:PaperBox440;
#BANNER:Progre nazonazo quiz no theme.png;
#BACKGROUND:Progre nazonazo quiz no theme-bg.png;
#LYRICSPATH:;
#CDTITLE:;
#MUSIC:Progre nazonazo quiz no theme.mp3;
#OFFSET:0.000000;
#SAMPLESTART:100.000000;
#SAMPLELENGTH:12.000000;
#SELECTABLE:YES;
#BPMS:0.000000=204.000000
,257.000000=136.000000
,296.000000=204.000000
,326.000000=136.000000
,327.000000=204.000000
;
#STOPS:289.000000=0.100000,
290.000000=0.100000,
291.000000=0.100000,
292.000000=0.100000,
296.000000=0.500000
;
#BGCHANGES:;
#KEYSOUNDS:;
#ATTACKS:;

//---------------dance-single - ----------------
#NOTES:
     dance-single:
     :
     Hard:
     17:
     0.822190,0.965570,0.624908,0.385746,0.813924,746.000000,665.000000,81.000000,50.000000,0.000000,0.000000,0.822190,0.965570,0.624908,0.385746,0.813924,746.000000,665.000000,81.000000,50.000000,0.000000,0.000000:
// measure 0
0000
0000
0000
0000
,  // measure 1
0000
0000
0002
0000
1003
0000
1000
1000
,  // measure 2
0001
0010
0100
0010
0100
0000
1001
0000
,  // measure 3
1100
0000
0000
0000
0001
0000
0000
0001
0010
0000
0000
0010
0100
0000
0100
0000
,  // measure 4
0001
0000
0000
0001
1000
0000
0100
0000
1000
0010
0000
0000
0010
0100
0000
0000
,  // measure 5
0100
0001
2000
0000
0000
0000
0000
0000
,  // measure 6
3001
0000
0000
0000
0010
0000
0100
0000
0000
0000
0100
0010
0001
0000
1000
0000
,  // measure 7
1000
0000
0010
0000
0000
0010
0001
0000
0100
0000
0100
0000
1000
0000
0001
0000
,  // measure 8
1000
0000
0000
0000
0000
0001
0100
0000
1000
0000
0100
0001
1000
0000
0000
0000
,  // measure 9
2002
0000
0000
0000
3003
0000
0001
0001
,  // measure 10
0100
0000
0010
0000
0010
0000
1000
0100
1000
0000
0001
0000
0001
0100
0000
0000
,  // measure 11
0100
0010
0000
0000
0010
0000
1000
0100
1000
0000
0001
0000
0001
0000
0000
0000
,  // measure 12
1001
0000
0000
0100
0000
1001
0000
0000
0001
0100
0000
0000
0100
0010
0000
0000
,  // measure 13
0010
0000
1000
0100
1000
0001
0000
0000
0001
0100
0000
0000
0100
0010
0000
0000
,  // measure 14
0010
0000
1000
0100
1000
0000
0001
0000
0001
0000
0000
0000
1010
0000
0000
0000
,  // measure 15
1100
0000
0000
0000
0001
0000
0100
0000
0000
0100
0000
0000
0010
1000
0100
1000
,  // measure 16
0001
0000
0001
0100
0000
0000
0100
0010
0000
0000
0010
0000
1000
0100
1000
0000
,  // measure 17
0001
0000
0001
0000
0000
0100
0010
0100
0001
0000
0001
0000
1000
0000
0000
0000
,  // measure 18
1001
0000
0000
1100
0000
0000
1000
0000
0001
0000
0110
0000
0100
0001
0000
0000
,  // measure 19
0001
1000
1000
0010
0000
0010
0000
0100
0000
0100
0001
0000
0001
1000
0000
0000
,  // measure 20
1000
0000
0100
0010
0100
0001
0000
0000
0001
0000
1000
0000
1100
0000
0000
0000
,  // measure 21
0010
0000
0100
0000
0001
1000
0001
0000
0010
0000
0100
0000
0100
0000
0001
0000
,  // measure 22
2000
0000
0000
0000
0000
3000
0000
0000
1001
0000
0000
0000
0220
0000
0000
0000
,  // measure 23
0330
0000
0000
0000
1100
0000
0000
0000
2002
0000
0000
0000
3003
0000
0000
0001
,  // measure 24
0010
0100
0001
0010
0100
0000
0000
0010
0000
1000
0001
0000
0220
0000
0000
0000
,  // measure 25
0330
1001
0022
0033
,  // measure 26
1100
0000
0000
0000
0001
0000
0000
1000
0000
0000
0100
0010
0100
0000
0001
0000
,  // measure 27
0001
0000
1000
0000
1000
0000
0000
0100
0010
0100
0001
0000
0000
0001
1000
0000
,  // measure 28
0000
1000
0000
0000
0110
0000
0000
0000
1001
0000
0000
0000
0100
0010
0100
0000
,  // measure 29
0001
0000
0001
0000
1100
0000
0000
0001
0000
0000
0001
0100
0000
0000
0100
0010
,  // measure 30
0000
0000
0010
0000
1000
0100
1000
0000
0001
0000
0001
0000
0000
0100
0010
0100
,  // measure 31
0000
0001
0000
0000
1001
0000
0000
0010
0000
0100
0010
0100
0001
0000
0001
0000
,  // measure 32
1100
0000
0000
0000
0100
0000
0100
0000
0100
0000
0001
0010
0001
1000
0000
0000
,  // measure 33
1000
0000
0000
0100
0010
0000
0000
0010
0000
0100
1000
0100
1000
0001
0000
0000
,  // measure 34
0001
0000
1002
0000
1000
0100
0000
0010
,  // measure 35
0100
0000
0103
0000
2001
0000
0001
0100
,  // measure 36
0000
0100
3002
0000
0010
0000
0100
0000
,  // measure 37
0100
1000
1000
0000
2003
0010
0000
0010
,  // measure 38
0100
0100
3002
0010
0000
0100
0203
0000
,  // measure 39
0001
0000
0000
0301
0000
0000
0100
0010
0100
0000
0001
0000
,  // measure 40
1001
0000
0010
0100
0000
0100
0000
1000
0000
1100
0000
0000
,  // measure 41
0001
0100
0010
0100
0001
0000
0001
1000
0000
1000
0000
0000
,  // measure 42
0110
0000
0000
1000
0001
0010
0001
1000
1000
0000
0100
0010
,  // measure 43
0100
0001
0001
1000
0100
1000
0010
0100
0000
0100
0001
0010
,  // measure 44
0001
1000
0000
1000
0000
0000
1001
0000
0010
0010
0000
0001
,  // measure 45
0100
1000
0000
1000
0001
0010
0100
1000
0001
0010
0100
0001
,  // measure 46
0000
0001
0010
0100
1000
0010
0100
1000
0000
0001
0110
0000
,  // measure 47
0100
1000
0000
1000
0001
0010
0001
0100
0100
1000
0000
1000
,  // measure 48
0001
0010
0100
0000
0100
0001
0010
0001
1000
0000
1000
0000
,  // measure 49
0110
0000
0000
0001
0000
1000
0100
1000
0001
0000
0001
0000
,  // measure 50
1100
0000
0000
0010
0100
0010
0001
1000
0000
0100
0010
0100
,  // measure 51
0001
0001
1000
0000
1000
0001
0010
0100
0000
0100
0000
1000
,  // measure 52
0001
1000
0000
2002
0000
0000
0000
0000
0000
3003
0000
0000
,  // measure 53
2000
0000
0000
3002
,  // measure 54
0000
0000
2003
0000
,  // measure 55
0000
0000
0000
0000
3001
0000
0000
0000
0001
0000
0001
0000
1000
0100
1000
0000
,  // measure 56
0000
0010
0000
0100
0001
0000
0001
0000
0010
0100
0010
0000
2002
0000
0000
0000
,  // measure 57
0000
3003
2200
0000
,  // measure 58
3300
0000
0000
0000
1001
0000
0000
0000
1000
0010
1000
0000
0001
0000
0100
1000
,  // measure 59
0100
0000
0010
0000
0001
0000
1000
0100
1000
0000
0100
0010
0001
0000
0001
0000
,  // measure 60
1000
0000
0100
0000
1000
0000
0010
0000
0100
0010
0100
0000
0001
0000
0010
0000
,  // measure 61
0001
0000
1000
0000
1000
0100
0000
0000
0001
0010
0000
1000
0100
0000
0010
0100
,  // measure 62
0000
0001
0010
0000
1000
0100
0000
0001
0000
0001
0010
0000
0200
0000
0000
0000
,  // measure 63
0000
0002
0000
0303
,  // measure 64
0010
1000
1001
0100
0010
0010
1000
1000
,  // measure 65
0001
0100
0010
0100
0010
0001
0000
0100
1000
0000
1000
0000
0001
0010
0001
0000
,  // measure 66
1100
0000
0000
0100
0010
0100
0000
0000
1001
0000
0000
0000
1010
0000
1001
0000
,  // measure 67
0010
1000
0000
0000
0100
0010
0100
0010
0100
0000
0001
0000
0100
0010
0100
0010
,  // measure 68
0001
0000
1000
0000
1001
0000
0000
0100
0001
0000
0001
0000
0010
0100
1000
0010
,  // measure 69
0100
1000
0000
0000
1001
0000
0000
0100
0000
0100
0000
0010
0100
1000
0001
0100
,  // measure 70
0010
1000
0000
0000
0110
0000
0000
0001
1000
0000
1000
0001
0010
0001
0000
0000
,  // measure 71
1100
0011
0000
0001
0001
0000
0110
1010
,  // measure 72
1100
0000
1001
0001
1100
0010
1010
0100
,  // measure 73
0110
1001
1100
2002
,  // measure 74
3003
0000
0110
0000
1002
0100
0010
0100
,  // measure 75
1000
0000
1000
0100
0010
0000
0010
1000
,  // measure 76
0000
1000
0100
0010
0100
0000
1000
0000
,  // measure 77
1003
0000
2001
0000
0001
0010
0100
0010
,  // measure 78
0001
0000
0001
0010
0100
0000
0100
0010
,  // measure 79
0000
0010
0100
0001
0000
0001
0010
0000
,  // measure 80
3010
1100
2002
0000
,  // measure 81
0000
0000
0000
3003
0110
1010
0000
0001
,  // measure 82
0000
1001
0000
1100
0000
0220
0000
0330
,  // measure 83
0001
1000
0100
1000
0001
0001
1100
0000
,  // measure 84
1010
0000
0220
0000
0000
0330
1000
0001
,  // measure 85
0001
0000
1000
0100
1000
0000
0001
0000
0001
0100
0000
0000
0100
0000
0001
0010
,  // measure 86
0001
1000
0000
0000
1000
0000
0100
0010
0100
0000
0001
0000
2000
0000
0000
0000
,  // measure 87
3002
0000
0203
0000
0300
0000
0000
1000
,  // measure 88
0110
0000
0010
0000
1001
0000
1000
0100
1000
0000
0001
0100
0000
0100
0000
0001
,  // measure 89
0010
0001
1000
0000
0000
1000
0010
0000
0000
0010
0001
0000
1000
0000
1000
0000
,  // measure 90
0100
0010
0100
0000
0001
0000
0001
0000
2000
0000
0000
0000
3000
0000
0010
0100
,  // measure 91
0010
0100
0001
0000
0001
0000
0010
0100
1000
0010
0100
1000
0000
0000
0000
0000
,  // measure 92
1001
0000
0000
0100
0000
0100
0010
1000
0000
1000
0000
0001
0000
0100
0010
0100
,  // measure 93
0001
0001
2200
0300
0002
0000
3003
0000
,  // measure 94
1100
1001
0000
0000
0000
0000
1010
0110
,  // measure 95
0000
0000
0000
0000
0000
0010
0100
1000
0000
0000
2002
0000
0000
0000
0000
0000
,  // measure 96
0000
0000
0000
0000
,  // measure 97
0000
0000
3000
0200
,  // measure 98
0000
0000
0000
0000
0000
0000
0000
0000
0300
0000
0000
0000
0000
0000
0100
1000
,  // measure 99
0000
0000
0010
0100
0000
0000
1000
0010
0000
0000
0100
1000
0003
0000
0000
0000
,  // measure 100
1100
1010
0000
0000
0000
0000
0000
0000
;
