#VERSION:0.83;
#TITLE:PLUTO Relinquish;
#SUBTITLE:-FRESH MIX -;
#ARTIST:Mixermaster;
#TITLETRANSLIT:;
#SUBTITLETRANSLIT:;
#ARTISTTRANSLIT:;
#GENRE:;
#ORIGIN:;
#CREDIT:PaperBox440;
#BANNER:PLUTO Relinquish -FRESH MIX -.png;
#BACKGROUND:PLUTO Relinquish -FRESH MIX --bg.png;
#PREVIEWVID:;
#JACKET:;
#CDIMAGE:;
#DISCIMAGE:;
#LYRICSPATH:;
#CDTITLE:cdtitle.png;
#MUSIC:PLUTO Relinquish -FRESH MIX -.mp3;
#OFFSET:0.000000;
#SAMPLESTART:0.903169;
#SAMPLELENGTH:14.325817;
#SELECTABLE:YES;
#BPMS:0.000=800.000,
12.000=190.000,
24.500=800.000,
33.000=300.000,
78.500=900.000,
86.000=290.000,
97.000=400.000,
117.000=555.000,
134.000=700.000,
164.000=900.000,
171.000=65.000,
178.500=50.000,
180.250=100.000,
213.250=65.000,
214.000=100.000,
214.500=360.000,
276.000=65.000,
285.500=800.000,
320.000=300.000,
338.500=460.000,
349.500=55.000,
352.250=500.000,
391.000=800.000,
396.000=500.000,
405.000=600.000,
414.000=700.000,
580.000=65.000,
581.250=500.000,
613.000=1000.000,
635.479=100.000,
635.500=120.000,
635.563=100.000;
#STOPS:;
#DELAYS:298.000=0.200,
307.000=0.200,
312.000=0.200,
315.000=0.200,
636.500=0.300;
#WARPS:;
#TIMESIGNATURES:0.000=4=4;
#TICKCOUNTS:0.000=4;
#COMBOS:0.000=1;
#SPEEDS:0.000=1.000=0.000=0;
#SCROLLS:0.000=1.000;
#FAKES:;
#LABELS:0.000=Song Start;
#BGCHANGES:;
#KEYSOUNDS:;
#ATTACKS:
;

//---------------dance-single - ----------------
#NOTEDATA:;
#CHARTNAME:;
#STEPSTYPE:dance-single;
#DESCRIPTION:;
#CHARTSTYLE:;
#DIFFICULTY:Challenge;
#METER:11;
#RADARVALUES:0.945391,2.490782,0.634816,3.921944,0.482634,761.000000,688.000000,73.000000,451.000000,12.000000,23.000000,0.000000,0.000000,0.000000,0.945391,2.490782,0.634816,3.921944,0.482634,761.000000,688.000000,73.000000,451.000000,12.000000,23.000000,0.000000,0.000000,0.000000;
#CREDIT:;
#NOTES:
0000
0000
0000
0000
,
0000
0000
0000
0000
,
0000
0000
0000
0000
0000
0000
0000
0220
,
0000
0000
0330
2000
3001
0020
0230
0302
,
2003
3010
0100
0002
0000
0013
2000
0000
3100
0010
0000
0010
0200
0000
0301
2000
,
0000
3010
0000
0200
0001
0300
0001
1000
0100
2000
3011
0000
0100
0001
0000
1000
,
0020
0000
0000
0000
,
0000
0000
0000
0000
,
0000
0030
1001
0000
0010
0100
0001
2000
,
3010
0200
0301
0000
0002
0100
1003
0020
,
0001
1000
0130
0000
2001
0100
0000
0010
,
3001
0200
0000
0010
0000
0001
1000
0300
,
0010
0100
0001
2000
0010
3200
0000
0301
,
0020
0000
2030
0000
3001
0010
0200
0301
,
2000
0000
3020
0230
0000
0302
1003
0010
,
1000
0200
0000
0302
2003
0100
3020
0000
,
0230
0000
0301
1000
0010
0200
0302
0000
,
2003
0000
3020
0000
0230
0302
1003
0010
,
0100
0002
2003
3020
0130
0001
1200
0000
,
1000
0300
0001
2000
3001
0220
0000
0000
,
0000
0000
0000
0000
,
0000
0000
0000
0000
0330
MMMM
0000
0100
,
0010
1000
0001
0010
0100
0010
0001
2000
,
3000
0020
0230
0000
0302
0000
2003
0020
,
3000
0230
0000
0302
0000
2003
0000
0000
,
3020
0000
0200
0030
0000
0302
0000
2003
,
0200
0300
3020
0000
0230
0000
0302
2003
,
0200
0300
0000
3020
0000
0230
0000
0000
,
0302
2003
0200
3320
0000
0230
0320
0230
,
0000
0302
2000
0003
3002
0000
0223
0000
,
2330
3020
0230
0320
,
0002
0000
2033
0000
3220
0030
2302
0003
,
3020
0032
0203
2300
3020
0032
0003
0200
,
2300
3002
0003
0200
0000
0020
0000
0030
,
2300
0002
3000
0000
0000
0203
0000
0000
,
0020
0300
0000
2000
0030
0000
0002
3000
,
0000
0203
0000
0020
0300
0000
2030
0000
,
3002
0000
0203
0000
0020
0300
0000
2030
,
0000
3002
0000
0203
0000
0020
0300
2030
,
0000
0000
3002
0203
0000
0320
0230
0000
,
0302
2003
0000
3020
0030
0000
0220
0000
,
0000
0000
0000
0000
,
0000
0000
0000
0000
0000
0000
0330
1100
,
1010
0000
0101
0010
0001
1000
0100
1020
0000
0130
0001
0000
0001
1000
0200
0000
,
1300
0010
0100
0001
0001
1020
0000
0130
0002
0000
1003
0100
1000
0010
0100
0001
,
0001
1000
0100
1000
0010
0100
0001
0210
0300
0010
0000
1020
1030
0000
0100
0021
,
0030
1000
0100
1000
0020
0130
0001
0000
0001
2200
3300
0220
0330
0022
0033
1000
,
0100
1000
0022
0133
0000
1000
0001
0000
0001
0010
0100
0000
0010
1000
0100
1000
,
0001
0010
1000
1000
0001
0010
0100
0010
0000
2200
3300
0220
0330
0022
0033
0000
,
0110
2002
3003
0000
0010
0100
0001
2000
3020
0130
0001
0000
0001
1010
0200
2300
,
3020
0030
0100
0001
0010
0000
0100
1000
0000
0220
0330
2020
3030
0202
0303
0000
,
0110
2002
3003
0000
0010
0100
0001
0000
0001
1000
0100
1000
0010
0000
0001
0100
,
0010
0000
1000
0101
0000
0010
0000
0220
0330
0220
0330
0220
0330
0220
0330
0000
,
0000
2002
3003
2002
3003
0100
0010
0100
0101
0000
0000
0000
0010
0000
1000
0000
,
0100
1000
0001
0010
0001
1000
0020
0100
,
0030
0001
1000
0200
1000
0000
0020
0300
,
0030
0002
0000
1003
0010
0100
0002
0000
,
2003
3200
1300
0020
0000
0230
0300
0002
,
1003
0010
0200
0302
0000
1003
0000
0010
,
0100
0001
1000
0000
1020
0000
0000
0030
,
0000
0202
0000
0303
1000
0002
0000
0023
,
0230
0300
0010
2000
3002
0203
0300
0020
,
0000
0000
0130
0000
1000
0001
0010
0001
,
0100
0020
0000
2030
3000
0100
0000
1020
,
0000
0030
1000
0000
0001
0000
0100
0010
,
0000
0001
1000
0000
0100
1000
0010
0100
,
0000
0010
0001
1000
0100
1000
0000
0220
,
0000
0330
0000
0220
0000
0330
0000
0220
,
0000
0330
0000
0220
0000
0000
0330
0MM0
,
1100
0001
0110
0000
1000
0100
1020
0030
0100
0001
0010
2001
3010
0100
0002
0003
,
1000
0001
0010
0120
0030
1000
0100
0011
0001
1000
0210
0300
0010
0001
1000
0100
,
1010
0010
0001
0100
1010
0020
0000
0000
0000
0000
0000
0000
0000
0000
0000
0000
,
0000
0000
0000
0000
,
0000
0000
0000
0200
,
0000
0000
0000
0300
,
0M00
0000
0000
0000
,
0000
0200
0000
0000
,
0300
0M00
0000
0000
,
0200
0300
0M00
0200
,
0300
0M30
0000
0000
,
0000
0110
0000
1000
0010
0000
0001
0010
,
0100
0001
0000
1000
0100
1000
0010
0000
,
0001
0100
0010
1000
0002
0003
0010
0100
,
0001
1000
0100
1000
0010
0000
0100
0001
,
0010
0001
1000
0100
1000
0010
2000
0010
,
3000
0021
0000
0230
0000
2300
0000
3020
,
0230
0000
0320
0032
2003
3200
2300
0000
,
3020
0000
0000
0000
0030
0000
0101
1100
0110
1000
0001
0110
0011
1000
0100
0000
,
1000
0020
0000
0000
0000
0000
0000
0000
0000
0000
0000
0000
0000
0000
0000
0000
,
2030
3000
2000
3002
,
0000
0203
0020
0330
,
2000
3000
0020
2030
,
0000
3020
0230
0000
,
0322
2033
0000
3020
,
0030
0200
0320
0002
,
0033
2002
0003
3200
,
0000
0000
0000
0000
2300
0000
0000
0002
0000
0203
0000
0000
0000
0000
0320
0000
,
3000
0000
0030
0002
0000
0203
0000
2300
0000
0000
3000
0000
0220
0000
0000
0000
,
0000
0000
0000
0000
,
0330
0002
0000
0000
2000
0000
0003
0000
3020
0000
0000
0000
0230
2000
0000
0000
,
3002
0000
0000
0000
2300
0000
0000
3020
0003
0000
0000
0030
2000
0200
0000
0000
,
3020
0300
0000
2000
0030
3200
0000
0302
,
0000
0023
0000
0000
2030
0000
0200
0000
,
0000
0320
0000
3000
,
0230
0020
0300
2030
,
0000
3020
0230
0300
,
0022
2033
0000
0000
,
3200
0020
0300
0230
,
0300
0002
0000
0203
,
0320
0000
0000
0000
2030
0000
0000
0020
,
0032
0000
3000
0200
0000
0320
2003
0030
,
0000
3002
0000
0203
0020
0300
2030
0000
,
0020
3000
0230
0000
0300
0002
0000
0000
,
2003
0000
0020
3000
0000
0230
0000
0000
,
0302
2003
3002
0203
,
0000
0320
0000
2030
0000
0000
3002
0000
,
0203
0000
0320
2030
0000
0000
3020
0000
,
0000
0032
0000
0000
2000
0003
0000
0020
,
3000
0200
0030
0000
0002
0300
2003
0000
,
0000
0000
3020
0000
0000
0030
0200
0000
,
0320
0000
0030
0002
0003
2000
3000
0020
,
0030
0200
0000
0302
0000
2003
0000
3020
,
0000
0030
0002
0000
2000
0003
0000
3020
,
0230
0000
0000
0000
0300
0022
2033
0000
,
0000
3000
0002
0203
0000
0320
0000
2030
,
0000
0000
3002
0200
0003
0000
0320
0000
,
2000
0000
0030
3000
0000
0200
0302
0000
,
2003
0000
3000
0200
0320
0000
0000
2030
,
0000
3000
0002
0003
0220
0330
2000
0000
,
3020
0000
0030
0002
0000
0003
2000
3020
,
0000
0230
0000
0320
0230
0000
0302
0003
,
2000
0000
3000
0200
0000
0302
0003
2000
,
3000
0200
0000
0320
2030
0000
0000
3002
,
0203
0000
0000
0320
0000
0000
2000
0030
,
0000
0000
0000
3002
0003
0200
0000
0320
,
0000
2030
0000
3002
0000
0203
0000
0020
,
0300
0000
2000
0030
0000
3002
0000
0203
,
0000
0000
0320
0000
2030
0000
0000
3002
,
0000
0000
0203
2300
0000
3000
0020
0000
,
0230
0000
0000
0320
0030
2000
0000
3002
,
0000
0203
0000
0320
0000
0000
0030
2000
,
3201
0300
2000
0000
3020
0000
0032
0000
,
0003
0200
0000
2300
0000
0000
3020
0000
,
0230
0000
0000
0302
2000
0003
0000
3200
,
0000
0000
2300
0000
0000
3000
0000
0000
,
0000
0000
0110
0000
0000
0020
0000
0200
0000
0000
0330
2000
0000
0000
0002
3000
,
0000
0203
0000
0320
0000
0000
2000
0030
0000
0000
3002
0000
0000
0000
0203
0000
,
0000
0320
2000
0030
0000
3002
0200
0003
,
0320
2030
3002
0203
,
0020
0300
2000
0030
0002
3000
0203
0000
,
0320
2030
3002
0203
,
0320
0000
2030
0000
3020
0200
0030
0302
,
0000
2003
0000
3200
0000
2300
0000
0000
,
3000
0220
0000
0000
,
0000
0000
0000
0000
,
0000
0000
0000
0000
,
0000
0000
0000
0000
,
0000
0000
0000
0000
,
0000
0000
0000
0000
,
0330
0MM0
0000
0000
0000
0000
0000
0000
;

//---------------dance-single - Kill me...----------------
#NOTEDATA:;
#CHARTNAME:;
#STEPSTYPE:dance-single;
#DESCRIPTION:Kill me...;
#CHARTSTYLE:;
#DIFFICULTY:Edit;
#METER:20;
#RADARVALUES:1.607537,4.220492,2.330556,5.826391,0.700037,1294.000000,969.000000,268.000000,670.000000,354.000000,384.000000,0.000000,0.000000,0.000000,1.607537,4.220492,2.330556,5.826391,0.700037,1294.000000,969.000000,268.000000,670.000000,354.000000,384.000000,0.000000,0.000000,0.000000;
#CREDIT:;
#NOTES:
2200
0000
0300
0020
0000
0002
0030
0003
,
0200
0000
0300
0020
0000
0000
0032
0203
,
0000
0320
0032
0203
,
3300
0000
0110
0000
MMMM
0000
0000
10MM
01MM
1000
0000
0010
M100
0001
0010
0M01
,
1000
0000
0000
0100
0000
0000
100M
0000
0000
0010
0000
0000
0000
0000
0000
M111
0000
0000
0000
0000
0000
1000
0000
0000
01MM
0000
0000
100M
0000
0000
0010
0000
0000
0000
M000
0000
0111
0000
0000
0000
0000
0000
1000
0000
0000
01M0
0000
0000
,
100M
0000
0000
0010
0000
0000
0100
0000
M000
0001
0000
0000
0000
0000
0000
1M11
0000
0000
0000
0000
0000
1100
0000
0000
0010
0000
0000
0100
0000
0000
M001
0000
0000
M010
0000
0000
0001
0000
0000
0000
0000
0000
1111
0000
0000
0000
0000
0000
,
0010
0200
0000
2000
0000
0000
0000
3002
0000
0000
0000
2003
0000
0000
0000
0002
,
3000
0000
0020
0003
0000
0000
0002
0030
0000
0000
0000
2000
0003
0000
0000
3020
,
0000
0000
033M
1000
010M
10M0
0M01
M010
,
0100
001M
1000
01M0
1000
0001
MM10
0001
,
10M0
0100
100M
0010
010M
0010
M100
0001
,
00M0
1100
0001
0010
M10M
0010
1010
0100
,
0011
0M01
1000
210M
3020
0130
0001
1000
,
01M0
100M
0010
0100
M001
00M0
1101
0010
,
M100
0001
10M0
0100
001M
M100
0000
1011
,
0100
00M1
1M00
0010
M101
0010
1M00
0010
,
0M01
10M0
0100
100M
0M10
1000
0001
M100
,
0010
1101
0000
0010
M100
0010
0M01
10M0
,
0100
100M
0010
M100
00M1
1000
0M10
M001
,
0100
0010
1001
0100
2020
0030
0002
0003
,
0200
0300
0020
0030
0002
0203
0000
0320
,
0000
0000
0030
0000
0002
0000
0000
0000
3003
0000
MMMM
0000
1001
0M00
0010
0000
,
M100
0001
00M0
1000
0100
00MM
1000
0M00
0011
0000
M100
000M
001M
1M0M
000M
0000
,
1110
0000
0001
0010
M100
000M
001M
110M
0000
11M0
0000
0001
M010
0M00
0001
10M0
,
0100
1000
0010
0000
1M1M
0000
0120
0000
1032
0000
0103
0000
1220
0000
2331
0000
,
3200
2320
3202
0300
2233
3000
2322
3233
,
2000
3320
0002
2203
0332
0000
3223
0300
,
2032
0203
0320
3000
0232
0320
2233
0320
,
0230
0302
3020
0233
0002
2323
3230
0302
,
2020
3203
2032
3303
0222
2303
3230
2322
,
3230
2303
3220
0332
2023
3200
2302
3033
,
0202
0023
2330
3002
0203
0320
2032
3200
,
2323
3032
0123
2002
3200
2303
3032
0203
,
0322
2033
3220
2332
3223
2332
0203
3322
,
2033
0000
3222
0000
0000
0000
2330
0000
3020
0000
0230
M000
0000
0000
2323
0000
,
0M02
0230
3020
2300
0233
33M2
2220
0000
,
0330
0220
3003
2002
3300
2230
0023
0002
,
0303
3232
23M0
3223
2302
0200
3030
2323
,
3232
M0M3
232M
3232
0023
230M
3232
23M0
,
0023
3202
2300
0M33
32MM
M022
2303
3202
,
2303
0000
3M32
0000
M2M3
0000
232M
000M
020M
0000
3032
0000
M023
0000
2302
0000
,
3M33
MMMM
2222
0000
0000
0000
0000
0000
,
0000
0000
0000
0000
0000
0000
0000
0000
0000
3333
0000
MMMM
0000
1010
0101
1011
,
0100
0021
1030
0101
1000
0111
1000
0011
0101
0011
1100
0001
1210
0300
1001
0010
,
0100
2001
3011
0100
1011
0101
1001
0110
0011
1100
0011
1100
0110
1001
0111
1010
,
0110
0000
2020
3230
0320
2030
3001
0100
0020
0230
0302
2003
3010
0100
0000
0010
,
0200
0302
0000
1003
0100
0010
0100
0011
2000
0000
3010
0100
0001
0010
0000
0110
,
2000
0000
3001
0010
0200
0000
0310
2000
0000
3002
0023
0230
0000
0320
2030
3100
,
0001
0020
0000
0230
0302
2003
3000
0010
0100
0001
0000
1101
0010
0200
0320
2030
,
0000
3011
00MM
1010
M0M0
0110
0MM0
0101
00MM
0011
0000
1000
01M0
100M
0010
010M
,
0010
010M
0010
1000
00M1
0100
0010
1M00
001M
0100
0011
M000
0001
10M0
0100
1000
,
001M
0M00
0010
M001
0100
0010
1000
010M
10M0
0000
0M01
M010
0001
0100
1010
000M
,
1M00
00M1
0100
M010
010M
1000
0001
0110
0000
1011
0100
1000
001M
0100
M010
0001
,
1000
01M0
10M0
000M
M11M
M11M
M11M
0110
2002
3003
0110
0000
2000
0000
0MMM
0000
,
0MMM
0MMM
0M2M
0M3M
,
0020
3030
0020
0000
0030
1000
0100
1000
,
0001
0010
0100
0010
1000
0001
0010
0001
,
1000
0100
1000
0010
0100
0001
0010
1000
,
0100
1000
0010
0100
0001
1000
0100
1000
,
0001
0010
0001
1000
0100
1000
0011
0100
,
0010
1000
0111
0100
0010
1000
0001
0100
,
0000
0010
1011
0100
1000
0100
0010
0001
,
0000
1110
0000
0010
0001
0100
1010
1000
,
0001
0110
0010
1000
0100
1000
0100
0011
,
1000
0010
0200
0310
0001
1010
1000
0001
,
0100
0010
0001
1000
0100
1000
0001
0100
,
0010
1000
0001
0100
0010
1000
0100
1000
,
0001
0010
0001
1000
0010
0100
0010
0001
,
1000
0100
1000
0001
0100
0010
0001
1000
,
0110
MMMM
0000
1000
01M0
100M
001M
M100
00M1
1M11
0100
100M
0010
M100
0111
1000
,
0100
1020
003M
0100
M001
0M11
1000
0100
001M
M100
0010
1011
0100
0010
M100
0001
,
10M0
2100
301M
0100
0001
0010
2M02
0000
0220
0000
0000
0000
0000
0000
0000
0000
,
0000
0000
0000
0000
,
0000
0000
0000
0000
,
0000
0000
0000
3333
MMMM
2222
0330
0203
,
0320
0032
0203
0320
0002
0230
0020
0000
,
0300
0000
0200
0000
0000
0000
0000
0000
0000
0000
3333
0000
MMMM
0000
2000
0M22
,
3200
0030
2300
0003
3020
000M
0230
M000
0301
00M0
2000
0M00
3022
0000
0230
0000
,
2300
3020
0233
23MM
3M12
M203
23MM
3020
,
0M32
20M3
3200
032M
2032
32M3
230M
30M0
,
0M00
10MM
0100
100M
0010
M100
0001
1MM0
,
0001
MM10
0001
M100
001M
1000
01MM
1000
,
0M11
0010
M100
001M
1M00
001M
0100
1022
,
0030
0103
1000
01M0
010M
2010
3M00
0021
,
2M30
300M
0210
030M
1MM0
1001
1000
0010
,
0120
1030
0100
0001
01M0
1000
001M
0100
,
1011
0M00
1000
0M10
M001
0100
1000
0010
,
0M01
0000
0000
0000
0000
0000
10M0
0000
0000
0000
0000
0000
010M
0000
0000
0000
0000
0000
1000
0000
0M00
0011
0000
0000
0110
0000
0000
1010
0000
0000
110M
0000
0000
0110
M000
0000
0011
0000
0000
1010
0000
0000
110M
0000
0000
0110
0000
0000
,
0101
1MM1
0220
0000
0000
0000
0000
0000
0000
0000
0000
0000
0000
0000
0330
0000
,
2200
0302
0023
0230
3302
0020
2033
3202
,
2320
3230
2323
3230
0302
2023
3232
1323
,
0232
0000
2300
0023
3232
0300
2003
0022
,
3230
0000
2300
3020
0233
2322
0000
3230
,
0323
2030
3202
0320
2200
0003
3030
0022
,
2303
0200
3032
2300
3223
2330
3202
0323
,
0232
2323
3032
2203
3322
2203
3332
2223
,
0331
3222
2303
3232
2323
0232
3323
2202
,
3333
2222
0300
3230
2020
0000
0000
0000
,
0000
0000
0000
0000
0000
0000
0000
3333
,
MMMM
2222
3033
2321
3232
2323
3132
2223
,
3302
2033
3202
2323
3032
2203
0322
0033
,
3222
2300
3230
2003
0020
3002
0300
0203
,
2030
0302
3223
0000
2032
3020
2003
0000
,
0032
0300
3020
0003
2230
0002
0020
0003
,
0302
0230
0323
0000
3232
0000
2320
0000
,
0233
0000
3022
2300
3233
2022
0333
3022
,
0203
2032
0323
3000
2232
3000
2023
0000
,
0002
0000
3330
0020
2233
3000
0022
0033
,
2302
3000
0220
2030
0003
0022
3330
0223
,
2332
0223
3032
2323
,
0232
3003
M32M
0000
0030
00M0
0200
0000
,
0320
0M00
2030
00M0
0000
0000
3020
0000
,
M230
0000
0302
00M0
0003
020M
2300
0M00
,
3020
M000
0230
00M0
0300
0M00
0002
0000
,
0203
000M
0020
0000
0302
0M00
2033
00M0
,
000M
0000
3020
M000
0230
00M0
0020
0000
,
0300
0M00
2030
00M0
0000
0000
3002
M000
,
0203
000M
0000
0000
0320
0M00
2030
00M0
,
0000
0000
3020
M000
0000
0000
0230
00M0
,
0020
0000
0302
0200
2333
00MM
0M20
0000
,
3000
0000
M230
00M0
0000
0000
0020
0000
,
0330
0MM0
2022
0000
0033
00MM
0000
0022
,
3200
0000
2000
0000
0300
0M00
0000
0000
,
3000
M033
0000
0000
1000
0000
0010
M000
,
0000
00M0
0100
0000
0000
0M00
0010
0000
,
0000
00M0
0001
0000
0000
000M
1000
0000
,
0000
0000
1000
0000
0000
M000
0010
0000
,
0000
00M0
0100
0000
0000
0M00
0010
0000
,
0000
00M0
0001
0000
0000
000M
1000
0000
,
0000
M000
0010
0000
0000
00M0
0100
0000
,
0000
0M00
0000
0000
1222
2000
3300
2230
,
3320
2230
3020
2330
3220
2030
3320
2233
,
3322
2233
3322
2230
3003
2022
3330
2220
,
3303
0232
2320
0030
3200
2323
3002
0233
,
2320
0032
0123
0230
0302
0223
3032
2320
,
3200
2333
3202
2320
3230
2320
0030
3210
,
2320
3200
2330
3200
2320
3030
2223
0000
,
3302
0233
2020
033M
0000
3220
0302
2033
,
0020
3232
0020
2303
3132
0203
2302
3020
,
0000
0130
2000
3223
2300
3000
2032
0203
,
3320
2032
0020
3230
0320
0030
2000
3200
,
2300
3020
0230
0320
0030
2000
3200
0320
,
0030
2000
3203
0000
2322
0230
3320
2033
,
3222
2303
3202
0303
2032
3220
2333
3220
,
2332
3023
2130
3020
0032
0203
2300
3000
,
0000
MMMM
MMMM
MMMM
MMMM
MMMM
MMMM
MMMM
MMMM
MMMM
0000
0000
1000
0000
0000
0000
,
0000
0001
0000
0100
,
0000
0010
0000
0000
,
0100
0000
1000
0000
,
0010
0000
0001
0000
,
1000
0000
0100
0000
,
0000
0010
0000
0001
,
0000
1000
0000
0010
,
0000
2222
0000
0000
,
0000
0000
0000
0000
,
0000
0000
0000
0000
,
0000
0000
0000
0000
,
0000
0000
0000
0000
,
0000
0000
0000
0000
,
3333
MMMM
0000
0000
0000
0000
0000
0000
;

//---------------dance-single - ----------------
#NOTEDATA:;
#CHARTNAME:;
#STEPSTYPE:dance-single;
#DESCRIPTION:;
#CHARTSTYLE:;
#DIFFICULTY:Hard;
#METER:10;
#RADARVALUES:0.756561,2.350557,0.417413,1.974016,0.365236,609.000000,561.000000,48.000000,227.000000,0.000000,0.000000,0.000000,0.000000,0.000000,0.756561,2.350557,0.417413,1.974016,0.365236,609.000000,561.000000,48.000000,227.000000,0.000000,0.000000,0.000000,0.000000,0.000000;
#CREDIT:;
#NOTES:
// measure 0
0000
0000
0000
0000
,  // measure 1
0000
0000
0000
0000
,  // measure 2
0000
0000
0000
0000
0000
0000
0000
0220
,  // measure 3
0000
0000
0000
0000
0330
0000
2000
0000
3001
0000
0010
0000
0100
0010
0000
1000
,  // measure 4
0001
0000
0010
0001
0000
0000
1001
0000
0100
0010
0000
0020
0000
0030
0100
0000
,  // measure 5
0002
0000
1003
0000
1000
0000
0010
0000
0100
0001
0000
0001
1000
0000
1000
0000
,  // measure 6
0020
0000
0000
0000
,  // measure 7
0000
0000
0000
0000
,  // measure 8
0000
0000
0000
0030
0000
0000
1001
0000
0000
0000
0010
0000
0100
0000
0001
0000
,  // measure 9
0000
1000
0102
0000
1003
0010
0000
0000
,  // measure 10
0100
0001
0200
1000
0300
0010
0000
0000
,  // measure 11
1020
0001
0030
0100
0000
0010
1000
0001
,  // measure 12
2000
0001
3000
0100
0000
1000
0010
0100
,  // measure 13
0000
0000
0001
1000
0010
0000
0200
0300
,  // measure 14
0002
0003
2000
3000
0200
0000
0301
0000
,  // measure 15
0002
0000
0003
2000
3020
0030
0200
0000
,  // measure 16
0302
0003
2000
3020
0030
0200
0300
0001
,  // measure 17
0000
0001
2000
0000
3020
0030
0100
0002
,  // measure 18
0003
2000
3020
0230
0302
0003
2000
3020
,  // measure 19
0030
0200
0302
2003
0000
0000
0000
0000
,  // measure 20
0000
0000
0000
0000
,  // measure 21
0000
0000
3000
0110
,  // measure 22
0000
1000
0010
0100
0001
0010
0001
1000
,  // measure 23
0100
1000
0001
0010
0100
0010
1000
0001
,  // measure 24
1000
0100
2000
0000
0000
0000
3000
0000
,  // measure 25
0020
0230
0302
2003
,  // measure 26
3020
0230
0302
2003
,  // measure 27
3020
0230
0302
2003
,  // measure 28
3020
0230
0302
2003
,  // measure 29
3002
0203
0000
0300
,  // measure 30
0020
2030
3002
0023
,  // measure 31
0230
0320
2030
3002
,  // measure 32
0023
0230
0320
2030
,  // measure 33
3002
0023
0230
0000
,  // measure 34
0300
0020
0030
2000
,  // measure 35
0000
3000
0002
0000
,  // measure 36
0023
0000
0030
0200
,  // measure 37
0000
0320
0000
2030
,  // measure 38
0000
3002
0000
0023
,  // measure 39
0000
0230
0000
0320
,  // measure 40
0000
2030
0000
0002
,  // measure 41
0000
0000
0000
0000
,  // measure 42
0000
0000
0000
0000
0000
0000
3003
0110
,  // measure 43
1000
0100
1000
0001
0010
0100
0010
0010
1000
0001
0001
0010
0100
0010
1000
0000
,  // measure 44
1000
0001
0010
0001
1000
0010
0000
0010
0100
0001
1000
0010
0101
0010
0100
0101
,  // measure 45
1100
0000
0020
0000
0130
0000
0101
0000
0001
1000
0100
1000
0001
0010
0100
0000
,  // measure 46
0001
0010
0001
0000
1000
0010
0100
0001
1000
0020
0030
0220
0330
0200
0300
0000
,  // measure 47
1000
0000
0022
0000
0033
0000
0000
1000
0001
0010
0001
1000
0010
0000
0010
0100
,  // measure 48
0000
0000
0001
0000
0001
1000
0100
1000
0010
0000
0010
2200
3300
0022
0033
2020
,  // measure 49
3030
0001
0000
0001
0010
0100
0010
1000
0000
1000
0001
0001
0010
0100
0000
0001
,  // measure 50
0010
0001
1000
0100
0000
1000
0001
0000
0000
0220
0330
2020
3030
0202
0303
0000
,  // measure 51
0000
2002
3003
0000
0010
0100
0010
0000
1000
0001
0010
0000
0001
0000
1000
0100
,  // measure 52
1010
0001
0000
0000
0010
0000
0000
1010
0000
1010
0000
2020
3030
2020
3030
0000
,  // measure 53
0202
0303
0202
0303
0202
0303
0000
1000
0100
2000
0000
0000
0000
0000
0000
0000
,  // measure 54
0000
0100
0020
0000
,  // measure 55
3030
0000
0000
0001
1000
0020
0000
0030
,  // measure 56
0100
0001
1000
0100
,  // measure 57
1000
0010
0000
0000
0010
0100
0000
0001
,  // measure 58
0000
1000
0100
0000
1000
0001
0000
0010
,  // measure 59
0100
0000
0001
1000
0000
0200
0000
0310
,  // measure 60
0000
2000
0000
3001
0000
0010
0100
0000
,  // measure 61
0001
1000
0000
1100
0000
0001
0000
0010
,  // measure 62
0000
0101
0000
0000
0000
2020
0000
3030
,  // measure 63
0000
0000
0001
0000
0010
0001
1000
0000
,  // measure 64
0010
0100
0000
0001
1000
0000
0100
0000
,  // measure 65
1000
0010
0000
0100
0001
0000
1000
0001
,  // measure 66
0000
0010
0001
0000
1010
0000
0100
0001
,  // measure 67
0000
0010
0001
0000
1000
0000
1010
0000
,  // measure 68
0100
0001
0000
0010
0100
0000
0010
0000
,  // measure 69
1001
0000
1010
0000
0110
0000
0001
0010
0001
1000
0010
0100
0010
1000
0100
1000
,  // measure 70
0001
0010
0001
1000
0010
0000
1010
0100
0001
0010
0001
1000
0000
1010
0200
0300
,  // measure 71
0001
0010
0001
1000
0010
1000
2020
0000
0000
0000
0000
0000
0000
0000
0000
0000
,  // measure 72
0000
0000
0000
0000
,  // measure 73
0000
0000
0000
0000
,  // measure 74
0000
0000
3030
0220
,  // measure 75
0000
0000
0000
0000
,  // measure 76
0000
0000
0000
0330
,  // measure 77
2020
0000
0000
0000
,  // measure 78
3030
0202
0000
0000
0000
0000
0303
2020
,  // measure 79
0000
0000
0000
0000
,  // measure 80
3030
0000
0100
0001
0000
0010
0001
1000
,  // measure 81
0010
0100
0000
0001
1000
0100
1000
0010
,  // measure 82
0100
0001
0000
0001
1000
0100
1000
0001
,  // measure 83
0010
0000
0010
0100
0001
1000
0100
0000
,  // measure 84
0001
1000
0100
1000
0001
0010
0000
2000
,  // measure 85
0000
3002
0003
0020
0000
0130
0000
0001
,  // measure 86
1000
0100
0000
1020
0000
0000
0030
0100
,  // measure 87
0002
0000
0000
0000
0000
0000
1003
0000
0010
0100
0001
1000
0100
1000
0001
0010
,  // measure 88
0100
0020
0000
0000
0000
0000
0000
0000
0000
0000
0000
0000
0030
0000
0000
0000
,  // measure 89
0200
0000
0300
0001
0000
0000
0100
2000
,  // measure 90
3020
0000
0030
0100
0000
0000
1000
0001
,  // measure 91
0010
0000
0001
2000
0000
0000
3010
0000
,  // measure 92
0200
0000
0000
0301
0000
1000
0000
0010
,  // measure 93
0200
0000
0000
0301
0000
1000
0000
0010
,  // measure 94
0100
0000
0001
0000
1000
0010
0000
1000
,  // measure 95
0000
0010
1000
0000
0100
0000
1000
0000
,  // measure 96
0001
0000
0000
0100
0000
0010
0000
1000
,  // measure 97
0002
0003
0200
0000
,  // measure 98
0020
0000
0000
0000
,  // measure 99
0330
0000
0000
1000
0000
0001
0000
0010
,  // measure 100
0000
0100
0000
0010
0000
1000
0001
0000
,  // measure 101
0000
0100
0000
0010
0000
1000
0000
0001
,  // measure 102
0000
0010
0000
0000
0001
0000
1000
0000
,  // measure 103
0010
0000
0100
0000
0001
2000
0000
0000
,  // measure 104
3010
0000
0200
0300
0000
0000
0001
2000
,  // measure 105
3000
0000
0100
0000
0000
0010
0000
0000
,  // measure 106
0001
0000
1000
0010
,  // measure 107
0000
0100
0000
0010
,  // measure 108
0000
0100
0020
0000
,  // measure 109
0030
0000
0000
0002
,  // measure 110
2000
0003
0000
0000
,  // measure 111
0000
3002
0000
0000
,  // measure 112
0000
0203
0000
0000
,  // measure 113
0000
0320
0000
0000
,  // measure 114
0000
0000
2030
0000
,  // measure 115
0000
0000
3002
0000
,  // measure 116
0000
0000
0203
0000
,  // measure 117
0000
0000
0320
0000
,  // measure 118
0000
0000
2030
0000
,  // measure 119
0000
3000
0002
0000
,  // measure 120
0000
0203
0000
0000
,  // measure 121
0300
0020
0000
0000
,  // measure 122
2030
0000
0000
3000
,  // measure 123
0002
0000
0003
0200
,  // measure 124
0000
0300
0020
0000
,  // measure 125
0030
2000
0000
3002
,  // measure 126
0000
2000
0003
3020
,  // measure 127
0200
0030
0302
0000
,  // measure 128
2003
0000
3020
0000
,  // measure 129
0230
0000
0302
0000
,  // measure 130
2003
0000
3002
0003
,  // measure 131
0220
0000
0330
2000
,  // measure 132
0000
3000
0200
0000
,  // measure 133
0320
0000
0030
0200
,  // measure 134
0000
0302
0000
0003
,  // measure 135
2000
0000
3020
0000
,  // measure 136
0230
0000
0302
0000
,  // measure 137
2003
0000
3020
0000
,  // measure 138
0230
0000
0302
0000
,  // measure 139
0203
0000
0320
0000
,  // measure 140
0230
0000
0302
0000
,  // measure 141
2003
0000
3020
0000
,  // measure 142
0230
0000
0302
0000
,  // measure 143
2003
0000
3020
0000
,  // measure 144
0230
0000
0302
0003
,  // measure 145
0110
2002
0000
0000
,  // measure 146
3003
0010
2000
3002
,  // measure 147
0003
0000
0020
0230
,  // measure 148
0300
0020
0230
0302
,  // measure 149
0000
0000
0203
0320
,  // measure 150
0230
0302
2003
3020
,  // measure 151
0230
0000
0000
0300
,  // measure 152
0002
0203
0320
2030
,  // measure 153
3000
2002
0000
0000
,  // measure 154
0000
0000
0000
0000
,  // measure 155
0000
0000
0000
0000
,  // measure 156
0000
0000
0000
0000
,  // measure 157
0000
0000
0000
0000
,  // measure 158
0000
0000
0000
3003
,  // measure 159
0010
0000
0000
0000
;
