#TITLE:Over The Period;
#SUBTITLE:(In NES);
#ARTIST:daja77;
#TITLETRANSLIT:;
#SUBTITLETRANSLIT:;
#ARTISTTRANSLIT:;
#GENRE:;
#CREDIT:;
#BANNER:Over The Period (In NES).png;
#BACKGROUND:Over The Period (In NES)-bg.png;
#LYRICSPATH:;
#CDTITLE:cdtitle.png;
#MUSIC:Over The Period (In NES).mp3;
#OFFSET:0.000000;
#SAMPLESTART:87.444992;
#SAMPLELENGTH:8.885712;
#SELECTABLE:YES;
#BPMS:0.000000=32.500000
,15.333333=200.000000
,77.000000=150.000000
,107.000000=80.000000
,107.500000=160.000000
,108.000000=320.000000
,110.000000=160.000000
,110.500000=80.000000
,111.500000=160.000000
,112.000000=320.000000
,114.000000=160.000000
,114.500000=80.000000
,115.500000=160.000000
,116.000000=320.000000
,118.000000=160.000000
,118.500000=80.000000
,119.500000=160.000000
,120.000000=320.000000
,122.000000=160.000000
,122.500000=80.000000
,123.500000=160.000000
,124.000000=320.000000
,126.000000=160.000000
,126.500000=80.000000
,127.500000=160.000000
,128.000000=320.000000
,130.000000=160.000000
,130.500000=80.000000
,131.500000=160.000000
,132.000000=320.000000
,134.000000=160.000000
,134.500000=80.000000
,135.500000=160.000000
,136.000000=320.000000
,138.000000=160.000000
,138.500000=80.000000
,139.000000=160.000000
,171.000000=105.000000
,173.000000=210.000000
,175.000000=420.000000
,179.000000=210.000000
,184.000000=400.000000
,192.000000=210.000000
,196.000000=400.000000
,204.000000=210.000000
,208.000000=400.000000
,216.000000=210.000000
,254.000000=420.000000
,335.000000=52.500000
,336.000000=105.000000
,337.500000=210.000000
,341.000000=420.000000
,383.000000=600.000000
;
#STOPS:15.333333=1.348000,
74.500000=0.095000,
75.000000=0.095000,
75.500000=0.095000,
76.000000=0.095000,
76.500000=0.095000,
77.000000=0.100000,
251.000000=0.095000,
251.500000=0.095000,
252.000000=0.095000,
252.500000=0.095000,
253.000000=0.095000,
253.500000=0.095000
;
#BGCHANGES:;
#KEYSOUNDS:;
#ATTACKS:;

//---------------dance-single - ----------------
#NOTES:
     dance-single:
     :
     Hard:
     10:
     0.449105,0.768964,0.285794,0.308356,0.078969,418.000000,380.000000,38.000000,41.000000,72.000000,0.000000,0.449105,0.768964,0.285794,0.308356,0.078969,418.000000,380.000000,38.000000,41.000000,72.000000,0.000000:
// measure 0
0000
0000
0000
0000
,  // measure 1
0000
0000
0000
0001
0000
0000
0010
0000
0000
0100
0000
0000
1000
0000
0000
0020
0000
0000
0000
0000
0000
0230
0000
0000
0000
0000
0000
0300
0010
0000
1000
0000
0000
0001
0000
0000
0100
0000
0000
0002
0000
0000
0003
0000
0000
2000
0000
0000
,  // measure 2
3000
0000
0000
0000
0000
0000
0000
0000
0000
0000
0000
0000
0000
0000
0000
0000
0100
0000
0000
0000
0000
0000
0000
0000
0000
0000
0000
0000
0000
0000
0000
0000
0010
0000
0000
0000
0000
0000
0000
0000
0000
0000
0001
0000
0000
0000
0000
0000
0000
0000
0000
0000
0000
0000
1000
0000
0000
0000
0000
0000
0000
0000
0000
0000
0020
0000
0000
0000
0000
0000
0000
0000
0000
0000
0000
0000
0000
0000
0000
0000
0030
0000
0000
0000
0200
0000
0000
0000
0000
0000
0000
0000
0000
0000
0000
0000
0000
0000
0000
0000
0000
0000
0000
0000
0300
0000
0000
0000
0000
0000
0000
0000
2000
0000
0000
0000
0000
0000
0000
0000
0000
0000
0000
0000
0000
0000
0000
0000
0000
0000
0000
0000
0000
0000
0000
0000
0000
0000
0000
0000
0000
0000
0000
0000
0000
0000
0000
0000
0000
0000
0000
0000
0000
0000
0000
0000
0000
0000
0000
0000
3000
0000
0000
0000
0000
0000
0000
0000
0020
0000
0000
0000
0000
0000
0000
0000
0000
0000
0000
0000
0000
0000
0000
0000
0000
0000
0000
0000
0000
0000
0000
0000
,  // measure 3
0000
0000
0000
0030
0200
0000
0000
0000
0000
0000
0300
0000
0002
0000
0000
0000
0000
0000
0000
0000
0003
0000
0000
0000
,  // measure 4
0001
1000
0001
0000
0010
0000
0010
0100
,  // measure 5
0000
0100
1000
0000
0001
0000
0010
1000
,  // measure 6
0001
1000
0000
0000
0100
0000
0100
0010
,  // measure 7
0000
0010
0001
1000
0000
0000
0010
1000
,  // measure 8
0100
0010
0001
0010
,  // measure 9
0001
0100
0001
1000
,  // measure 10
1000
0000
1000
0001
0000
0001
0000
0001
,  // measure 11
0020
0000
0000
0000
0000
0000
0000
0000
0000
0000
0000
0000
0030
0000
1001
0000
0000
0000
0000
0000
0000
1000
0000
0000
,  // measure 12
0000
0010
0000
0100
0000
0001
0000
1000
,  // measure 13
0000
0001
0000
0010
0001
1000
0100
0010
,  // measure 14
0000
0100
0000
0001
0000
1000
0000
1010
,  // measure 15
0000
1100
0000
0011
0100
0000
0010
0000
,  // measure 16
0001
0100
0010
0100
,  // measure 17
0001
1000
0001
1000
0100
0000
0001
0000
,  // measure 18
0100
0000
1000
0100
0000
0010
0010
0010
,  // measure 19
0100
0100
0100
1000
0100
0001
0100
1000
,  // measure 20
0100
0001
0100
1000
0100
0001
0100
1000
,  // measure 21
0001
1000
0010
0100
0001
0100
1000
0100
,  // measure 22
0001
0100
0010
0000
0010
0000
0010
0101
,  // measure 23
0000
1100
0000
0001
0100
1000
0100
0001
,  // measure 24
0100
1000
0100
0001
0100
1000
0100
0001
,  // measure 25
0100
0001
0010
0100
1000
0100
0010
0000
,  // measure 26
0000
0000
0000
0000
0000
0000
0000
0001
1000
0001
1000
0001
0200
0000
0000
0000
,  // measure 27
0301
0020
0030
2000
,  // measure 28
3100
0002
0003
0200
,  // measure 29
0300
0020
0130
0002
,  // measure 30
0003
2000
3100
0002
,  // measure 31
0003
0200
1300
0020
,  // measure 32
0030
0200
0310
0002
,  // measure 33
0003
2000
3100
0002
,  // measure 34
0003
0210
0300
0100
,  // measure 35
0001
0100
1000
0010
,  // measure 36
0100
0101
1100
0001
,  // measure 37
0010
1000
0010
0100
,  // measure 38
0001
0000
0011
0000
1010
0000
0101
0001
,  // measure 39
0001
0001
0011
0010
0010
0010
0110
0100
,  // measure 40
0100
0100
1100
1000
1000
1000
0010
1000
,  // measure 41
0001
0100
0001
0010
0100
1000
0010
1000
,  // measure 42
0100
0010
0101
1010
0100
0010
2002
0000
,  // measure 43
0000
0000
0000
0000
,  // measure 44
0000
0000
0000
0000
0000
0000
0000
3003
,  // measure 45
0000
1000
0001
1000
0000
0000
0010
0000
,  // measure 46
0010
0100
0000
0000
MMMM
0000
MMMM
0000
,  // measure 47
MMMM
MMMM
MMMM
0000
,  // measure 48
1000
0001
1000
0000
0010
0000
0010
0100
,  // measure 49
0000
MMMM
MMMM
MMMM
,  // measure 50
MMMM
MMMM
MMMM
0000
,  // measure 51
0010
0100
0010
0000
1000
0000
1000
0001
,  // measure 52
0000
MMMM
MMMM
MMMM
,  // measure 53
MMMM
MMMM
MMMM
0000
,  // measure 54
1000
0000
1000
0000
1000
0001
0000
0001
,  // measure 55
0000
0001
0020
0000
0030
1001
0000
1000
,  // measure 56
0000
0010
0000
0100
0000
0001
0000
1000
,  // measure 57
0000
0001
0010
0001
0000
1000
0100
0010
,  // measure 58
0000
0100
0000
0001
0000
1000
0000
1010
,  // measure 59
0000
1100
0000
0101
0000
0011
0000
0100
,  // measure 60
0000
0010
0000
0001
0000
0100
0000
0010
,  // measure 61
0000
0100
0000
0001
1000
0001
1000
0100
,  // measure 62
0001
0000
0100
0000
1000
0000
0010
0010
,  // measure 63
0010
0100
0100
0100
0010
0000
0100
0000
,  // measure 64
0010
1000
0101
0001
,  // measure 65
0010
0100
0011
1000
,  // measure 66
0100
0001
0100
1000
,  // measure 67
0010
0110
0001
1000
,  // measure 68
0100
0001
1100
0001
,  // measure 69
0010
0100
0110
0001
,  // measure 70
0100
1000
1010
0001
,  // measure 71
0110
1000
0010
1001
,  // measure 72
0100
1000
0010
0001
,  // measure 73
0100
1000
1000
0001
,  // measure 74
0011
0100
0010
1000
,  // measure 75
0100
0020
0000
0000
,  // measure 76
0030
0200
0000
0300
,  // measure 77
0002
0000
0023
0000
,  // measure 78
0032
0000
0000
0003
,  // measure 79
0000
0100
0010
0100
,  // measure 80
0010
0100
0010
0100
,  // measure 81
0010
0000
0100
0000
1000
0001
1000
0001
,  // measure 82
1000
0001
1000
0001
1000
0001
1000
0000
,  // measure 83
0000
0000
0000
0000
0000
0000
0000
0000
0000
0000
0000
0000
0000
0000
0000
2002
,  // measure 84
0000
0000
3003
0220
0000
0000
0000
0000
,  // measure 85
0000
0330
2002
0000
0000
0000
0000
0000
,  // measure 86
0000
0000
0000
0000
,  // measure 87
0000
0000
0000
0000
,  // measure 88
0000
0000
0000
0000
,  // measure 89
3003
0000
1000
1000
,  // measure 90
0000
0001
0001
0000
,  // measure 91
1000
1000
0000
0001
,  // measure 92
0001
0000
0010
0001
,  // measure 93
1000
0100
0000
1000
,  // measure 94
0010
1000
0100
0001
,  // measure 95
0000
1001
0000
1001
,  // measure 96
0000
0000
0000
0000
,  // measure 97
0110
0000
0000
MMMM
0000
0000
0000
0000
;
