#TITLE:Ongaku;
#SUBTITLE:(STARDOM Remix);
#ARTIST:cosMo@BousouP;
#TITLETRANSLIT:;
#SUBTITLETRANSLIT:;
#ARTISTTRANSLIT:;
#GENRE:;
#CREDIT:PaperBox440;
#BANNER:Ongaku (STARDOM Remix).png;
#BACKGROUND:;
#LYRICSPATH:;
#CDTITLE:;
#MUSIC:Ongaku (STARDOM Remix).mp3;
#OFFSET:0.000000;
#SAMPLESTART:16.222221;
#SAMPLELENGTH:13.333334;
#SELECTABLE:YES;
#BPMS:0.000000=135.000000
;
#STOPS:
;
#BGCHANGES:;
#KEYSOUNDS:;
#ATTACKS:;

//---------------dance-single - ----------------
#NOTES:
     dance-single:
     :
     Hard:
     12:
     0.523061,0.562750,0.614226,0.135608,0.095724,459.000000,382.000000,77.000000,17.000000,0.000000,0.000000,0.523061,0.562750,0.614226,0.135608,0.095724,459.000000,382.000000,77.000000,17.000000,0.000000,0.000000:
1000
0000
0000
0100
0010
0010
0010
0000
,
1001
0000
1000
0100
0010
0100
0010
0001
,
1000
0001
1000
0100
0010
0100
0010
0100
,
1000
0001
0010
0100
0010
0000
0010
0100
,
1000
0100
0010
0001
0100
0010
0100
0000
,
1000
1001
0000
0110
0000
1010
0000
1000
,
0000
1001
0000
1100
0000
1001
0000
0110
,
0000
1010
0000
0011
0000
0110
1000
0001
,
1000
0000
0010
0000
0100
0000
0010
0000
0100
0000
0100
0000
1000
0001
1000
0001
,
0000
0010
0000
1000
0000
0001
0000
1000
,
0000
0110
0000
1001
0000
0010
0100
0100
,
0001
1000
0000
1001
0000
0110
1000
1000
,
0001
1001
1100
0110
,
0002
0000
0000
0000
0003
0100
1000
1000
,
0010
0100
0010
0000
1001
0000
0100
0000
,
1000
1000
0001
0000
1001
0000
1100
0010
,
0010
0000
2002
0000
0000
0000
0000
0000
0000
3003
0000
0000
0100
0000
0010
0000
,
0100
0002
0000
0000
1000
1003
0100
0010
,
0220
0000
0000
0330
0000
0000
1000
0000
1000
0000
0001
0000
0001
0000
0000
0000
,
0010
1000
0100
0001
0010
0001
1000
1000
,
0001
0000
0002
0000
0000
0000
0003
0000
0100
0010
0200
0000
0000
0300
0000
0000
,
0001
1000
0002
0000
0000
0003
0000
0000
1000
0000
1000
0020
0000
0000
0030
0000
,
0100
0000
1001
0100
1100
0001
1001
0000
,
0100
0000
0001
0000
0001
0000
0010
0100
0010
0100
0010
0000
1000
0000
1000
0000
,
0002
0000
0000
0000
1003
0000
1000
0100
0000
0100
0000
0010
0000
0000
1001
0000
,
0000
0001
0001
0010
0010
0100
0100
1000
,
1001
0000
0100
0010
0010
0100
0100
1000
,
1001
0010
0100
0010
0100
0001
0001
1000
,
1100
0000
0000
0000
0100
0110
0000
0000
,
0000
1000
1001
0000
0000
0010
0110
0000
,
1000
1001
0000
0000
0000
0100
0100
0010
,
0001
0001
0100
1000
1000
0001
0010
0001
,
1000
1001
0000
0100
0000
0110
0000
1010
,
0000
0011
0000
0110
0000
1100
0000
1001
,
0000
0000
0010
0000
0100
1000
0100
0000
0020
0000
0000
0000
0230
0000
0000
0000
,
0300
0001
0010
1000
2000
0000
3001
0001
,
0010
0100
0110
0001
1000
1000
0000
0110
,
0000
0011
0000
1001
0000
1000
0000
1100
,
0000
0010
0000
0010
0100
0001
0001
1000
,
1000
0000
0001
0000
0001
0000
0010
0100
0010
0000
1000
0001
1000
0000
0000
0000
,
0110
0000
1001
0000
0010
0000
0110
1000
,
1100
0000
0011
0000
1001
0000
0010
0100
,
0110
0000
1000
0001
1000
0000
1001
0000
,
0110
0000
1000
0001
1000
0010
0010
0100
,
0100
0000
0000
1000
1001
0000
0000
0000
,
0010
0100
0000
0000
1000
1001
0000
0000
,
0100
0110
0000
0000
0001
0010
0000
1000
,
1000
0100
0000
0010
0010
0100
0000
1000
,
0000
1001
0000
0011
0000
0110
0000
1100
,
0001
0001
0100
0010
0010
1000
0100
1000
,
0001
0000
0001
0000
0100
0000
0100
0000
1000
0000
1000
0000
0001
0010
0001
0000
,
0100
0000
0100
0010
0000
0000
0010
1000
0100
1000
0001
0000
0001
0000
0100
0010
,
0100
1000
0001
0100
,
1001
1100
0110
0010
,
0100
0000
1001
0000
0000
1000
1000
0001
,
0001
0100
0110
1001
,
0001
0000
1000
0000
1000
0010
0100
0100
,
0000
1001
0000
0000
0010
0100
0000
1000
,
0000
1001
0000
0001
0020
0000
0130
0000
,
1001
0000
0000
1000
1000
0000
0100
0010
,
0010
0000
1001
0000
1000
0100
0001
0010
,
0000
0110
0000
1100
0000
1001
0000
0011
,
0000
0000
1000
0000
0001
0000
1000
0000
0100
0010
0100
0000
0001
1000
0001
0000
,
0000
0000
1000
0000
0001
1000
0000
0000
1000
0000
0110
0000
0001
0000
0000
0001
,
0000
0000
0001
0000
0010
0000
0010
0100
2000
0000
0000
0000
0000
0000
3002
0000
,
0000
0000
0000
0000
,
0000
0000
0000
0000
0000
0000
0000
0000
0000
0003
0000
0000
0010
0000
0100
0000
,
0000
0000
1000
0001
0000
0000
0000
0000
0000
0000
0000
0000
0000
0000
0000
0000
;

//---------------dance-single - ----------------
#NOTES:
     dance-single:
     :
     Medium:
     10:
     0.419360,0.428363,0.606249,0.255263,0.000000,368.000000,292.000000,76.000000,32.000000,0.000000,0.000000,0.419360,0.428363,0.606249,0.255263,0.000000,368.000000,292.000000,76.000000,32.000000,0.000000,0.000000:
0000
0000
0000
0000
,
1001
0000
1000
0100
0010
0100
0001
0000
,
0001
1000
0100
1000
0010
0000
0010
0000
,
0100
0010
0100
0000
0001
0000
0001
0000
,
1000
0100
1000
0010
0100
0010
0000
1000
,
0000
1001
0000
0010
0000
0100
0000
0110
,
0000
1000
0000
1010
0000
0001
0000
0101
,
0000
0100
0000
1001
0000
0100
0000
0001
,
0000
1001
0000
0100
0100
1000
1000
0000
,
1001
1100
0100
0010
,
0100
0000
0110
0000
0001
0001
1000
0000
,
1000
1001
0110
1001
,
0100
0110
1010
2000
,
3001
0000
1001
0000
0000
0000
0100
0010
,
0100
0000
1001
0000
0000
0001
0001
0000
,
1000
0010
0100
0000
0110
0000
1000
0000
,
2002
0000
0000
0000
3003
0000
0010
0100
,
0000
0220
0000
0000
0330
0000
0001
0010
,
0200
0000
0000
0300
0002
0000
0000
0003
,
2000
0000
0000
3000
0100
0010
0200
0000
,
0301
0002
0000
0003
1000
2000
0000
3000
,
0100
0200
0000
0300
0010
0020
0000
0030
,
0001
1001
1100
0110
,
1001
0000
0100
0010
1000
0001
0000
0010
,
0200
0000
0300
0001
0001
0000
1000
1001
,
0000
0100
0100
0001
0001
0000
0000
0110
,
1001
0000
0100
0100
0000
0001
0001
0000
,
1100
0011
0000
0100
0100
0001
0001
0000
,
1000
1001
0000
0000
0100
0110
0000
0000
,
0001
1001
0000
0000
0100
0010
0000
0000
,
0001
1001
0000
0000
0010
0100
1000
0001
,
1000
0000
0000
0000
1000
1001
0000
0100
,
0010
1000
0000
1100
0000
1001
0000
0001
,
0000
0100
0000
0110
0000
1000
0000
1001
,
0020
0000
0100
1030
0200
0000
0310
0000
,
0002
0000
0000
1003
0200
0000
0300
0010
,
0010
1000
1001
0110
,
1100
0011
0110
1001
,
1000
0001
1000
1001
,
0100
0010
0100
1000
1001
0000
0100
0000
,
0110
0000
0001
1000
0001
0000
1100
0000
,
1010
0000
0001
0000
0001
0010
0100
0000
,
0110
0000
0001
0001
1000
0000
1001
0000
,
0110
0000
0000
0100
0100
0000
1000
0000
,
0001
0000
0000
0100
0110
0000
0000
1000
,
1001
0000
0000
0000
0100
0110
0000
0001
,
1001
0000
0000
0100
0010
0000
0000
0001
,
0001
0000
1000
0100
0020
0000
0030
0000
,
0110
1010
1100
1001
,
0001
1000
0100
0110
,
1010
0000
1000
1000
0000
0001
0001
0100
,
0100
0000
0010
0000
1000
0001
1000
0001
,
2000
3002
0203
0320
,
1030
1001
0100
0010
,
1100
0000
2002
0000
3003
0000
0010
0100
,
0010
0000
1001
0000
0010
0000
0100
0010
,
0100
1100
1001
0220
,
0330
2000
0000
3000
0001
0001
1000
0000
,
2000
0000
3000
0000
0010
0100
0010
0000
,
1001
0000
0100
0110
0000
0001
0100
0000
,
0010
0000
1000
0000
0100
0010
0001
0000
,
1001
1100
0110
0001
,
1000
0000
1001
0000
0100
0010
0010
0000
,
0000
0001
0001
0001
0000
1000
1000
1000
,
0000
0100
0010
0200
0000
0300
2002
0000
,
0000
0000
0000
0000
,
0000
0000
0000
0000
3003
0000
0010
0100
,
0000
1000
0000
0000
0000
0000
0000
0000
;

//---------------dance-single - ----------------
#NOTES:
     dance-single:
     :
     Easy:
     6:
     0.357824,0.452593,0.670065,0.119654,0.000000,314.000000,230.000000,84.000000,15.000000,0.000000,0.000000,0.357824,0.452593,0.670065,0.119654,0.000000,314.000000,230.000000,84.000000,15.000000,0.000000,0.000000:
// measure 0
0000
0000
0000
0000
,  // measure 1
1000
1000
0100
0010
,  // measure 2
0100
0001
1000
0001
,  // measure 3
0100
0010
0100
1000
,  // measure 4
0001
1000
1000
0001
,  // measure 5
1001
1000
0001
1001
,  // measure 6
0100
0110
0010
1010
,  // measure 7
1000
1001
0010
0110
,  // measure 8
1001
1100
0001
0000
,  // measure 9
0110
1001
1100
0100
,  // measure 10
0010
1001
0000
1000
,  // measure 11
1000
0001
1000
0001
,  // measure 12
0010
0110
1100
1001
,  // measure 13
0001
1000
0000
0100
,  // measure 14
0100
0010
0000
0001
,  // measure 15
0001
1000
0001
1000
,  // measure 16
2002
0000
0000
3003
0000
0000
0010
0000
,  // measure 17
0220
0000
0000
0330
0000
0000
0001
0000
,  // measure 18
1000
1001
0001
1001
,  // measure 19
0110
0000
1001
0001
,  // measure 20
1000
2000
3001
0002
,  // measure 21
0103
0200
0310
0020
,  // measure 22
1030
1001
1001
0110
,  // measure 23
1000
0001
1000
0001
,  // measure 24
1000
0001
0001
1001
,  // measure 25
0100
0100
0100
1000
,  // measure 26
1001
0010
0010
0100
,  // measure 27
0110
0001
0001
1000
,  // measure 28
1001
0000
0110
0000
,  // measure 29
1100
0000
0001
1001
,  // measure 30
0100
0000
0001
1001
,  // measure 31
1000
0001
1000
0001
,  // measure 32
1001
1000
0001
1000
,  // measure 33
0100
0010
0100
0001
,  // measure 34
0110
0100
0001
1000
,  // measure 35
1001
0001
0200
0301
,  // measure 36
1001
0110
1001
0010
,  // measure 37
0001
0100
0110
0001
,  // measure 38
1000
1001
0010
0100
,  // measure 39
0110
0001
0001
1000
,  // measure 40
1001
0100
0010
0100
,  // measure 41
0110
0001
0001
1000
,  // measure 42
1001
0100
0010
0100
,  // measure 43
0110
0001
0001
1000
,  // measure 44
1000
0010
0110
0000
,  // measure 45
1001
0000
0110
1000
,  // measure 46
1001
0010
0100
0001
,  // measure 47
1001
0100
0110
0001
,  // measure 48
1001
1100
0110
1001
,  // measure 49
1100
0011
1001
0100
,  // measure 50
0110
0010
1010
1000
,  // measure 51
1001
0110
0000
0000
,  // measure 52
2000
3002
0203
0310
,  // measure 53
1000
1001
0010
0110
,  // measure 54
0001
1001
0000
0100
,  // measure 55
0100
0110
0000
0001
,  // measure 56
1001
1100
0110
0001
,  // measure 57
1001
0000
0110
0001
,  // measure 58
1001
0000
0100
0110
,  // measure 59
1001
0000
1000
0001
,  // measure 60
1001
0000
0100
0110
,  // measure 61
1001
1100
0110
1001
,  // measure 62
0001
1000
0002
0003
,  // measure 63
1001
0000
0110
0000
,  // measure 64
1001
0001
1000
0220
,  // measure 65
0000
0000
0000
0000
,  // measure 66
0000
0000
0030
0300
;
