#VERSION:0.83;
#TITLE:OTENAMI Hurricane;
#SUBTITLE:;
#ARTIST:t+pazolite;
#TITLETRANSLIT:;
#SUBTITLETRANSLIT:;
#ARTISTTRANSLIT:;
#GENRE:;
#ORIGIN:;
#CREDIT:PaperBox440;
#BANNER:OTENAMI Hurricane.png;
#BACKGROUND:OTENAMI Hurricane-bg.png;
#PREVIEWVID:;
#JACKET:OTENAMI Hurricane-jacket.png;
#CDIMAGE:;
#DISCIMAGE:;
#LYRICSPATH:;
#CDTITLE:;
#MUSIC:OTENAMI Hurricane.ogg;
#OFFSET:0.000000;
#SAMPLESTART:89.581398;
#SAMPLELENGTH:17.023254;
#SELECTABLE:YES;
#BPMS:0.000=215.000;
#STOPS:;
#DELAYS:;
#WARPS:;
#TIMESIGNATURES:0.000=4=4;
#TICKCOUNTS:0.000=4;
#COMBOS:0.000=1;
#SPEEDS:0.000=1.000=0.000=0;
#SCROLLS:0.000=1.000;
#FAKES:;
#LABELS:0.000=Song Start;
#BGCHANGES:;
#KEYSOUNDS:;
#ATTACKS:
;

//---------------dance-single - ----------------
#NOTEDATA:;
#CHARTNAME:;
#STEPSTYPE:dance-single;
#DESCRIPTION:;
#CHARTSTYLE:;
#DIFFICULTY:Hard;
#METER:14;
#RADARVALUES:0.726594,0.769595,0.590285,0.315358,0.222368,629.000000,556.000000,73.000000,39.000000,0.000000,0.000000,0.000000,0.000000,0.000000,0.726594,0.769595,0.590285,0.315358,0.222368,629.000000,556.000000,73.000000,39.000000,0.000000,0.000000,0.000000,0.000000,0.000000;
#CREDIT:;
#NOTES:
// measure 0
0000
0000
0000
0000
,  // measure 1
0000
0000
0000
0000
,  // measure 2
0000
0000
0000
0000
,  // measure 3
0000
0000
0000
1001
,  // measure 4
0000
0000
0010
0000
0000
0000
0100
0010
,  // measure 5
0100
1001
0000
0000
,  // measure 6
0010
0100
0010
1001
0000
0000
0000
0100
,  // measure 7
0001
0010
1001
0000
0000
0000
0000
0000
,  // measure 8
0010
0100
1010
0000
0000
0000
0000
0000
,  // measure 9
0010
0100
0011
0000
0000
0000
0000
0000
,  // measure 10
1000
0100
0010
0000
0100
0000
0010
0000
,  // measure 11
0100
1000
0000
0001
0000
0001
0010
0100
,  // measure 12
1000
0001
1000
0000
0100
0010
0100
0000
,  // measure 13
0010
0000
0001
1000
0001
0000
0010
0000
,  // measure 14
1000
0001
1000
0000
0100
0000
0010
0100
,  // measure 15
0010
0000
0001
0000
1000
0000
2000
3000
,  // measure 16
0010
0000
0110
0000
0100
0010
0100
0000
,  // measure 17
0001
1000
0001
1000
0100
0000
0110
0000
,  // measure 18
0110
0000
1001
0000
1000
0100
1000
0000
,  // measure 19
0010
0001
0100
0010
0100
0000
0220
0330
,  // measure 20
1000
0000
2001
0000
0000
0000
3000
0001
,  // measure 21
0010
0200
0000
0000
0000
0000
0300
0000
,  // measure 22
1001
0000
0020
0000
0000
0030
0100
0010
,  // measure 23
0200
0000
0000
0000
0000
0300
1000
0000
,  // measure 24
1100
0000
0110
0000
0010
0001
0010
0001
,  // measure 25
1000
1000
0000
0100
0000
0010
0110
0000
,  // measure 26
1000
0000
0000
0000
0001
0000
0001
0100
0001
0000
0010
0100
0000
0010
1000
0000
,  // measure 27
1000
0100
0000
0010
0002
0000
0000
0000
0000
0000
0000
0000
0003
0000
0000
0000
,  // measure 28
0000
0000
1000
0010
1000
0010
0001
0010
,  // measure 29
0001
0010
0100
0010
0100
0000
1000
0000
,  // measure 30
1001
0000
0100
0010
0100
0010
0100
0001
,  // measure 31
0100
0001
0100
1000
0100
1000
0100
0000
,  // measure 32
0110
0000
0000
0000
1001
0000
0000
0001
0010
0000
0100
0000
0000
0100
0000
0000
,  // measure 33
1000
0100
0000
0010
0001
0000
0100
0000
0000
0000
0110
0000
0000
0000
1001
0000
,  // measure 34
0000
0000
0010
0000
0010
0001
1000
0001
,  // measure 35
0010
0000
0000
0000
0010
0000
0100
0000
0000
0010
0100
0000
1000
0000
0000
0000
,  // measure 36
1001
0000
0010
0100
0010
0100
0001
0000
,  // measure 37
0001
0010
0100
0000
0100
0000
1000
0000
,  // measure 38
1001
0000
0000
0000
0010
0000
0100
0000
0010
0100
0010
0000
1000
0000
0100
0000
,  // measure 39
0000
0010
1000
0000
1000
0000
0100
0000
,  // measure 40
0011
0000
1001
0000
0010
0100
0010
0100
,  // measure 41
0001
0000
0001
0100
0010
0000
0010
1000
,  // measure 42
1001
0000
0000
0000
0010
0100
0010
0100
0000
0100
0000
0000
0010
0000
0000
0000
,  // measure 43
1010
0000
0000
0010
0000
0000
0010
0000
0100
0000
0100
0000
0000
1000
0002
0000
,  // measure 44
0000
0003
1000
0100
0010
0100
0010
0001
,  // measure 45
0002
0000
0003
1000
0100
1000
0100
0010
,  // measure 46
0020
0000
0030
0001
0001
1000
0001
1000
,  // measure 47
1000
2002
0000
0000
,  // measure 48
3003
0000
0110
0000
0000
0010
0011
0000
,  // measure 49
0000
0010
1000
0010
1000
0011
0000
0110
,  // measure 50
0000
0000
2000
3000
0000
0010
0011
0000
,  // measure 51
0100
1000
0100
1000
0100
0000
0110
0000
,  // measure 52
0011
0000
2000
3000
0000
0001
0011
0000
,  // measure 53
0100
0001
0100
1000
0100
0001
0100
0000
,  // measure 54
0110
0000
0220
0330
0000
0001
0001
0000
,  // measure 55
1000
0010
0001
0010
0001
0020
0000
0000
,  // measure 56
0030
0000
1000
0000
1100
0000
0010
0100
,  // measure 57
0010
0000
0100
0000
0001
1000
0000
0000
0001
1000
0000
0000
0001
1000
0000
0000
,  // measure 58
0110
0000
0010
0001
0100
0010
0000
1000
,  // measure 59
0100
0000
0000
0001
0100
0000
0000
0001
0100
0000
0000
0001
0200
0000
0000
0000
,  // measure 60
0300
1001
0000
0010
0100
0000
0001
0010
,  // measure 61
0001
1000
0010
0010
0100
0000
0100
1100
,  // measure 62
0000
0000
0110
0000
0002
0000
0000
0000
0003
0000
1000
0100
0000
0000
1000
0100
,  // measure 63
0001
0001
0010
0010
0100
0100
2000
0000
,  // measure 64
3000
0000
0010
0000
0110
0000
0100
0010
,  // measure 65
0100
0010
0001
0010
0001
2000
0000
3010
,  // measure 66
0100
0010
0000
0000
0000
0001
1000
0000
,  // measure 67
0010
0100
0010
0000
0000
0000
0000
0000
,  // measure 68
0001
0011
1000
0100
1000
0000
1100
0000
,  // measure 69
0010
0001
0010
0100
0010
0000
1010
0000
,  // measure 70
0100
0000
0001
0000
0010
0001
0000
0010
0200
0000
0000
0000
0300
0000
1000
0000
,  // measure 71
0100
1000
0002
0000
0000
0000
0003
0000
,  // measure 72
0010
0000
0010
0000
0110
0000
0000
1000
0100
0000
0010
0000
0000
0010
0100
0000
,  // measure 73
0001
0000
0000
0001
1000
0000
0100
0000
0000
0000
0200
0000
0310
0000
0000
0000
,  // measure 74
0001
0000
0010
0000
0000
0000
0110
0000
0000
0000
1000
0100
0000
0010
0000
0001
,  // measure 75
0000
0010
0100
0000
0020
0000
0000
0000
0000
0000
0000
0000
0000
0000
0030
0000
,  // measure 76
0100
0000
0110
0000
0000
0000
0001
0000
0010
0000
1000
0000
0100
0010
0100
0000
,  // measure 77
0001
0000
0001
0000
0000
0010
0000
0000
0010
0000
0010
0000
1000
0000
0000
0000
,  // measure 78
1100
0000
0000
0001
0010
0000
0000
0010
0100
0000
0000
0100
0000
0000
0010
0000
,  // measure 79
0020
0000
0000
0030
,  // measure 80
0000
0000
0010
0000
0110
0000
1000
0100
,  // measure 81
0001
0000
1000
0000
0100
0010
0100
1000
,  // measure 82
0010
0000
0100
0010
0001
0001
1000
0000
,  // measure 83
0100
1000
0100
0000
0010
0010
1000
0001
,  // measure 84
0001
0100
0010
0000
0100
1000
0100
0000
,  // measure 85
0010
0001
0001
0010
0100
1000
0001
0010
,  // measure 86
0100
0000
1100
0000
0010
0010
0001
0001
,  // measure 87
0001
0000
2002
0000
3003
0000
0000
0010
,  // measure 88
0110
0000
0001
1000
0100
0100
0010
0000
,  // measure 89
0100
0000
0010
0000
0100
0000
0001
0000
0000
0010
0001
0000
1000
0000
0100
0000
,  // measure 90
1000
0000
0011
0000
0000
0000
0010
0000
0100
0000
1000
0001
1000
0000
0010
0000
,  // measure 91
0000
0000
0100
0000
0010
0000
1000
0100
0000
0000
1000
0100
0001
0000
0010
0000
,  // measure 92
0100
0100
0011
0000
1000
0001
1000
0001
,  // measure 93
0100
0000
0000
0000
0110
0000
0000
0000
0001
0010
0001
0000
1000
0000
0100
0000
,  // measure 94
0010
0100
0100
0001
1000
0010
0100
0000
,  // measure 95
0100
0001
2002
3003
0010
0000
1010
0000
,  // measure 96
0110
0000
0000
0000
2002
0000
3003
0000
0010
0000
0010
0000
0100
0000
0100
0001
,  // measure 97
0000
0001
0000
1000
0000
0100
0000
0000
0100
0000
0000
0000
0110
0000
0000
0000
,  // measure 98
1010
1010
0000
0100
0010
0000
0011
0000
,  // measure 99
1000
0000
0100
0000
0000
0000
0110
0000
0000
0000
0011
0000
0000
0000
2002
3003
,  // measure 100
0000
0000
1000
0000
0110
0000
0010
0000
1000
0000
1000
0100
0000
0100
0001
0000
,  // measure 101
0010
0000
0000
0010
0100
0000
0000
0100
0000
0000
0100
0000
0000
0000
0120
0030
,  // measure 102
0000
0000
0000
0001
0000
0000
0001
0000
0000
0000
0011
0000
1000
0000
0100
0000
,  // measure 103
0000
0000
1000
0000
0000
1000
0000
0000
0010
0100
0010
0001
1000
0000
0000
0000
,  // measure 104
0100
0000
0000
0000
0220
0000
0000
0000
0000
0300
0200
0000
0000
0000
0000
0000
,  // measure 105
0000
0300
0000
0000
0000
0000
0030
0000
;

//---------------dance-single - ----------------
#NOTEDATA:;
#CHARTNAME:;
#STEPSTYPE:dance-single;
#DESCRIPTION:;
#CHARTSTYLE:;
#DIFFICULTY:Medium;
#METER:10;
#RADARVALUES:0.590285,0.684084,0.501338,0.557941,0.000000,511.000000,449.000000,62.000000,69.000000,0.000000,0.000000,0.000000,0.000000,0.000000,0.590285,0.684084,0.501338,0.557941,0.000000,511.000000,449.000000,62.000000,69.000000,0.000000,0.000000,0.000000,0.000000,0.000000;
#CREDIT:;
#NOTES:
0000
0000
0000
0000
,
0000
0000
0000
0000
,
0000
0000
0000
0000
,
0000
0000
0000
1001
,
0000
0000
0010
0000
0000
0000
0100
0010
,
0100
1001
0000
0000
,
0010
0100
0010
1001
0000
0000
0000
0100
,
0001
0010
1001
0000
0000
0000
0000
0000
,
0010
0100
1010
0000
0000
0000
0000
0000
,
0010
0100
0011
0000
0000
0000
0000
0000
,
1000
0100
0010
0000
0100
0000
0010
0000
,
0100
1000
0000
0001
0000
0001
0010
0100
,
1000
0001
1000
0000
0100
0010
0100
0000
,
0010
0000
0001
1000
0001
0000
0010
0000
,
1000
0001
1000
0000
0100
0000
0010
0100
,
0010
0000
0001
0000
1000
0000
2000
3000
,
0010
0000
0110
0000
0100
0010
0100
0000
,
0001
1000
0001
1000
0100
0000
0110
0000
,
0110
0000
1001
0000
1000
0100
1000
0000
,
0010
0001
0100
0010
0100
0000
0220
0330
,
1000
0000
2001
0000
0000
0000
3000
0001
,
0010
0200
0000
0000
0000
0000
0300
0000
,
1001
0000
0020
0000
0000
0030
0100
0010
,
0200
0000
0000
0000
0000
0300
1000
0000
,
1100
0000
0110
0000
0010
0001
0010
0001
,
1000
1000
0000
0100
0000
0010
0110
0000
,
1000
0000
0001
0001
0001
0010
0000
1000
,
1000
0002
0000
0003
,
0000
0000
1000
0010
1000
0010
0001
0010
,
0001
0010
0100
0010
0100
0000
1000
0000
,
1001
0000
0100
0010
0100
0010
0100
0000
,
0100
0001
0100
0000
0100
0000
0100
0000
,
0110
0000
1001
0000
0010
0100
0010
0000
,
1000
0001
0001
0000
0000
0110
0000
1000
,
0000
0000
0010
0100
0010
0000
1000
0000
,
0001
1000
0001
0000
0100
0000
0010
0000
,
0000
1000
0010
0001
,
0010
0000
0100
0010
0100
0000
2002
0000
,
0000
3003
0001
0100
,
0100
0010
1000
0000
1000
0000
0100
0000
,
0011
0000
1001
0000
0100
0010
0100
0000
,
0001
0000
0001
0100
0010
0000
0010
0000
,
1000
0001
0010
0000
0000
0010
0010
0000
,
1010
0000
0100
0010
0100
0000
0110
0000
,
0001
0010
1000
1000
0000
0010
0000
1001
,
0000
0000
0000
0000
0100
0100
0000
0110
,
0000
0000
0000
0000
0001
0001
0000
0010
,
0100
2002
0000
3003
,
1001
0000
0020
0030
0000
0200
0320
0030
,
0000
0002
2003
3002
0003
0200
0300
0110
,
0000
0000
2000
3000
0000
0020
0032
0003
,
0000
2000
3200
2300
3002
0003
0000
0110
,
0000
2002
3003
0000
0000
0200
0320
0030
,
0000
0002
2003
3002
0203
0300
0010
0000
,
0110
0000
2020
3030
0000
0200
0320
0030
,
0020
0030
0002
2003
3002
0000
0000
0000
,
0000
0003
0010
0000
0110
0000
0100
0000
,
1100
0000
1000
0100
1000
0200
0000
0320
,
0000
0030
1001
0000
1000
0100
0000
0000
,
0010
0100
0000
0100
0000
0200
0000
0000
,
0310
0000
0011
0000
0010
0100
0000
1000
,
0001
1000
0001
1000
0000
0200
0000
0000
,
0320
0032
0003
1000
,
1100
0000
0010
0010
0100
0000
0220
0000
,
0330
0001
0011
0010
,
0100
0100
2002
3003
,
0010
0001
0100
0000
0010
1000
0000
0000
,
1000
0000
2002
0000
3003
0000
0000
0010
,
0200
0300
0000
0100
0010
0100
0000
0000
,
0001
0100
0000
0100
0010
0000
0010
0000
,
0001
1000
0001
1000
0002
0000
0003
0000
,
0010
0020
0000
0000
0000
0030
0000
1000
,
0001
1001
0000
0010
0100
0010
0000
0100
,
0100
1000
0001
0000
0100
0010
0000
0001
,
0000
0001
0000
0011
0000
0020
0000
0030
,
1000
0200
0000
0000
0000
0300
0000
0110
,
0000
0010
0001
0010
0000
1000
0100
1000
,
0100
0000
0010
0100
0000
0100
0000
0001
,
0000
0010
0001
0000
1000
0100
0000
0100
,
0010
0000
0010
0001
2000
0000
3000
0000
,
1001
0000
0010
0010
0000
0110
0000
1100
,
0000
0010
0001
0000
0022
0033
0100
0100
,
0000
1000
0010
0000
1010
0000
1000
0100
,
0100
0000
0010
0001
0010
0000
0110
0000
,
1000
0100
0000
0001
0000
0001
0000
0100
,
0000
0010
1000
0100
1000
0000
0011
0000
,
0110
0000
0000
1000
0100
0100
0001
0100
,
0000
1100
0020
0000
0030
0000
0000
0010
,
0010
0000
0000
0001
0000
0011
0000
1000
,
0100
0000
0100
0010
0000
0100
0001
0000
,
0011
1000
0100
0000
0100
0010
0010
0000
,
1000
0100
0000
0010
0001
0010
0000
0000
,
0100
0000
0110
0000
0010
0000
1000
0001
,
1000
0001
0000
0011
0000
0110
0000
1000
,
0200
0000
0300
0010
0010
0000
0001
1000
,
0000
1000
0002
0000
0003
0000
0100
0000
,
0110
0000
0001
0010
0010
0000
1000
0000
,
0010
0000
0010
0100
0000
0100
0000
0001
,
0000
0010
0000
0100
0000
1000
0001
0000
,
0001
0100
0000
0100
0000
0010
2000
0000
,
3000
0010
0000
0010
0000
0001
0000
0100
,
0000
0100
1000
0000
0010
0001
0000
0001
,
0100
0000
0010
1000
0000
1000
0010
0000
,
0100
0000
0100
0001
0001
0000
1000
0000
,
0100
0000
0220
0000
0300
0200
0000
0000
,
0000
0300
0000
0000
0000
0000
0030
0000
;

//---------------dance-single - ----------------
#NOTEDATA:;
#CHARTNAME:;
#STEPSTYPE:dance-single;
#DESCRIPTION:;
#CHARTSTYLE:;
#DIFFICULTY:Easy;
#METER:8;
#RADARVALUES:0.482856,0.555818,0.371961,0.291100,0.000000,418.000000,372.000000,46.000000,36.000000,0.000000,0.000000,0.000000,0.000000,0.000000,0.482856,0.555818,0.371961,0.291100,0.000000,418.000000,372.000000,46.000000,36.000000,0.000000,0.000000,0.000000,0.000000,0.000000;
#CREDIT:;
#NOTES:
0000
0000
0000
0000
,
0000
0000
0000
0000
,
0000
0000
0000
0000
,
0000
0000
0000
1001
,
0000
0110
0000
1000
,
1000
1001
0000
0000
,
0100
0110
0000
0000
,
0001
1001
0000
0000
,
0010
0110
0000
0000
,
0001
1000
0001
1000
,
0001
1000
0000
0001
,
0100
1000
1000
1000
,
0110
0000
1001
0010
,
0000
1000
0100
0110
,
0000
0000
0001
1000
0001
0000
0001
0000
,
1000
1100
0220
0330
,
0001
1001
0100
0100
,
0110
0000
0011
0010
,
0010
1000
0100
0010
,
0100
0100
0220
0330
,
0001
1000
0000
0000
0000
0000
0000
0000
,
0010
0100
0000
0000
0000
0000
0000
0000
,
0000
1001
0000
0000
,
0010
0100
0000
0000
0000
0000
0000
0100
,
1000
1100
0001
0001
,
0000
0100
0000
1001
,
0110
0000
0000
0000
1000
0001
1000
0001
,
1000
2000
3000
0000
,
0000
0000
0001
0001
0010
0000
0100
0000
,
1000
0100
0010
0001
,
0011
0000
0000
0000
0001
0001
0010
0000
,
0100
0000
1000
0000
0100
0000
0020
0030
,
0000
0000
0001
0010
0001
0000
1000
0000
,
1000
0000
0100
0010
0100
0000
0110
0000
,
1010
0000
0000
0000
0001
1000
0001
1000
,
0001
0100
1000
1100
,
0000
0000
0010
0100
0010
0100
0010
0000
,
0000
0001
0000
0010
1000
0000
1100
0000
,
0000
0000
0010
0010
0000
0100
0000
1000
,
0010
0000
0001
0100
0000
0100
1000
0000
,
1001
0000
0000
0010
0100
0000
0001
0000
,
0001
1000
1000
0011
,
1100
0000
0000
0000
0100
0010
0100
0000
,
0100
0000
0101
0000
0001
0000
2002
3003
,
0000
0000
0010
0100
0010
0000
0010
0000
,
0020
0030
0000
0000
1000
0001
1000
0000
,
2000
3000
0000
0000
0001
1000
0001
0000
,
0001
0002
0000
0003
,
0000
0000
0100
0000
0000
0001
0010
0000
,
0000
1000
1000
2000
,
3001
0000
0010
0000
0000
0000
0100
1000
,
0000
0000
0010
0100
0010
0000
0020
0000
,
1030
0000
0001
0000
0000
1000
0100
0000
,
0000
0010
0010
0010
,
0010
0000
0110
0000
0000
0001
1000
0000
,
1000
0100
0010
0200
,
0300
0000
0001
0000
0011
0000
1000
0100
,
1000
0100
0110
0011
,
2002
3003
0010
0000
,
0100
0000
1000
2000
,
3020
0130
0100
0110
,
0001
1001
0100
0010
,
0010
0020
0030
0100
,
1000
0000
0001
1000
0001
2000
0000
0000
,
0000
3000
0010
0000
0010
0000
0100
0010
,
0100
0010
0002
0003
,
1000
0100
0000
0000
0000
0010
0100
0000
,
0000
1000
0200
0000
0000
0000
0300
0000
,
0010
0001
0000
0000
1000
0100
0000
0100
,
0000
0100
0000
0010
2002
0000
3003
0000
,
0010
0100
0000
0100
0000
0200
0000
0300
,
0000
0010
0002
0000
0000
0000
0003
0000
,
0000
1000
0001
0000
0100
0000
0100
0000
,
0100
0000
0001
0000
0010
0100
0000
0000
,
0011
0000
1100
0000
0010
0100
0010
0000
,
0100
0002
0000
0003
,
1000
0100
0000
0000
0001
0010
0001
0000
,
0100
0010
0010
0001
,
0100
1000
0011
0001
,
0100
0200
0300
0000
,
0110
0001
0011
1000
,
0100
0000
0100
0000
0010
0000
1000
0100
,
1000
0011
1000
1000
,
0010
0000
0001
0100
0000
0100
0000
0000
,
0010
0001
1000
0000
0001
0000
0001
0000
,
1000
0010
0100
1000
,
0010
0000
0001
0010
0001
0000
0100
0000
,
1000
0020
0030
0001
,
1000
1000
0010
0000
1010
0000
1000
0000
,
0001
0000
0010
0000
0100
1000
0100
0000
,
0001
0000
0022
0000
0033
0000
1000
1000
,
0100
0000
0010
0100
0001
0000
0001
0000
,
1000
0100
0000
0010
0100
0010
0000
1000
,
0000
0001
0010
0000
0100
0000
0100
0000
,
1000
0001
0000
0001
0000
0010
0100
0000
,
0100
0000
2000
0000
3000
0000
0010
0001
,
0000
0001
0000
0002
0000
0003
0000
0000
,
1000
0010
0001
1000
,
1000
0001
0100
0100
,
0010
1000
1000
0001
,
0100
0010
0100
1000
,
0001
0100
0010
0010
,
1000
0001
1000
0010
,
0100
0001
0001
1000
,
1000
0000
0220
0000
0300
0200
0000
0000
,
0000
0300
0000
0000
0000
0000
0030
0000
;

//---------------dance-single - ----------------
#NOTEDATA:;
#CHARTNAME:;
#STEPSTYPE:dance-single;
#DESCRIPTION:;
#CHARTSTYLE:;
#DIFFICULTY:Beginner;
#METER:4;
#RADARVALUES:0.403150,0.513063,0.291100,0.250669,0.000000,349.000000,313.000000,36.000000,31.000000,0.000000,0.000000,0.000000,0.000000,0.000000,0.403150,0.513063,0.291100,0.250669,0.000000,349.000000,313.000000,36.000000,31.000000,0.000000,0.000000,0.000000,0.000000,0.000000;
#CREDIT:;
#NOTES:
0000
0000
0000
0000
,
0000
0000
0000
0000
,
0000
0000
0000
0000
,
0000
0000
0000
0110
,
0000
1000
0000
0000
,
0000
0001
0000
0000
,
0000
0100
0000
0000
,
0000
1000
0000
0000
,
0100
0020
0000
0000
,
0030
0100
0000
0000
,
0000
0000
0000
0000
,
0000
0000
0000
1000
,
1000
1001
0000
0010
,
0100
0000
0100
0001
,
0000
0001
0010
0010
,
1000
0000
2000
3000
,
0110
0001
0001
0000
,
0000
0100
0000
1000
,
0000
1000
0000
0010
,
0001
0000
0100
0200
,
0300
0010
0000
0100
,
0000
1001
0000
0000
,
0001
0000
0010
0000
,
0010
0000
0100
0000
,
0110
0000
1000
0000
,
1000
0000
0001
1000
,
1100
0010
0010
0010
,
0020
0000
0030
0000
,
0100
0000
0001
0010
,
0100
1000
0100
0010
,
0001
0000
1000
0100
,
0010
0001
0010
0100
,
1001
0010
0010
0010
,
0100
0010
0100
1001
,
0110
0000
0010
0010
,
0100
1000
0001
0020
,
0030
0000
0100
0100
,
0010
0001
0100
1001
,
2002
3003
0010
0010
,
0001
0010
0100
1000
,
1001
0010
0010
0100
,
0010
0100
0001
1000
,
1001
0000
0010
0010
,
0100
0010
1000
2002
,
3003
0010
0010
0100
,
1000
0001
0001
0010
,
0100
0000
1000
1000
,
0100
0020
0000
0030
,
0110
0001
0000
0010
,
0000
0100
0100
0010
,
0110
0001
0000
1000
,
0000
0010
0010
0001
,
1001
1000
0001
0010
,
0000
0100
0100
0010
,
0001
1001
0100
0010
,
0010
0001
0001
0002
,
0003
1000
1001
0010
,
0100
0100
0010
0010
,
2002
3003
0100
0000
0110
0000
0001
0000
,
0001
1000
0001
2000
,
3010
0110
0001
1000
,
0100
0010
0100
0100
,
0001
0020
0030
1000
,
0100
0100
0010
0020
,
0030
0001
0001
1000
,
1000
0100
0020
0030
,
0001
0010
0110
1000
,
0001
0002
0000
0003
,
0100
0100
0010
0100
,
0010
0001
0002
0003
,
1000
0100
0010
0010
,
0001
2002
3003
0000
,
0100
0010
1000
1000
,
1000
0100
0110
0001
,
0011
1000
0100
0010
,
0100
0200
0000
0300
,
0110
0001
1000
1000
,
0010
0100
0010
0000
,
0001
0010
0010
1000
,
0200
0000
0000
0300
,
0110
0001
1001
1000
,
0100
0100
0010
0001
,
1000
1000
0100
0001
,
1001
1000
2000
3000
,
0001
0010
0110
1000
,
0100
0010
0001
0001
,
0010
0100
0010
0001
,
0100
0100
2000
3000
,
0001
1001
1000
0100
,
0100
0010
0100
0020
,
0031
1000
1000
1001
,
0010
0100
0010
0010
,
0001
0001
0100
1000
,
0100
0010
0100
0100
,
1000
0010
0001
0001
,
0100
0000
2000
3000
0010
0000
0110
0000
,
0001
2002
3003
0000
,
0010
0000
0100
0000
,
0100
0000
0001
0000
,
0001
0000
1000
0000
,
1000
0010
0100
0001
,
1000
1000
0001
0010
,
0100
0001
1000
0010
,
0100
0001
0010
1000
,
1000
0220
0300
0100
,
0000
0000
0000
0030
;
