#TITLE:Next Stage 2022;
#SUBTITLE:;
#ARTIST:Bemani Sound Team "Sota F.";
#TITLETRANSLIT:;
#SUBTITLETRANSLIT:;
#ARTISTTRANSLIT:;
#GENRE:;
#CREDIT:;
#BANNER:Next Stage 2022.png;
#BACKGROUND:Next Stage 2022-bg.png;
#LYRICSPATH:;
#CDTITLE:;
#MUSIC:Next Stage 2022.mp3;
#OFFSET:0.000000;
#SAMPLESTART:32.706768;
#SAMPLELENGTH:14.210526;
#SELECTABLE:YES;
#BPMS:0.000000=133.000000
;
#STOPS:
;
#BGCHANGES:;
#KEYSOUNDS:;
#ATTACKS:;

//---------------dance-single - ----------------
#NOTES:
     dance-single:
     :
     Hard:
     13:
     0.511960,0.629775,0.389861,0.142449,0.258658,478.000000,426.000000,52.000000,19.000000,0.000000,0.000000,0.511960,0.629775,0.389861,0.142449,0.258658,478.000000,426.000000,52.000000,19.000000,0.000000,0.000000:
0000
0000
0000
0000
,
0010
0110
1001
2000
,
0000
0000
0000
0000
,
3001
0001
0010
1000
1010
0000
1002
0000
,
0000
0000
0000
0000
,
0003
0010
0110
0000
1010
0000
2000
0001
,
0000
0001
0000
0001
0000
0001
0000
0001
,
3010
0010
0100
0000
0110
0001
0002
1000
,
0000
1000
0000
1000
0000
1000
0003
0000
,
1000
0000
1001
0000
0010
2000
0000
3000
,
0000
0000
1000
0000
0001
0000
0010
0100
0010
0000
1000
0000
0001
0000
0000
0001
,
0000
0000
0010
0000
0100
0000
0010
0000
0000
1000
0000
0000
1000
0000
0001
0000
,
0000
0001
0000
0000
0000
0010
0100
0000
0010
0000
1000
0001
0000
0000
0001
0000
,
0010
0000
0100
0000
0010
0000
1000
0000
1000
0000
0001
0000
0000
0001
0010
0000
,
0000
0100
0010
0100
1000
0000
0110
0000
,
0100
0000
0001
0000
1000
0000
0001
0000
0010
0000
0010
0100
0000
0000
0100
0000
,
0001
0000
1000
0000
0001
0000
0000
0010
0000
0000
0010
0000
0100
0000
0000
0000
,
0100
0000
0001
0000
0000
1000
0000
0000
0000
1000
0000
0000
0010
0000
0100
0000
,
0010
1001
0000
1001
0000
0010
0100
0100
,
0010
0000
1000
0000
0001
0000
1000
0000
0000
0010
0000
0000
0010
0000
0100
0001
,
0000
0001
1000
0100
1000
0001
0001
0100
,
0010
0000
0100
0001
0000
0000
0001
1000
0000
0000
1000
0000
0010
0000
0100
0000
,
0010
0010
0000
1001
0000
0100
0001
1000
,
0001
0000
0010
0000
0010
0100
0000
0000
0100
0000
1000
0000
0001
0000
1000
0000
,
0000
0010
0000
0000
0010
0100
0000
0000
0100
0000
0001
0000
0010
0000
0001
1000
,
0000
0000
1000
0010
0000
0000
0010
0000
0100
0000
0000
0000
0220
0000
0000
0000
,
0330
0000
0000
0000
1000
0000
1000
0000
0001
0000
0000
0001
0010
0000
0100
0000
,
0010
0000
1000
0000
0000
1000
0001
0000
0001
0100
0000
0000
0100
0000
0010
0000
,
0000
0010
1000
0000
1000
0000
0001
0000
0000
0001
0000
0000
0010
0100
1000
0000
,
0001
0000
0010
0000
0001
0000
0000
0010
0000
0000
0010
0100
0000
0000
0100
0000
,
0001
0000
0001
0000
1000
0000
1001
0000
0000
0000
0100
0000
0000
0100
0010
0000
,
0000
0010
0001
0000
1000
0000
1000
0000
0001
0000
0000
0001
0100
0000
0010
0000
,
0100
0000
1000
0000
0000
1000
0001
0000
0001
0000
0100
0000
0000
0100
0010
0000
,
0010
0000
1000
0000
0001
0000
1000
0000
0001
0000
0000
0000
0100
0010
0100
0010
,
0000
0000
1000
0000
0000
0000
1001
0000
0000
0000
0100
0010
0100
0000
0001
0000
,
0000
0001
1000
0000
0000
1000
0010
0000
0100
0000
0010
0000
0001
0000
0100
0001
,
0000
1000
1001
0010
0110
1000
1100
0001
,
0011
1000
1001
0100
0101
0010
1010
0100
,
0110
0000
0000
0000
0000
0000
1001
0000
0000
0000
0010
0100
0010
0000
1000
0000
,
0001
0010
0001
0000
0100
0000
0100
0000
1000
0000
0010
0000
0100
0000
1000
0000
,
0001
0000
1001
0100
1100
0010
0110
0001
,
0011
0100
0101
1000
1100
0001
2002
3003
,
0000
0200
0000
0000
0000
0000
0010
0001
,
0301
0000
0001
0001
0010
0100
1000
0000
,
1000
0000
0001
0000
1000
0000
0010
0000
0010
0000
0100
0000
0000
0100
0000
0010
,
0000
0000
0010
0000
0100
0000
0001
0000
1000
0000
0001
0000
0000
0010
0000
0000
,
0010
0100
0000
0000
0100
0000
0001
0000
1000
0000
0001
0000
0000
0010
0000
0000
,
0010
0000
0100
0000
0100
0000
0001
0000
0010
0000
0001
0000
0000
1000
0000
0000
,
1100
0000
0010
0000
0010
0000
0000
0100
0000
0000
0100
0000
0010
0000
0000
0000
,
1000
1001
0010
0010
0100
0100
0001
1000
,
0001
0000
0000
0010
0000
0000
0010
0100
0000
0000
0100
0000
0000
0000
0001
0000
,
1001
0000
0000
0010
0000
0000
0100
0000
0110
0000
2000
0000
0000
0000
0000
0000
,
3001
0000
0000
0000
1001
0000
0100
0000
0010
0000
0000
0010
1000
0000
0000
1000
,
0001
0000
0010
0000
0001
0100
0000
0000
0100
0000
0010
0000
1000
0100
1000
0000
,
0001
0000
0001
0010
0000
0000
0010
0100
0000
0000
0100
0000
0000
1000
0000
0000
,
0001
0000
1000
0000
0010
0000
0010
0000
0000
0100
0000
0000
0110
0000
0000
0000
,
0001
0000
0000
0000
1001
0000
0000
0000
0000
0001
0000
0000
0001
0000
0000
0000
,
0010
0000
0100
0000
0010
0000
0000
1000
0000
0000
1000
0000
0001
0000
0010
0000
,
0100
0000
0100
0000
0001
0000
1000
0000
0001
0000
0000
0010
0000
0000
1010
0000
,
0100
0000
0000
0100
0000
1000
0001
0000
0010
0000
0001
0000
1000
0000
1001
0000
,
0000
0000
2000
0000
0000
0000
0000
0000
0000
0000
0001
0010
0000
0010
0100
0000
,
3100
0000
1001
1000
0110
0100
1002
0000
,
1000
1000
1000
1000
,
0003
0010
0100
1000
0000
0000
0100
0000
0110
0000
0010
0000
1002
0000
0000
0000
,
1000
1000
1000
1000
,
1003
0000
1010
0010
0110
0101
1002
0000
,
0000
0000
0000
0000
0000
0000
0000
0000
0000
0000
0000
0000
0000
0000
0003
0010
,
0100
1000
1100
0100
0110
0001
1002
0000
,
1000
0000
0000
0000
1000
0000
0000
0000
1000
0000
0000
0000
2003
3000
0200
0300
,
0020
0000
0000
0000
,
0030
0000
0000
0000
;

//---------------dance-single - ----------------
#NOTES:
     dance-single:
     :
     Medium:
     11:
     0.358800,0.446091,0.284898,0.194930,0.108711,335.000000,297.000000,38.000000,26.000000,0.000000,0.000000,0.358800,0.446091,0.284898,0.194930,0.108711,335.000000,297.000000,38.000000,26.000000,0.000000,0.000000:
// measure 0
0000
0000
0000
0000
,  // measure 1
0010
0110
1000
2000
,  // measure 2
0000
0000
0000
0000
0000
0000
0000
3000
,  // measure 3
0001
1000
0001
0000
1010
0000
1002
0000
,  // measure 4
0000
0000
0000
0000
,  // measure 5
0003
0000
0110
0000
1010
0000
2000
0001
,  // measure 6
0000
0001
0000
0001
0000
0001
0000
0000
,  // measure 7
3010
0100
0110
0002
,  // measure 8
0000
0000
0000
0003
,  // measure 9
1000
0000
1001
0000
0010
2000
0000
3000
,  // measure 10
0000
1000
0001
0000
0010
0000
0100
0000
,  // measure 11
0000
0000
0010
0000
0000
0100
0000
0000
0100
0000
1000
0000
0000
0000
1000
0000
,  // measure 12
0001
0000
0000
0000
0010
0000
0000
0000
0001
1000
0000
0000
0100
0000
0000
0000
,  // measure 13
0100
0000
0000
0000
0010
0000
0000
0000
0010
0001
0000
0000
1000
0000
0100
0000
,  // measure 14
1000
0000
0001
0001
0000
0100
0000
0100
,  // measure 15
0000
0002
1000
0003
0000
0000
0010
0000
,  // measure 16
0010
0000
0100
0000
0001
0010
0001
0000
,  // measure 17
1000
0000
1000
0000
0000
0100
0010
0100
,  // measure 18
0000
1001
0000
0010
0100
0100
1000
0010
,  // measure 19
0000
0010
0001
0000
0000
0010
0100
0010
,  // measure 20
0000
1000
0000
1000
0000
0001
0010
0001
,  // measure 21
0000
0000
0000
0100
0000
0100
0000
0000
,  // measure 22
0010
0010
0000
1001
0000
0010
0000
1000
,  // measure 23
0100
1000
0000
0010
0000
0000
0010
0100
,  // measure 24
0000
0000
0100
0001
0001
0000
1000
0100
,  // measure 25
1000
0010
0010
2000
,  // measure 26
0000
3001
0000
0010
0000
0000
0100
0010
,  // measure 27
0000
1000
1001
0000
0100
0100
0000
0010
,  // measure 28
0000
0000
1000
0000
1000
0000
0001
0000
0000
0001
0000
0000
0010
0000
0000
0000
,  // measure 29
0010
0000
0001
0000
0100
0000
0000
0100
0000
0010
0000
0000
0010
0000
0000
0000
,  // measure 30
0200
0000
0000
0300
0000
0000
1001
0000
0000
0000
0100
0000
0000
0000
0001
0000
,  // measure 31
0001
0000
0000
0000
1000
0000
0100
0000
1000
0000
0010
0000
0000
0000
0010
0100
,  // measure 32
0000
0000
0100
0001
0000
0000
0001
0000
0000
0000
1000
0000
0100
0000
1000
0000
,  // measure 33
0010
0000
0010
0000
0001
0000
0100
0100
,  // measure 34
0100
0000
0000
0000
0000
0000
1001
0000
0000
0000
0000
0010
0000
0000
1000
0000
,  // measure 35
0100
0000
1000
0000
0010
0000
0000
0100
0000
0000
0100
0001
0000
0000
0001
0000
,  // measure 36
0000
0000
1000
0000
0000
1000
0100
0000
0000
0100
0010
0000
0000
0010
0001
0000
,  // measure 37
0000
0001
0100
0000
0000
0100
0010
0000
0000
0010
1000
0000
0000
1000
0001
0000
,  // measure 38
0000
0001
1000
0000
0000
0000
0000
0000
1001
0000
0000
0000
0100
0000
0000
0000
,  // measure 39
0001
0010
0001
0000
0100
1000
0000
1000
,  // measure 40
0000
0000
0001
0000
0000
0001
0010
0000
0000
0010
0100
0000
0000
0100
1000
0000
,  // measure 41
0000
1000
0100
0000
0000
0100
0010
0000
0000
0010
1000
0000
0000
1000
0001
0000
,  // measure 42
0000
0002
0000
0000
0000
0000
0000
0000
0003
0000
0000
0000
1000
0100
0010
0000
,  // measure 43
0000
0000
0001
0000
0000
0100
0000
0000
0100
0000
0000
0000
2000
0000
0000
0000
,  // measure 44
3000
0001
0001
0000
0010
0000
1000
0100
,  // measure 45
1000
0020
0000
0000
0000
1030
0000
0001
,  // measure 46
0000
0100
0000
0010
0000
1000
0100
1000
,  // measure 47
0000
0010
0001
0000
0100
0100
0000
1001
,  // measure 48
0000
0010
0100
0010
0000
0001
0000
0000
,  // measure 49
1010
0110
0000
0000
0001
0001
0000
0100
,  // measure 50
0020
0000
0000
0030
0100
0100
0000
0001
,  // measure 51
0010
0000
0000
0100
0110
0000
2000
0000
,  // measure 52
3000
1001
0110
0000
0100
0000
0110
0000
,  // measure 53
0100
0010
0000
0010
1000
0100
1000
0000
,  // measure 54
0001
0000
0001
0000
0100
0100
0000
0010
,  // measure 55
0001
1000
1000
0000
0010
0000
0110
0000
,  // measure 56
0001
1001
0100
0110
,  // measure 57
1000
1000
0000
0001
0010
0200
0000
0300
,  // measure 58
0000
0110
1010
0000
0000
0110
1001
0000
,  // measure 59
0000
0100
0010
0100
0000
0000
0001
1000
,  // measure 60
0000
2000
0000
0000
0000
0001
0010
3100
,  // measure 61
0000
0001
1001
0000
1010
0000
0220
0000
,  // measure 62
0000
0000
0000
0000
0000
0000
0000
0330
,  // measure 63
0000
1000
1001
0000
0011
0000
2002
0000
,  // measure 64
0000
0000
0000
0000
,  // measure 65
3003
1100
1010
0022
,  // measure 66
0000
0000
0000
0000
0000
0000
0000
0033
,  // measure 67
0100
0100
0001
0000
1001
0000
2200
0000
,  // measure 68
0000
0000
0000
0000
0000
0000
0000
0000
3300
0000
0000
0000
2000
3000
0200
0300
,  // measure 69
0020
0000
0000
0000
,  // measure 70
0030
0000
0000
0000
;

//---------------dance-single - ----------------
#NOTES:
     dance-single:
     :
     Easy:
     8:
     0.275259,0.362121,0.307390,0.134952,0.000000,257.000000,216.000000,41.000000,18.000000,0.000000,0.000000,0.275259,0.362121,0.307390,0.134952,0.000000,257.000000,216.000000,41.000000,18.000000,0.000000,0.000000:
0000
0000
0000
0000
,
0010
0110
1000
2000
,
0000
0000
0000
0000
0000
0000
0000
3000
,
0001
0001
1010
1002
,
0000
0000
0000
0000
,
0003
0110
1010
2000
,
0000
0000
0000
0000
,
3010
0100
0110
0002
,
0000
0000
0000
0003
,
1000
1001
0010
0200
,
0300
0010
0000
0010
0000
0000
0100
0000
,
0002
0003
0000
1000
,
0001
0010
0001
1000
,
1000
0000
0001
0000
0001
0000
0000
1001
,
0000
0100
0100
0010
,
2000
0000
3001
0000
,
0010
0010
0100
0100
,
1000
0000
1000
0000
0000
0000
0100
0010
,
0000
1001
0000
0000
0100
0000
0001
0000
,
0001
0000
0100
0010
,
0000
1000
0000
1000
0000
0000
0001
0000
,
0001
0000
0000
0100
0000
0100
0000
0000
,
0010
0100
0000
1001
0000
0000
0100
0000
,
0001
0000
0010
0000
0001
0000
0000
0100
,
0000
0100
0000
0000
0010
0000
0001
0100
,
0000
1000
1000
0200
,
0000
0300
0000
0000
0010
0000
0000
0000
0010
0000
0000
0000
0000
0000
0100
0000
,
1000
0000
0001
0000
0001
0000
0100
0010
,
0100
0000
0000
0000
0001
1000
0001
0000
,
0100
0000
0100
1000
,
1001
0000
0000
0110
0000
0000
0100
0000
,
0000
0001
1000
1000
,
0010
0000
0010
0000
0000
0100
0000
0001
,
0001
0000
0000
0100
1000
0000
0002
0000
,
1003
0000
0000
0110
0000
0000
0001
0000
,
0100
0010
1000
0100
,
0000
0100
0110
1000
,
1001
0001
0011
0100
,
0110
1001
0000
0010
,
0100
1000
0001
0001
,
0000
1000
1001
0001
,
0011
0100
0110
1000
,
1002
0000
0000
0010
,
0100
0000
1000
0000
0100
0000
0010
0003
,
0000
0100
0010
0100
0000
0000
0001
0000
,
0000
0020
0000
0000
0030
0000
1000
0000
,
1001
0000
0100
0100
0000
0000
0010
0000
,
0100
0000
0100
0000
0001
0000
0000
1000
,
0000
0000
0010
0000
0010
0000
0000
1100
,
0000
1001
0000
0000
0000
0100
0000
0001
,
0000
1000
0000
0010
0010
0000
0001
0000
,
0100
0001
0001
2000
,
0000
3001
0000
0000
1000
0000
0001
0000
,
0000
0000
0100
0100
0001
0000
0010
0000
,
1000
0000
1000
0000
0000
0001
0010
0001
,
0000
0000
0100
0010
0100
0000
0000
1001
,
0000
0000
0010
0000
0000
0000
1000
1000
,
0010
0000
0100
0000
0001
0010
0001
0000
,
0110
0000
0000
0000
1001
0000
0000
0010
,
0001
0000
0000
0010
0000
0000
1000
1001
,
0000
0200
0000
0000
0000
0000
0301
0010
,
0100
1000
1100
1002
,
0000
0000
0000
0000
0000
0000
0003
1000
,
1000
0110
1010
0210
,
0000
0000
0000
0310
,
1001
0110
1100
1002
,
0000
0000
0000
0000
0000
0000
0000
0003
,
1000
1100
0110
1002
,
0000
0000
0000
0200
,
0303
0000
0000
0000
;

//---------------dance-single - ----------------
#NOTES:
     dance-single:
     :
     Beginner:
     5:
     0.238843,0.310389,0.269904,0.164941,0.000000,223.000000,187.000000,36.000000,22.000000,0.000000,0.000000,0.238843,0.310389,0.269904,0.164941,0.000000,223.000000,187.000000,36.000000,22.000000,0.000000,0.000000:
0000
0000
0000
0000
,
0010
0110
1000
0002
,
0000
0000
0000
0003
,
1000
1000
1001
0002
,
0000
0000
0000
0000
,
0003
0110
1010
2000
,
0000
0000
0000
0000
,
3010
0100
0110
0002
,
0000
0000
0000
0003
,
1000
1001
0000
0200
,
0310
0000
1000
0000
,
2000
3000
0001
1000
,
0001
0000
0010
0100
,
0000
0010
1000
1001
,
0000
0010
0001
0100
,
2000
3000
0000
1001
,
0001
0010
0000
0100
,
0100
0001
0010
1000
,
1001
0000
0100
0001
,
0010
0000
0100
0100
,
0000
0001
0010
0001
,
0000
0100
0100
0000
,
0010
0110
0000
1000
,
0100
0001
0001
0000
,
1000
0100
1000
0000
,
0010
0010
0000
2000
,
3001
0010
0010
0001
,
0000
0000
0000
1001
0000
0000
0010
0000
,
0100
0000
0100
0001
,
0001
0000
0100
1000
,
0000
0000
0000
1001
0000
0000
0010
0000
,
0010
0000
0000
0110
0000
0000
0001
0000
,
0001
1000
0100
1000
,
0000
0010
0010
2000
,
3001
0000
0000
1001
0000
0000
0100
0000
,
0100
0010
0001
0100
,
0000
1000
0001
1000
,
0001
1000
0001
1000
,
0001
0100
0110
0001
,
0001
1000
1000
0100
,
0001
0100
0010
0100
,
0010
0100
0010
0100
,
0210
0000
0000
0001
,
0010
0301
2000
0000
,
3000
0001
0001
1000
,
1002
0000
0003
0100
,
0010
1000
0001
0001
,
0000
0000
0100
0000
1000
0000
0000
1001
,
0000
0100
0000
1001
,
0220
0000
0330
0001
,
0001
0000
1000
0100
,
0001
0000
1002
0003
,
1001
0000
0010
0110
,
0001
0100
0000
1000
,
0001
1001
0100
0110
,
0001
0010
1000
1001
,
0000
0100
0000
0110
0000
0001
0000
1001
,
0000
0100
0010
0001
,
0000
1000
0000
1001
0000
0100
0000
0110
,
0000
0001
1000
1001
,
0000
0220
0000
0000
0000
0000
0000
0000
,
0330
1000
0001
2001
,
0000
0000
0000
0000
,
3000
0001
1000
1002
,
0000
0000
0000
0003
,
0000
1000
1001
0020
,
0000
0000
0000
0030
,
1000
1001
0001
2000
,
0000
0000
0000
0002
,
3003
0000
0000
0000
;
