#TITLE:Nazca no oka;
#SUBTITLE:(Hi-NRG Remix);
#ARTIST:Hyuji feat. LQU@ & TadashiYamamoto;
#TITLETRANSLIT:;
#SUBTITLETRANSLIT:;
#ARTISTTRANSLIT:;
#GENRE:;
#CREDIT:PaperBox440;
#BANNER:Nazca no oka (Hi-NRG Remix).png;
#BACKGROUND:Nazca no oka (Hi-NRG Remix)-bg.png;
#LYRICSPATH:;
#CDTITLE:;
#MUSIC:Nazca no oka (Hi-NRG Remix).mp3;
#OFFSET:0.000000;
#SAMPLESTART:9.022556;
#SAMPLELENGTH:14.436090;
#SELECTABLE:YES;
#BPMS:0.000000=133.000000
;
#STOPS:
;
#BGCHANGES:;
#KEYSOUNDS:;
#ATTACKS:;

//---------------dance-single - ----------------
#NOTES:
     dance-single:
     :
     Hard:
     14:
     0.699885,0.744868,0.859965,0.234536,0.412609,564.000000,465.000000,99.000000,27.000000,0.000000,0.000000,0.699885,0.744868,0.859965,0.234536,0.412609,564.000000,465.000000,99.000000,27.000000,0.000000,0.000000:
// measure 0
0000
0000
0000
0000
,  // measure 1
2002
0000
0000
0000
0000
0000
0000
0000
3003
0000
0000
0000
1000
0001
1000
0001
,  // measure 2
1000
0000
0220
0000
0000
0000
0000
0000
0000
0330
0000
0001
1000
0001
1000
0000
,  // measure 3
1001
0000
1100
0000
,  // measure 4
0220
0000
0330
1100
0000
0110
0000
1001
,  // measure 5
0000
0000
1000
0001
1000
0001
1000
0000
0000
0000
0110
0000
1010
0000
0001
0000
,  // measure 6
1000
0001
1000
0001
1000
0001
1000
0000
0000
0000
1100
0000
1001
0000
1100
0000
,  // measure 7
0010
0100
0010
0100
0010
0000
1000
0100
0001
0010
1000
0000
1001
0000
0000
0000
,  // measure 8
1000
0010
0000
0100
0001
0000
1000
0100
0000
1001
0000
0000
,  // measure 9
1000
0001
1000
0001
1000
0000
0100
0000
0010
0000
0110
0000
1100
0000
0000
0000
,  // measure 10
0000
0001
1000
0001
1000
0001
0000
0100
0000
0000
1000
0000
1010
0000
1100
0000
,  // measure 11
0001
0000
0001
1000
0000
1001
0000
0001
0000
0010
0100
0000
,  // measure 12
0110
0110
0000
1001
1001
0000
1100
1100
,  // measure 13
2002
0000
3003
0000
0010
0000
0010
0000
0100
0000
0100
0001
0000
0000
1000
0000
,  // measure 14
1000
0001
0010
0000
0010
0000
0000
1000
0100
1000
0001
0000
0001
0000
0100
0000
,  // measure 15
0100
1000
0001
0000
0001
0000
0100
0010
0100
0000
0001
0000
1000
0100
1000
0000
,  // measure 16
0010
0000
0100
0000
0100
0000
0001
0010
0001
0000
0100
0000
0100
0000
0010
0000
,  // measure 17
0010
0000
1000
0100
1000
0000
0001
0000
0001
0000
0100
0000
0100
0000
0001
0010
,  // measure 18
0001
0000
1000
0000
1000
0010
0001
0000
0001
0000
0100
0010
0100
0000
0000
0000
,  // measure 19
1000
1000
1100
1100
0001
0001
1001
1001
,  // measure 20
0000
1100
0001
1001
0100
0110
1001
2000
,  // measure 21
3000
0000
0010
0000
0001
0000
0001
0000
0100
0000
0010
0000
0010
0000
1000
0100
,  // measure 22
1000
0000
0001
0000
0001
0000
0010
0100
0010
0000
1000
0000
1001
0000
0000
0100
,  // measure 23
0010
0100
0000
0000
0010
0000
0100
0000
0100
0000
0001
0010
0001
0000
0000
0000
,  // measure 24
1100
1010
0110
0101
,  // measure 25
0010
0000
0100
0000
1001
0000
0000
0100
0010
0000
1000
0100
1000
0000
0001
0000
,  // measure 26
0001
0000
0100
0000
0010
0000
0010
0000
1000
0001
1000
0000
2002
0000
3003
0000
,  // measure 27
0000
0000
0010
0100
0010
0000
1000
0000
1001
0000
0000
0000
0010
0000
0100
0000
,  // measure 28
0100
0000
0001
0000
0010
0100
0010
0000
1000
0000
1000
0000
0001
0010
0001
0000
,  // measure 29
1100
0000
0010
0001
1000
0001
0100
0100
,  // measure 30
0001
1000
0001
0000
1100
0000
0000
0000
0011
0000
0000
0000
1100
0000
0000
0000
,  // measure 31
1001
0000
0000
0010
0100
0000
0100
0000
0001
0010
0001
0000
1000
0000
1000
0000
,  // measure 32
0002
0000
0000
0000
1003
0000
1000
0100
0000
1000
0000
1000
0001
0000
1000
0000
,  // measure 33
1001
0000
0000
0000
0100
0000
0001
0010
0001
0000
0100
0000
0100
0000
0001
0000
,  // measure 34
0010
0001
1100
0000
1010
0000
0110
0000
,  // measure 35
1001
0000
0000
1000
0000
0010
0100
0010
0000
0000
0100
0000
0110
0000
0000
0000
,  // measure 36
0100
0000
0001
1000
0001
0000
0000
0000
0100
0000
0000
0000
0110
0000
1001
0000
,  // measure 37
1100
0000
0000
0000
1000
0100
1000
0000
0001
0000
0001
0000
0100
0000
0100
0000
,  // measure 38
0001
0010
0001
0000
2000
0000
0000
0000
0000
0000
3000
0000
0001
0000
0000
0000
,  // measure 39
1001
0000
0100
0000
1100
0000
0000
0000
0001
0010
0001
0000
0000
0010
0100
0000
,  // measure 40
0110
0000
0000
0000
1000
0000
0001
0000
0001
0000
0010
0100
0010
0000
1000
0000
,  // measure 41
2002
3003
0000
0000
0100
0001
0100
0000
0010
0000
0010
0000
1000
0100
1000
0000
,  // measure 42
0001
0000
0001
0000
0000
0100
0010
0100
0000
0000
1000
0001
0000
1001
0000
0000
,  // measure 43
0110
0000
0000
1000
0001
0000
0001
0000
1000
0000
0000
0000
1001
0000
0001
0000
,  // measure 44
2200
0000
0000
3300
0000
0000
0010
0000
1000
0001
1000
0001
0000
0000
0100
0000
,  // measure 45
0110
0000
0000
0000
0001
0000
0100
0000
0010
0000
0010
0000
1000
0100
1000
0000
,  // measure 46
0001
0000
0000
0000
0001
0000
0100
0000
0100
0000
0001
0010
0001
0000
1000
0000
,  // measure 47
1000
0000
0001
0000
0001
0000
0100
0010
0100
0000
1000
0000
1001
0000
0022
0000
,  // measure 48
0033
0000
1010
0000
0000
1000
0000
0000
1001
0000
0000
0000
1000
0000
1000
0000
,  // measure 49
1001
0000
0110
0100
0010
0010
1000
1000
,  // measure 50
0001
0010
0001
0000
0100
0000
0010
0000
0010
0000
1000
0001
1000
0000
0000
0000
,  // measure 51
0110
0000
1000
0000
0001
0000
0001
0000
0100
0010
0100
0000
0001
0000
0001
0000
,  // measure 52
2200
3300
2020
3030
0220
0330
2002
3003
,  // measure 53
0000
0000
1000
0001
1000
0001
1000
0000
0010
0000
1010
0000
1100
0000
0000
0000
,  // measure 54
1000
0001
1000
0001
1000
0000
0100
0000
0110
0000
0101
0000
1001
0000
0000
0000
,  // measure 55
0010
0100
0010
0100
0010
0000
0000
0000
0110
0000
1010
0000
1100
0000
0000
0000
,  // measure 56
0100
0010
1000
1001
0010
0110
1000
1001
,  // measure 57
0000
0000
0100
0010
0100
0010
0100
0000
0001
0000
1000
0000
1010
0000
1100
0000
,  // measure 58
0000
0000
0010
0100
0010
0100
0010
0000
0001
0000
0011
0000
1000
0000
1001
0000
,  // measure 59
0000
0000
1000
0001
1000
0010
1000
0100
1000
0000
0001
0010
0001
0000
0000
0000
,  // measure 60
1001
0000
0110
1000
1001
0001
0110
0010
,  // measure 61
1001
1001
1001
0000
0000
0000
0000
0000
;

//---------------dance-single - ----------------
#NOTES:
     dance-single:
     :
     Medium:
     11:
     0.511263,0.505446,0.625429,0.095552,0.060806,412.000000,340.000000,72.000000,11.000000,0.000000,0.000000,0.511263,0.505446,0.625429,0.095552,0.060806,412.000000,340.000000,72.000000,11.000000,0.000000,0.000000:
0000
0000
0000
0000
,
2002
0000
0000
0000
0000
3003
0000
0000
,
2200
0000
0000
0000
0000
3300
0000
0000
,
0110
0000
1001
0000
,
0110
1010
1100
1001
,
0100
0010
0100
0010
1000
0000
1001
0000
,
1000
0001
1000
0001
0010
0000
0110
0000
,
0100
0010
0100
0000
1001
0000
1100
0000
,
0010
1001
1010
1100
,
0001
1000
0001
1000
0001
0000
1001
0000
,
0100
0010
0100
0010
1000
0000
1001
0000
,
0100
0100
0010
0010
1000
0001
1000
0000
,
1100
1100
0000
1001
1001
0000
0110
0110
,
0000
0001
1000
0010
0100
0001
0000
0001
,
1000
1000
0001
0100
0010
0100
1000
0000
,
1001
0000
0100
0001
0010
0001
0100
0100
,
1000
0000
1000
0001
0010
0001
0100
0000
,
0100
0010
1000
0001
1000
0100
0000
0100
,
0010
0001
0000
0001
0100
1000
0000
0001
,
1000
0001
0100
0010
0000
0010
0000
0000
,
1001
0000
0000
0000
1100
0000
0000
0110
0000
0000
0001
0000
1001
0000
0000
0000
,
0010
0100
0100
0001
0010
0001
1000
0000
,
1000
0010
0100
0010
0001
0001
2000
0000
,
3000
0001
0000
0001
0010
0100
0010
0000
,
1100
1001
0110
1010
,
0001
0001
0100
0000
0010
1000
0100
1000
,
0001
0000
0001
0000
0010
0100
0220
0000
,
0330
0000
1000
0100
0010
0100
0001
0000
,
0001
1000
0000
1000
0100
0100
0010
0000
,
0110
0000
0001
0001
1000
0000
1100
0000
,
0010
1000
0100
1000
0011
0000
0001
1000
,
1100
0000
0001
0010
0001
1000
1000
0000
,
0220
0000
0330
0000
1000
0001
0000
0100
0010
0000
0001
1000
0000
0000
1001
0000
,
0000
0100
0001
0001
1000
0000
0100
0010
,
0100
0001
0001
1000
0100
1000
0010
0000
,
0010
0100
0000
0100
0001
0000
0001
1000
,
0100
1000
0000
0010
0100
0100
0001
1000
,
0001
0000
0110
0000
1100
0000
0010
1000
,
0000
1000
0000
0002
0000
0000
0003
1000
,
0010
0100
0100
0001
0010
0001
2000
0000
,
0000
0000
3000
0001
0010
0100
0010
0000
,
1001
0000
1001
0000
0010
0100
0100
0000
,
1010
0000
1010
0000
0001
0100
0100
0000
,
0100
0010
1001
0000
1001
0000
0010
1000
,
0001
0100
0000
0100
0001
1000
0000
1000
,
1001
0000
0000
0001
0000
0001
0010
0000
0010
1000
0000
1000
,
0100
0000
0100
0001
0000
0001
0110
0000
1000
0000
1000
0000
,
1001
0000
0000
0000
0000
0010
0100
1000
0000
1000
0001
0000
,
0001
0000
1001
0000
1100
0000
0010
0010
,
1001
0000
0010
1000
0100
1000
0001
0010
,
0000
0010
0100
0100
0001
1000
0010
0100
,
0001
0001
1000
0100
1000
0001
0001
0000
,
1100
1001
1100
0110
,
1000
0001
1000
0001
1000
0000
1001
0000
,
0100
0010
0100
0010
0100
0000
0110
0000
,
0001
1000
0001
1000
0010
0000
0110
0000
,
0001
1001
1010
1100
,
0001
1000
0001
1000
0100
0000
0110
0000
,
0001
1000
0001
1000
0100
0000
1001
0000
,
0010
0100
0100
1000
1000
0001
0001
0000
,
1100
1010
0110
1001
,
1001
1001
1001
0000
0000
0000
0000
0000
;

//---------------dance-single - ----------------
#NOTES:
     dance-single:
     :
     Easy:
     6:
     0.400820,0.452242,0.677548,0.060806,0.000000,323.000000,245.000000,78.000000,7.000000,0.000000,0.000000,0.400820,0.452242,0.677548,0.060806,0.000000,323.000000,245.000000,78.000000,7.000000,0.000000,0.000000:
0000
0000
0000
0000
,
2002
0000
0000
3003
,
0220
0000
0000
0330
,
1100
0000
1001
0000
,
0110
1010
1001
0110
,
1000
0001
1000
0110
,
0100
0010
0100
1001
,
1000
0100
1000
0011
,
1000
1001
0110
1010
,
0100
0010
0100
1001
,
1000
0001
1000
0110
,
0001
0001
1000
1000
,
0110
0000
0000
1001
0000
0000
0110
0000
,
1000
0001
1000
0100
,
0100
0001
1000
1000
,
0010
0010
0100
0001
,
1000
0100
1000
0001
,
0100
0010
0010
1000
,
0100
1000
0001
0001
,
0100
0010
0100
0010
1000
0001
1000
0000
,
1001
1100
0001
1001
,
0100
0100
0010
0100
,
0001
0000
0001
0000
0100
0010
0100
0000
,
1000
0100
0001
0001
,
1100
1001
0110
1010
,
0001
1000
0100
0110
,
0001
0000
1000
0000
0001
1000
0001
0000
,
0110
1010
1000
0001
,
0110
0001
0001
1000
,
1001
0100
0110
1000
,
0100
1100
0001
1001
,
0110
1000
0010
0100
,
0002
1003
1000
1001
,
0010
0100
1000
0001
,
0010
0100
0110
0001
,
1010
0001
1000
1000
,
0100
0110
0001
1001
,
1100
0010
0110
0001
,
0001
1000
0100
1000
,
0100
0110
0001
1001
,
0100
0010
0100
0001
,
1001
0000
1100
0000
1000
0001
1000
0000
,
0110
0000
1010
0000
0001
1000
0001
0000
,
1001
1100
0010
0100
,
0220
0000
0000
0000
0330
0000
1000
1000
,
0001
0000
0010
0000
0100
0010
0100
0000
,
0001
1000
0001
0000
1001
0000
0110
0000
,
1010
0000
0001
0001
0010
0100
0010
0000
,
1001
0000
1100
0000
0110
0000
0001
0001
,
1001
0110
1010
1000
,
0001
1000
0010
0100
,
0110
0010
0100
0001
,
1001
1100
0110
1001
,
0100
0010
0100
0110
,
1000
0001
1000
0110
,
0100
0001
0100
0011
,
1000
1100
0110
1001
,
0100
0010
0100
1001
,
0001
1000
0001
0110
,
1000
0000
1000
0000
0100
0010
0001
0000
,
1001
1100
0110
1000
,
1001
1001
0000
0000
;
